This file was generated by Ched 2.6.2.0.
#TITLE "normal"
#ARTIST ""
#DESIGNER ""
#DIFFICULTY 0
#PLAYLEVEL
#SONGID ""
#WAVE ""
#WAVEOFFSET 0
#JACKET ""
#REQUEST "ticks_per_beat 480"
#00002: 4
#BPM01: 128
#00008: 01
#TIL00: ""
#HISPEED 00
#MEASUREHS 00
#0001a:14140000
#00014:00001414
#00118:14140000
#00112:00001414
#0081a:14
#00818:0014
#00814:00140000
#00810:41
#00914:14
#00918:00140000
#0121a:14140000
#01214:14140000
#01218:0014
#01212:0014
#01513:0014
#01519:0014
#01512:00140014
#0151a:00140014
#0161a:14
#01612:00140014
#01618:0014
#01610:41
#01712:00001616
#01718:0000000000160000
#02012:1414
#02018:00140014
#02112:14
#0241a:14140000
#02414:0014
#02418:00000014
#02412:14
#02410:41
#02512:14
#04314:00001414
#04318:0000000000140014
#04514:14
#04518:0014000000000000
#04512:00141400
#04516:0000001400000000
#0491a:1414
#04912:0014001400001400
#04916:00140000
#04918:00000014
#05018:14
#05012:14
#05014:00000014
#0501a:00000014
#05612:14140000
#05618:0014000000000000
#0561a:00001414
#05614:0000000000140000
#05712:14
#05718:0014000000001400
#05714:0000140000140000
#0571a:0014
#0281f:11
#00412:14140000
#00418:00001414
#00514:14140000
#0051a:00001414
#03012:16
#03014:0000001600000000
#03118:16
#03116:0000001600000000
#0321a:1414
#03214:1414
#03218:00140000
#03212:00140000
#03513:1414
#03519:1414
#03512:00140014
#0351a:00140014
#03719:14
#03713:0014000000000000
#03718:00140000
#03712:0000001400000000
#04212:14
#04218:14
#0421a:0014
#04214:0014
#05318:14
#05312:00000000000034340000000000000000
#05313:00000000003400000000000000000000
#05914:00140014
#0591a:00140014
#05912:0014
#05918:0014
#06015:16
#0141a:14
#01412:00140000
#01812:14
#0181a:00140014
#01814:0014
#01918:00001616
#01912:0000000000160000
#04718:14
#04714:0014000000000000
#0471a:00141400
#04716:0000001400000000
#05814:14140000
#05818:0014001400000000
#0221a:1414
#02214:00140014
#0231a:14
#02612:14140000
#02618:0014
#02614:00000014
#0261a:14
#0271a:14
#05514:14
#0551a:00000000000034340000000000000000
#05519:00000000003400000000000000000000
#03913:14
#03919:0014000000000000
#03914:00140000
#0391a:0000001400000000
#05114:14
#0511a:14
#01012:14
#01014:0014
#01018:00140000
#01118:14
#01114:00140000
#01312:14140000
#01318:14140000
#01314:0014
#0131a:0014
#03312:1414
#03318:1414
#03314:00140000
#0331a:00140000
#03418:14141414
#03414:0014001400140000
#0361a:00000014
#03614:0000000000000014
#0361f:21
#03612:26262600
#03812:00000014
#03818:2600260026000014
#03810:41
#04119:14
#04113:0014000000000000
#04118:00140000
#04112:0000001400000000
#0401a:00000014
#04014:0000000000000014
#04012:26262600
#04416:00000014
#0441a:0000000000000014
#04412:2626
#04418:00260000
#04616:00000014
#04612:0000260000000014
#04618:2626
#04814:0000000000000014
#0481a:24002414
#04812:2424
#04815:00260000
#04810:41
#05410:41
#02152:64
#02552:64
#04552:0054
#05058:64
#05052:64
#03052:56
#03054:0000002600000000
#03158:66
#03156:0000002600000000
#04252:64
#04258:64
#0425a:0054
#04254:0054
#06055:66
#0475a:0064
#03552:00000014
#0355a:00000014
#0235a:54
#0275a:54
#05154:54
#0515a:54
#0023a0:14
#002380:00240000
#002320:0014
#002340:00000024
#003380:14
#0033a0:00240000
#003340:0014
#003320:00000024
#006320:14
#006340:00240000
#0063a0:0014
#006380:00000024
#007340:14000024
#009320:00001424
#0113a0:00001424
#014390:0000000014343434
#015390:24
#014331:0000000014343434
#015331:24
#0173a1:14
#017381:00240000
#019321:14
#019341:00240000
#021321:14
#021341:0024
#0233a1:14
#023381:0024
#025321:14
#025341:0024
#0273a1:14
#027381:0024
#028321:16000026
#028341:0000005600000000
#029381:16000026
#029361:0000005600000000
#030321:16000026
#030341:0000005600000000
#031381:16000026
#031361:0000005600000000
#037381:00001424
#039341:00001424
#041381:00001424
#042321:14
#042341:00240000
#042380:14
#0423a0:00240000
#0423a0:0014
#042380:00000024
#042341:0014
#042321:00000024
#043321:14240000
#0433a0:14240000
#045320:0014
#045340:00000024
#0473a0:0014
#047380:00000024
#050380:14
#0503a0:0024
#050321:14
#050341:0024
#051341:14
#051321:0024
#0513a0:14
#051380:0024
#052320:1434
#052340:00340024
#053340:00140000
#053330:00000000003400000000000000000000
#053320:00000000000034343400340024000000
#0543a0:1434
#054380:00340024
#055380:00140000
#055390:00000000003400000000000000000000
#0553a0:00000000000034343400340024000000
#058340:0000000014343434
#059340:24
#060350:16
#064360:24
