This file was generated by Ched 2.6.2.0.
#TITLE ""
#ARTIST ""
#DESIGNER ""
#DIFFICULTY 0
#PLAYLEVEL
#SONGID ""
#WAVE ""
#WAVEOFFSET 0
#JACKET ""
#REQUEST "ticks_per_beat 480"
#00002: 4
#BPM01: 130
#00008: 01
#TIL00: ""
#HISPEED 00
#MEASUREHS 00
#00314:14
#0051a:14
#00712:14
#00710:41
#01412:14
#0151a:14
#01612:14
#01718:14
#01814:14
#01918:14
#02014:14
#02118:14
#02218:14
#02314:14
#0251a:14
#02510:41
#0261a:14
#02712:14
#02812:14
#02414:14
#04318:2616
#0431f:21
#04412:1616
#04410:41
#04518:16
#04512:0016
#04712:1616
#04818:1616
#04912:16
#04918:0016
#0511a:14
#0521a:14
#05312:14
#05412:14
#05410:41
#05518:14
#05614:14
#05718:14
#05814:14
#00214:14
#00218:0014
#0041a:14
#00612:14
#0081a:14
#03914:14
#03918:0014
#04014:14
#04018:0014
#0591a:14
#05914:0014
#06018:14
#0351f:11
#01312:24
#0131a:24
#01310:41
#04618:26
#05012:26
#03310:41
#0093a0:14
#0103a0:24
#011320:14
#012320:24
#0293a0:14
#0303a0:24
#031320:14
#032320:24
#033380:14
#034380:24
#035340:14
#036340:24
#0373a0:14
#0383a0:24
#041340:14
#042340:24
#060320:0014
#062320:24
