This file was generated by Ched 2.6.2.0.
#TITLE ""
#ARTIST ""
#DESIGNER ""
#DIFFICULTY 0
#PLAYLEVEL
#SONGID ""
#WAVE ""
#WAVEOFFSET 0
#JACKET ""
#REQUEST "ticks_per_beat 480"
#00002: 4
#BPM01: 130
#00008: 01
#TIL00: ""
#HISPEED 00
#MEASUREHS 00
#01112:1300000013130000
#01115:0013000000000000
#01118:00130000
#0111b:0000001300001313
#01117:0000000013130000
#01116:0000000000001313
#01212:1300130000130000
#01212:1300130000130000
#01215:0013001313000000
#0121b:00130000000000130000001300000000
#01218:00000013001300000013000000000000
#01216:00000014
#01314:00130000
#01316:0013000000000000
#01315:0000000000130000
#0131a:00130000
#01318:2300000000000013
#01312:2313
#0131b:00000013
#01310:41
#0141b:1300000000000013
#01419:0013000000000000
#01416:13
#01414:0013000000000000
#01412:00131300
#01418:0000000000130000
#01415:00000013
#0161b:00131300
#01615:0000000000130000
#01618:00000000000000000000000013000013
#01612:1300000000000013
#01614:0013000000000000
#01617:13
#01619:0013000000000000
#02118:00001300000013000000130000000013
#02112:1300001300000013
#02115:00000013000000000000000000000000
#0211b:00131313
#02418:000000000000000000130000000000000000000000000000000033003300130000000000000000000000000000000000
#02412:0000001300000000
#0241b:0000000000000000001300000000000000000000000000000000000000000000
#02416:13
#02415:000000000000000000000000003333130000000000000000
#02419:000033
#0241a:000000000000000000000000000000000033000000000000
#02414:000033
#02413:000000000000000000000000000000000033000000000000
#0251b:13130000
#02515:00130000000013001300000013000000
#02518:00001300000000130000000000000000
#02512:0000130000130013
#02510:41
#02612:1300000000130000
#02618:00130000000000000000000000000000
#02615:0013001300000000
#0261b:00000000130000130000000000001300
#02614:00000013
#02616:0000000000000013
#02712:13000000130000130000000000001300
#02715:0013000000000000
#02718:00130000000013000000000000000000
#0271b:0000130000130000
#02717:0000000000000013
#02719:00000013
#02815:00000013000000000000330000000000
#0281b:0000001300001313
#02812:0000000000000000001300000000000000000000000000000000000000000000
#02817:130000000000000000000000000000000033000000000000
#02813:000000000000000000000000003300000000000000000000
#02814:000000000000003300000000
#02816:000033
#0291b:13
#02915:13
#02912:0000000014000014
#0291a:00003300000000000000001400000000
#02916:0014
#02913:0033000000000000
#03016:00140000000000000000000000000000
#03012:00001313
#0301b:0000000000130013
#03015:0000000000130013
#0301a:00140000
#03018:00001313
#03215:0000001313000000
#03218:00000000000000130000000000000000
#03212:0000140000130013
#0321b:0000000000130013
#03216:00140000000000000000000014000000
#03315:0013000000000000
#03318:0013000000000000
#03316:00000000000000001400001400001400
#0331a:0014
#03310:41
#0341b:0000001300000000
#03412:00140000000000000000000000000000
#0341a:00140000
#03617:0000001300130013
#0361b:00131313
#03616:13130000
#0371b:13
#03716:0000001300130013
#03712:00131313
#03717:00130000
#0391b:13001313
#03915:0013001300001300
#03918:0000130000130013
#03912:00131300
#04012:1300130000131300
#04015:0013000013000000
#0401b:1300001313000013
#04018:00130013
#04115:130000000000130000000000130000000000000000000034
#04112:0013001300131400
#04118:00130000001300000013000000000000
#0411b:00000013000000130000001300000000
#04116:00000014
#04113:000000000000000000000000000000000000003400000000
#04114:000000000000000000000000000000000000000034343400
#03112:13000000000000000000001400000000
#03118:13
#0311a:0033000014000014
#03116:0014
#03114:0033000000000000
#0381b:0000001300001300
#03818:00131300
#03815:0000001300000013
#03812:1300130000130000
#05112:0014000000140000001400000014000000140000001400000014000000140000
#05113:24141414141414141414141414141414
#05114:0000001400000014000000140000001400000014000000140000001400000014
#0511a:0014000000140000001400000014000000140000001400000014000000140000
#05119:24141414141414141414141414141414
#05118:0000001400000014000000140000001400000014000000140000001400000014
#05912:00130000
#0591b:00000013
#05918:2313
#05917:00130000
#05916:00000013
#05915:2313
#06012:00130000
#06015:1313
#06017:00130000
#06018:1313
#04314:0014000000000000
#04312:0000140000130000
#0431b:00000000000000130000000013000000
#04315:0000001300000000
#04318:00000014000000000013000000000000
#04316:24000013
#0431a:00140000000000000000000000000000
#0431f:21
#0441a:00001424
#04416:1300130014140000
#0441b:1300001300000000
#04412:0000000000140000
#04417:0013000000000000
#04410:41
#0451b:0000000000130013
#04514:00000014000000000000000014000000
#04512:00140000000000130000130000001300
#04518:0014001300001400
#0451a:00140000
#04516:24
#04615:0000131300000000
#04618:24000000001300000000000000000000
#04614:24
#04816:0013000014140014
#04812:0000001314002400
#04817:13130000
#0481a:0000000000140000
#04715:0013000000000000
#0471b:00130000130000000000130000001300
#04712:2300131300001300
#04717:00000000000000130000000013000000
#04716:00000000000000000013000000000000
#04718:00000013000000000000000000000000
#04714:00000000000000000000000000000013
#0491a:00000014
#04918:0013000000000013
#04912:00130000130000000000130014000000
#04915:00000013000000000000000000001300
#0491b:2300131300000000
#04916:00000000000000130000000000000000
#04917:00000000000000000013000000000000
#05016:00140000
#05012:24000000001400000000000000000000
#0501a:2400001414000000
#00215:1313
#00218:00130013
#0031b:13
#00312:00131300
#00318:00000000000000001300001300000000
#00316:0000000000000013
#00315:13
#00418:0000130000130000
#0041b:00001313
#00412:00000013
#00415:0000000013000013
#0051b:00131300
#00512:13
#00515:00000000000000001300001300000000
#00517:0000000000000013
#00518:13
#00712:0014
#00714:00000000000000000000001400000000
#00716:0000000000000014
#0071b:23131313
#00715:23
#00710:41
#0081b:13131313
#0091b:1300000000130000
#00918:0013000000000000
#00915:0000001300000000
#00912:0000000000000013
#00615:0000130000130000
#00612:00001313
#0061b:00000013
#00618:0000000013000013
#01519:00130000
#01517:0013000000000000
#01513:00130000
#01515:1300000000000013
#0151b:1313
#01518:0000000000130000
#01512:00000013
#01715:23130000
#01719:0013
#01714:0000000000140000
#01718:0013000000000014
#0171b:0000130000130000
#01716:00000014
#01712:0013000014000013
#01814:13
#0181b:0000000000000013
#0181a:1414000000000000
#01816:0013000000000000
#01812:00141300
#01815:0000000000130000
#01818:00000013
#01817:00130000
#01918:1300130000140000
#01914:0000000013000014
#01915:0013000000000000
#01912:0000130000130000
#01916:00000014
#0191a:0014
#0191b:0013000000000013
#02019:13
#02012:1414000000000013
#0201a:00140000
#0201b:0013
#02018:00000000000000000000130000000013
#02015:00000013
#02016:00130000
#02017:0013000000000000
#01015:0013001300130013
#01012:1313
#01018:0013001300130013
#0101b:00130013
#0351b:00130000
#0351f:11
#03517:13
#03512:0000001300000000
#03516:00130000
#02215:13130000
#0221b:0013000000130000
#02218:0000001300000000
#02219:00000013
#02217:0000000000000013
#02212:00000000000000130000000000001300
#0231b:13000000130000130000000000001300
#02318:0013000000000000
#02315:00130000000013000000000000000000
#02316:0000000000000013
#02312:0000130000130000
#02314:00000013
#0551b:13
#05515:2313000000000000
#05518:00130000
#05512:0013
#05318:1313
#05315:00130013
#0531b:0000000000130000
#05312:0000000000000013
#05416:00140000
#0541a:00000000001400000000000000000000
#05412:0000001414000000
#05418:13
#0541b:0013000000000000
#05410:41
#05212:0014000000140000001400000014000000140000001400000000000000000000
#05213:14141414141414141414141400000000
#05214:0000001400000014000000140000001400000014000000140000000000000000
#0521a:0014000000140000001400000014000000140000001400000000000000000000
#05219:14141414141414141414141400000000
#05218:0000001400000014000000140000001400000014000000140000000000000000
#04218:0000151500000000
#04213:00000015
#0421a:14
#0561b:00130000
#05612:0000000014000014
#05712:13
#05718:1313000000000000
#05715:00130000
#0571b:0013
#05812:00000000130000000000000000000013
#05815:00000016
#0581b:0000000000000013
#04258:00000015
#04253:00000015
#0375b:43
#0295b:63
#02955:63
#02958:00130000
#02952:0000130064000064
#0295a:00000000000000000000006400000000
#03152:53000000000000000000005400000000
#03158:53
#03155:00130000
#0315b:00130000
#0315a:0000000054000054
#03056:00240000000000000000000000000000
#03256:00240000000000000000000000000000
#03355:0023000000000000
#03358:0023000000000000
#03352:00330000
#0335b:00430000
#03356:00000000000000005400005400005400
#03452:00240000000000000000000000000000
#0405b:1313
#04052:00130013
#03952:0013
#0395b:13
#05152:0024000000240000002400000024000000240000002400000024000000240000
#05153:54645464546454645464546454645464
#05154:0000002400000024000000240000002400000024000000240000002400000024
#0515a:0024000000240000002400000024000000240000002400000024000000240000
#05159:64546454645464546454645464546454
#05158:0000002400000024000000240000002400000024000000240000002400000024
#05952:00230000
#0595b:00000023
#05958:5353
#05957:00230000
#05956:00000023
#05955:5363
#06052:00230000
#06055:6353
#06057:00230000
#06058:5353
#04456:5300530064240000
#0445a:00006444
#04452:0000000000240000
#04457:0053000000000000
#04554:00000064
#04552:0000000000000023
#04558:00000054
#0455b:0000000000000023
#04654:44
#04658:34
#04652:00000013
#0465b:00000013
#0495a:00000064
#04958:0000000000000023
#04952:00000054
#04955:0000000000000023
#0505a:44000014
#05052:34000014
#01256:00000014
#0035b:63
#00352:0063
#00358:00000000000000000000006300000000
#00356:0000000000000063
#00552:53
#0055b:0053
#00555:00000000000000000000005300000000
#00557:0000000000000053
#0145b:0000000000000013
#01452:0013
#01458:0000000000130000
#01455:00000013
#01655:0000000000130000
#0165b:0013
#01658:00000013
#0185b:0000000000000013
#01852:0013
#01855:0000000000130000
#01858:00000013
#01857:00630000
#0205b:0013
#02058:0000000000130000
#02055:00000013
#02056:00530000
#01052:5353
#01055:0023000000230000
#01058:0000002300000023
#0105b:00630063
#0285b:0000006300000000
#02855:00000063000000000000000000000000
#02857:63000013
#02852:0000000000000000002300000000000000000000000000000000000000000000
#02252:00000000000000530000000000000000
#0235b:00000000000000530000000000000000
#02458:00000053000000000000230000000000
#02452:0000005300003300
#0245b:0000000000000000002300000000000000000000000000004300000000000000
#02456:53
#02455:0000000000230000
#0555b:63
#05555:0063000000000000
#05252:0024000000240000002400000024000000240000002400000000000000000000
#05253:54645464546454645464546400000000
#05254:0000002400000024000000240000002400000024000000240000000000000000
#0525a:0024000000240000002400000024000000240000002400000000000000000000
#05259:64546454645464546454645400000000
#05258:0000002400000024000000240000002400000024000000240000000000000000
#03855:0000005300000053
#03852:3300000000530000
#0385b:00000053
#03858:0053
#04856:0063000054240000
#04857:63630000
#04852:00005434
#0485a:0000000000240000
#0215b:00000013
#02552:0000000000000013
#0265b:00000000000000630000000000000000
#02752:00000000000000630000000000000000
#03557:13
#03656:13
#04152:00000054
#0565b:00130000
#05752:53
#05758:0053000000000000
#05852:00130000
#0545a:00000014
#05452:00000014
#0033b0:13
#003370:00230000
#003320:0013
#003350:00000000000000000000002300000000
#003381:00000000000000000000001300000000
#0033b1:0000000000000023
#003360:0000000000000013
#004320:00230000
#005320:13
#005360:00230000
#0053b0:0013
#005380:00000000000000000000002300000000
#005351:00000000000000000000001300000000
#005321:0000000000000023
#005370:0000000000000013
#0063b0:00230000
#008320:0000000014240000
#008360:0000000000001424
#009320:13
#009350:00230000
#009381:00130000
#0093b1:0023
#009350:0013
#009320:00000023
#0093b1:00000013
#010381:23
#010320:13230000
#010350:0053000000000000
#0103b1:00132300
#010381:0000005300000000
#010320:00001323
#010350:0000000000530000
#0103b1:00000013
#010381:0000000000000053
#0113b1:23
#0133b1:0013
#013381:0000000000230000
#013321:00000013
#013351:0000000000000023
#014371:00130000
#0143b1:0023
#015321:0013
#015351:0000000000230000
#0153b1:00000013
#015381:0000000000000023
#016361:00130000
#016321:0023
#018371:00130000
#0183b1:0023
#020361:00130000
#020321:0023
#021351:00001323
#021321:0000000000330000
#022321:00000000000000130000000000000000
#022361:0000000000230000
#0233b1:00000000000000130000000000000000
#023371:0000000000230000
#024361:13
#024321:00000023000000000000000000000000
#024380:00000013000023000000000000000000
#0243b0:0000000000000000005300000000000000000000000000000000000000000000
#024321:0000001300002300
#024351:000000000000000000000000333333330000000000000000
#024341:000033
#024331:000000000000000000000000000000000033000000000000
#024380:000000000000000000000000133333330000000000000000
#024390:000033
#0243a0:000000000000000000000000000000000033000000000000
#0243b0:00000023
#0253b0:00001333
#025380:0000000000330023
#0263b0:00000000000000130000000000000000
#026370:0000000000230000
#027320:00000000000000130000000000000000
#027360:0000000000230000
#028370:13
#0283b0:00000023000000000000000000000000
#028351:00000013000023000000000000000000
#028321:0000000000000000005300000000000000000000000000000000000000000000
#0283b0:0000001300000000
#028380:0023
#028321:0013
#028331:000000000000000000000000003300000000000000000000
#028341:000000000000003300000000
#028351:0000000000330000
#028361:000033
#028371:000000000000000000000000000000000033230000000000
#0293b1:13
#0293a1:0033000000000000
#029381:00000053230000000000000000000000
#029350:13
#029330:0033000000000000
#029320:00000053230000000000000000000000
#029320:0014
#029360:00000000000000000000002400000000
#0293a1:00000000000000000000001400000000
#029361:0000000000000024
#029320:0000000000000014
#030360:00540000000000000000000000000000
#030320:00240000
#031320:13
#031340:0033000000000000
#031350:00000053230000000000000000000000
#031381:13
#0313a1:0033000000000000
#0313b1:00000053230000000000000000000000
#0313a1:0014
#031361:00000000000000000000002400000000
#031320:00000000000000000000001400000000
#031360:0000000000000024
#0313a1:0000000000000014
#032361:00540000000000000000000000000000
#0323a1:00240000
#033351:1333000000000000
#033321:00230000
#033380:1333000000000000
#0333b0:00230000
#033360:0014
#033320:00000000000000000000002400000000
#033361:00000000000000000000001400000000
#0333a1:0000000000000024
#033360:0000000000000014
#034320:00540000000000000000000000000000
#034360:00240000
#034360:0000001323000000
#0343b1:0000000013230000
#034340:0000000000132300
#034391:0000000000001323
#034320:0000000000000013
#035320:23
#035370:0000001323000000
#035321:0000000013230000
#035390:0000000000132300
#035341:0000000000001323
#0353b0:0000000000000013
#0363b0:23
#036320:0000001300330033
#036350:00003333
#037350:23
#0373b0:0000001300330033
#037380:00003333
#038380:23
#038350:0000001300000000
#038320:0023
#038381:0013
#0383b1:0000000000230000
#038320:0000000000130000
#038350:00000023
#0383b1:00000013
#038381:0000000000000023
#038350:0000000000000013
#039320:23
#041320:00000014
#041330:000000000000000000000000000000000000003400000000
#041340:000000000000000000000000000000000000000034343400
#041350:000000000000000000000000000000000000000000000034
#042360:24
#042330:0000000000000000155500553555005525000000000000000000000000000000
#042350:000000000000000000000000000000000000000000000000000000000000000000000000000000000000000000000000000000000000000000000000000000000000000000000000000000000000000000000000000000000000000000000000000000000000000000000000000000000000000000000000000000000000000000000000000000000000000000000000000000000000000000000000000000000000000000000000000000000000000000000000000000000000000000000000000000000000000000000000000000000000000000000000000000000000000000000000000000000000000000000000000000000000000000000000000000000000000000000000000000000000005300000000000000000000000000000000000000000000000000000000000000000000000000000000000000000000000000000000000000000053000000000000000000000000000000000000000000000000000000000000000000000000000000000000000000000000000000000000000000000000005300000000000000000000000000000000000000000000000000000000000000000000000000000000000000000000000000000000000000000053000000000000000000000000000000000000000000000000000000000000000000000000000000000000000000000000000000000000000000000000000000000000000000000000000000000000000000000000000000000000000000000000000000000000000000000000000000000000000000000000000000000000000000000000000000000000000000000000000000000000000000000000000000000000000000000000000000000000000000000000000000000000000000000000000000000000000000000000000000000000000000000000000000000000000000000000000000000000000000000000000000000000000000000000000000000000000000000000000000000000000000000000000000000000000000000000000000000000000000000000000000000000000000000000000000000000000000000000000000000000000000000000000000000000000000000000000000000000000000000000000000000000000000000000000000000000000000000000000000000000000000000000000000000000000000000000000000000000000000000000000000000000000000000000000000000000000000000000000000000000000000000000000000000000000000000000000000000000000000000000000000000000000000000000000000000000000000000000000000000000
#042381:000000000000000000000000000000000000000000000000000000000000000000000000000000000000000000000000000000000000000000000000000000000000000000000000000000000000000000000000000000000000000000000000150000000000550055000000000000000000000000000000000000550000000000000000550000000000550000000000250000000000000000000000000000000000000000000000000000000000000000000000000000000000000000000000
#0423a1:000000000000000000000000000000000000000000000000000000000000000000000000000000000000000000000000000000000000000000000000000000000000000000000000000000000000000000000000000000000000000000000000000000000000000000000000000000000000000000000000000000000000000000000000000000000000000000000000000000000000000000000000000000000000000000000000000000000000000000000000000000000000000000000000000000000000000000000000000000000000000000000000000000000000000000000000000000000000000000000000000000000000000000000000000000000000000000000000000000000000000000000000000000000000000000000000000000000000000000000000000000000000000000000000000000000000000000000000000000000000000000000000000000000000000000000000000000000000000000000000000000000000000000000000000000000000000000000000000000000000000000000000000000000000000000000000000000000000000000000000000000000000000000000000000000000000000000000000000000000000000000000000000000000000000000000000000000000000000000000000000000000000000000000000000000000000000000000000000000000000000000000000000000000000000000000000000000000000000000000000000000000000000000000000000000000000000000000000000000000000000000000000000000000000000000000000000000000000000000000000000000000000000000000000000000000000000000000000000000000000000000000000000000000000000000000000000000000000000000000000000000000000000000000000000000000000000000000000000000000000000000000000000000000000000000000000000000000000000000000000000000000000000000000000000000000000000000000000000000000000000000000000000000000000000000000000000000000000000000000000000000000000000000000000000000000000000000000000000000000000000000000000000000000000000000000000000000000000000000000000000000000000000000000000000000000000000000000000000000000000000000000000000000000000000000000000000000000000000000000000000000000000000000000000000000000000000000000000000000000000000000000000000000000000000000000000000000000000000000000000000000000000000000000000000000000000000000000000000000000000000000000000000000000000000000000000000000000000000000000000000000000000000000000000000000000000000000005300000000000000000000000000000000000000000000000000000000000000000000000000000000000000000000000000000000000000000000000000000000000000000000000000000000000000000000000000000000000000000000000000000000000000000000000000000000000000000000000000000000000000000000000000000000000000000000000000000000000000000000000000000000000000000000000000000000530000000000000000000000000000000000000000000000000000000000000000000000000000000000000000000000000000000000000000000000000000000000000000000000000000000000000000000000000000000000000000000000000000000000000000000000000000000000000000000000000000000000000000000000000000000000000000000000000000000000000000000000000000000000000000000000000000000000000000000000000000000000000000000000000000000000000000000000000000000000000000000000000000000000000000000000000000000000000000000000000000000000000000000000000000000000000000000000000000000000000000000000000000000000000000000000000000000000000000000000000000000000000000000000000000000000000000000000000000000000000000000000000000000000000000000000000000000000000000000000000000000000000000000000000000000000000000000000000000000000000000000000000000000000000000000000000000000000000000000000000000000000000000000000000000000000000000000000000000000000000000000000000000000000000000000000000000000000000000000000000000000000000000000000000000000000000000000000000000000000000000000000000000000000000000000000000000000000000000000000000000000000000000000000000000000000000000000000000000000000000000000000000000000000000000000000000000000000000000000000000000000000000000000000000000000000000000000000000000000000000000000000000000000000000000000000000000000000000000000000000000000000000000000000000000000000000000000000000000000000000000000000000000000000000000
#044361:13
#044321:0023000000000000
#044370:0013000000000000
#0443b0:00230000
#044361:00130000
#044321:0000002300000000
#0443a1:00001424
#044361:0000000000340000
#044360:00001424
#044320:0000000000340000
#045340:00000014
#045320:0000000000000033
#046340:24
#045381:00000014
#0453b1:0000000000000033
#046381:24
#046321:00000000000000001300003323000000
#046351:00000000000000000033330000000000
#0463b0:00000000000000001300003323000000
#046380:00000000000000000033330000000000
#048370:13
#0483b0:0023000000000000
#048361:0013000000000000
#048321:00230000
#048370:00130000
#0483b0:0000002300000000
#048320:00001424
#048360:0000000000340000
#048361:00001424
#0483a1:0000000000340000
#0493a1:00000014
#049381:0000000000000033
#0503a1:24
#049320:00000014
#049350:0000000000000033
#050320:24
#050360:0014
#050320:0000000000342400
#0503a1:0000000000142400
#051331:14545454545454543454545454545454
#051321:0054000000540000005400000054000000540000005400000054000000540000
#051341:0000005400000054000000540000005400000054000000540000005400000054
#052331:34545454545454543454545424000000
#052321:0054000000540000005400000054000000540000005400000000000000000000
#052341:0000005400000054000000540000005400000054000000540000000000000000
#051390:14545454545454543454545454545454
#0513a0:0054000000540000005400000054000000540000005400000054000000540000
#051380:0000005400000054000000540000005400000054000000540000005400000054
#052390:34545454545454543454545424000000
#0523a0:0054000000540000005400000054000000540000005400000000000000000000
#052380:0000005400000054000000540000005400000054000000540000000000000000
#053320:13
#053350:0023000000000000
#053381:0013000000000000
#0533b1:00230000
#053351:0000000013230000
#053381:0000000000001323
#054351:1323000000000000
#054361:0014
#0543a1:0000000000342400
#054320:0000000000142400
#0553b0:13
#055380:0023000000000000
#055351:0013000000000000
#055321:00230000
#0553b1:0013
#055381:0000000000230000
#055350:0000000000132300
#055381:00000013
#0553b1:0000000000000023
#055320:0000000000000013
#056320:23
#0563b1:13
#056381:0023000000000000
#056350:0013230000000000
#056360:0014
#0563a0:00000000000000000054240000000000
#056361:0000000000140000
#056321:00000000000000000000005424000000
#056360:00000014
#0563a0:00000000000000000000000000542400
#057320:13
#057350:0023000000000000
#057381:0013000000000000
#0573b1:00230000
#057321:0013
#057351:0000000000230000
#057380:0000000000132300
#057351:00000013
#057321:0000000000000023
#0573b0:0000000000000013
#0583b0:23
#058321:13
#058351:0023000000000000
#058380:0013230000000000
#058350:0013
#058320:0000000000230000
#058381:0013
#0583b1:0000000000230000
#059351:1353
#059321:00530000
#059361:00000053
#060351:5353
#060321:00530000
#061321:53
#062321:26
#059380:1353
#059370:00530000
#0593b0:00000053
#060380:5353
#060370:00530000
#0613b0:53
#062380:26
