This file was generated by Ched 2.6.2.0.
#TITLE ""
#ARTIST ""
#DESIGNER ""
#DIFFICULTY 0
#PLAYLEVEL
#SONGID ""
#WAVE ""
#WAVEOFFSET 0
#JACKET ""
#REQUEST "ticks_per_beat 480"
#00002: 4
#BPM01: 130
#00008: 01
#TIL00: ""
#HISPEED 00
#MEASUREHS 00
#00215:1313
#00218:00130013
#00418:0013
#00415:00000013
#00318:000014
#00314:0000000014000014
#00312:13
#0031b:13
#00518:1300000014000014
#00514:000014
#00512:13
#00615:0013
#00618:00000013
#00712:0014
#00716:00000000000000000000001400000000
#0071a:0000000000000014
#0071b:23
#00715:23
#00710:41
#00812:0013
#0081b:0000000000000013
#00818:0000000000130000
#00815:00000013
#01115:13130000
#0111b:0013001300000000
#01112:00001313
#01118:0000000000130013
#01315:23130000
#0131b:0013000000000000
#01312:0000000000130013
#01318:00001313
#01310:41
#0141b:13130000
#01412:00001313
#01415:0013000000000000
#01418:0013
#06015:0013
#06018:13
#0121a:14
#01212:14
#01218:00343434343434343434343400000000
#01214:00343434343434343434343400000000
#01718:0013000000130000
#01712:2313
#01715:00130013
#0171b:0000000000000013
#01815:13000013
#01812:00130000
#01818:0013000013000000
#02112:1314
#02118:00001300000000000000000000000013
#0211a:00000014
#02116:0000000000140000
#0211b:0000001300000000
#02115:0000130000000013
#0431a:24140000
#04312:0014000000001400
#04318:00000000000000130000130000000000
#04315:00000000000013000013000000000000
#0431f:21
#04416:0014000014000000
#0441a:14000024
#04412:00140000
#04410:41
#04512:24140013
#0451a:0014000000000000
#04518:0000001300000000
#04515:00000000000000130000000000000000
#0451b:0000000000130000
#04615:00131300
#04618:0000001300000000
#04612:00000014
#0461a:00000014
#04616:24
#0221b:0013000000130000
#02212:00130000
#02218:0000001300001300
#02215:13000000000000130000000000001300
#02318:13000000000000130000000013000000
#02312:0013000000130013
#02315:0000001300000000
#0231b:00130000
#0241a:00000014
#02412:00000014
#02418:13
#0281b:0000000000000013
#02815:13
#02915:13
#02918:0000000014000014
#02914:00000000000000000000001400000000
#03114:0000000014000014
#03118:13000000000000000000001400000000
#03212:00140000000000000000130000000000
#03218:0000001313001300
#03215:00000000000000130000000000001300
#0301b:0013
#03018:00000013
#03015:0000000000130000
#03012:0000000000000013
#0301a:00140000000000000000000000000000
#0331a:0000140000000014
#03312:00141400
#03316:00000000000000000000001400000000
#0331b:13
#03310:41
#03418:00140000000000001300000000000000
#03412:0000001300130000
#0341a:0000000000000033
#05114:0014000000140000
#05113:24141414
#05112:0000001400000014
#0511a:0014000000140000
#05119:24141414
#05118:0000001400000014
#05213:14141400
#05214:0014000000140000
#05212:0000001400000000
#05219:14141400
#0521a:0014000000140000
#05218:0000001400000000
#04714:24140000
#04718:00001400000013000013000000000000
#0471b:00000013
#04712:00000000000000130000130000000000
#04816:0014000014000000
#04812:14000024
#0481a:00140000
#05018:00131300
#05015:0000001300000000
#0501a:00000014
#05012:00000014
#05016:24
#04918:24140000
#04914:0014000000000000
#04912:00000013
#0491b:00000000000000130000130000000000
#04915:00000000000013000013000000000000
#0411a:14000000000000000034343434343434
#04118:00343434343434341400000000000000
#04112:14000000000000000034343434343434
#04114:00343434343434341400000000000000
#03915:0013001300000000
#0391b:00130000
#03918:00001313
#03912:0000000000130013
#0401b:1313
#04015:0013000000130000
#04018:00130013
#04012:0000001300000013
#0351b:0000001300130000
#03515:0013
#0351f:11
#03513:0000000000000033
#03612:0000001300000000
#03618:0013
#03615:0000000000130000
#03619:0000000000000033
#0371b:0000001300000000
#03715:0013
#03718:0000000000130000
#03714:0000000000000033
#0381a:0000001400000000
#03817:00000000000000000000341434000000
#03818:0000000034000034
#01518:13130000
#01512:0013000000000000
#0151b:0000000000130013
#01515:00001313
#01612:13130000
#0161b:00001313
#01618:0013000000000000
#01615:0013
#01915:0013000000130000
#0191b:2313
#01918:00130013
#01912:0000000000000013
#02018:13000013
#0201b:00130000
#02015:0013000013000000
#0251b:13
#02515:00001300000000000000000000000013
#0251a:0014
#02512:0000001300001400
#02516:0000000000140000
#02518:0000130000000013
#02510:41
#02612:0013000000130000
#0261b:00130000
#02615:0000001300001300
#02618:13000000000000130000000000001300
#02715:13000000000000130000000013000000
#0271b:0013000000130013
#02718:0000001300000000
#02712:00130000
#05318:0013
#05312:1400000000130000
#0531b:00000013
#05315:0000000000000013
#05316:0014000000000000
#0531a:00140000
#05418:13131300
#05412:0013000000001300
#0541b:00000013
#05415:0000001300000000
#05410:41
#05512:0013
#05518:0034000000130000
#05515:00000013
#0551b:0000000000000013
#0551a:14
#05612:0013
#05615:1400000000130000
#0561b:0000000000000013
#05618:00000013
#05613:0034000000000000
#0571b:0013
#05715:0000000000130000
#05718:00000013
#05712:1400000000000013
#05714:0034000000000000
#05815:00000013
#05812:0000000000000013
#0581b:0013
#05818:0000000000130000
#05817:14
#05819:0034000000000000
#04212:00130000
#04215:0000001300000000
#04218:0000001300000000
#0421b:00130000
#0591b:23
#05912:2323
#00558:0000000000000054
#06055:0053
#06058:63
#00354:0000000000000064
#01258:00000014
#0125a:54
#01252:64
#01254:00000014
#04456:0054
#0445a:00000014
#02452:00000014
#0245a:00000014
#02458:53
#02955:63
#02952:00130000
#02958:0000000000000064
#03154:0000000000000054
#03158:53
#0315b:00130000
#03252:00240000000000000000000000000000
#0305a:00240000000000000000000000000000
#0335a:0000140000000054
#03352:00140000
#03458:00240000000000000000000000000000
#05154:0024000000240000
#05153:64646464
#05152:0000002400000024
#0515a:0024000000240000
#05159:64646464
#05158:0000002400000024
#05253:64646400
#05254:0024000000240000
#05252:0000002400000000
#05259:64646400
#0525a:0024000000240000
#05258:0000002400000000
#04856:0064
#04852:00000014
#0595b:63
#05952:0053
#0415a:54
#04158:0054
#04152:64
#04154:0064
#0385a:0000006400000000
#03857:00000000000000000000002400000000
#01452:00000013
#0165b:00000013
#01855:00000013
#01858:0013
#02058:00000013
#02055:0013
#02855:63
#05655:64
#0555a:64
#04656:14
#05056:14
#05752:54
#05857:54
#04255:0000002300000000
#04258:0000002300000000
#04252:00530013
#0425b:00530013
#003340:0000000000000014
#004320:00240000
#005380:0000000000000014
#0063a0:00240000
#009320:13
#009350:00230000
#0093b0:0013
#009380:00000023
#010350:13
#010320:00230000
#010380:0013
#0103b0:00000023
#0123a0:14
#012380:00343434343434343434343424000000
#012321:14
#012341:00343434343434343434343424000000
#024381:13
#0243b1:00000033000033002300000000000000
#028351:13
#028321:00000033000033002300000000000000
#029351:13
#029321:00230000
#029381:0000000000000014
#0303a1:00540000000000000000000000000000
#030381:00240000
#031381:13
#0313b1:00230000
#031341:0000000000000014
#032321:00540000000000000000000000000000
#032341:00240000
#0333a1:0000000000000014
#034381:00540000000000000000000000000000
#0343a1:00240000
#034381:00000013
#0343a1:0000000000000033
#0353b1:23
#035351:00000013
#035331:0000000000000033
#036321:23
#0363b1:00000013
#036391:0000000000000033
#037381:23
#037321:00000013
#037341:0000000000000033
#038351:23
#0383a1:0000001400000000
#038381:0000000034000034
#038371:00000000000000000000345434000000
#0393a1:24
#0413a1:14000000000000000034343434343434
#041381:00343434343434343400000000000000
#0423a1:24
#041320:14000000000000000034343434343434
#041340:00343434343434343400000000000000
#042320:24
#042320:00133323
#042350:0000003300000000
#0423b1:00133323
#042381:0000003300000000
#044361:0014
#0443a1:00000024
#048361:0014
#048321:00000024
#051331:14545454
#051341:0054000000540000
#051321:0000005400000054
#052331:54545424
#052341:0054000000540000
#052321:0000005400000000
#051390:14545454
#0513a0:0054000000540000
#051380:0000005400000054
#052390:54545424
#0523a0:0054000000540000
#052380:0000005400000000
#0553a0:14
#055380:0034000000000000
#055370:00240000
#056350:14
#056330:0034000000000000
#056320:00240000
#057320:14
#057340:0034000000000000
#057350:00240000
#058370:14
#058390:0034000000000000
#0583a0:00240000
#0593b0:13
#059380:0053
#060380:53
#0603b0:0053
#0613b0:53
#0623b0:23
#059321:1353
#060351:5353
#061321:53
#062321:23
