This file was generated by Ched 2.6.3.0.
#TITLE ""
#ARTIST ""
#DESIGNER ""
#DIFFICULTY 0
#PLAYLEVEL
#SONGID ""
#WAVE ""
#WAVEOFFSET 0
#JACKET ""
#REQUEST "ticks_per_beat 480"
#00002: 4
#BPM01: 130
#00008: 01
#TIL00: ""
#HISPEED 00
#MEASUREHS 00
#01112:13131313
#0111b:13131313
#01115:0016001600160016
#01315:23130000
#01318:00000013000000000000000000000000
#01312:0013000000130013
#0131b:00130000130000000000000000000000
#01316:0000001413001300
#01310:41
#01417:13
#01419:0013000000000000
#0141b:0000000000001313
#01412:1300001313000013
#01414:0013000000000000
#01416:00130000
#01418:0000000000130000
#01415:0000000000131300
#02117:0000001300000000
#02112:1300001300130000
#02118:0013000000000013
#02115:00000013000000000000000000000013
#02116:00001313
#0211b:13130013
#02817:130000000000000000000000000000000033000000130000
#02812:00000013000000001300000000001300
#0281b:0000001300001300
#02816:000000133300
#02813:000000000000000000000000003300000000000000000000
#02815:0000000000330000
#02814:000000000000003300000000
#0291b:1300000013000013
#02916:13000000000000000000001300001300
#02912:0013000000000000
#02917:0013000013000000
#0301b:00001300000000001300001300001300
#03012:1300000000131300
#03018:00000000000000000013000013000000
#03015:00000000000000001300000000130013
#03016:0013000000000000
#03017:13
#03215:00000000000013000013000013000000
#0321b:13000000000000130000130013000000
#03212:00001300000000001300001300001300
#03218:00000000000000001300000000130013
#03217:0013000000000000
#03216:13
#03912:1300131313001313
#0391b:0013130013131300
#03917:0000001300000013
#03916:0013000000130000
#03812:1800001300000000
#03816:0000001300130013
#03819:0014140000000000
#03813:0014140000000000
#03817:00001313
#04318:2616160000000000
#04312:23130013
#04317:00000000000000130000130013000000
#04315:00130013000000000000000000000000
#0431b:00000000000013000013000000001300
#04316:0000000000000013
#0431f:21
#04512:26001600160013130000000000140000
#0451b:2300130000130000
#04516:00000000000000130000000014140014
#04518:00130013000000000000000000001400
#0451a:00000000000000000000000014000014
#04514:0000000000000014
#00218:1313
#00215:00130013
#0031b:130013
#00312:0000000013000013
#00317:0013
#00316:13
#0041b:00131300
#00415:0000000013160000
#00412:0000000000001316
#00418:00000013
#00417:00130000000000000000000000000000
#00716:1313
#0071b:23001313
#00719:0013000000000013
#00717:00130000
#00712:00000000000000000000001300000000
#00714:0000001300000000
#00718:0000000000130000
#00715:0000000000000013
#00710:41
#00917:1300001300000013
#00919:0013000000130000
#00912:1313
#00916:0013000000130000
#0091b:00130013
#00914:0000001300000013
#04416:0000000000160000
#04412:1300001316002600
#04414:0000000000000018
#0441b:00130000
#04418:00001626
#04410:41
#02212:13000000000013130000000000000000
#0221b:1313000000130000
#02215:0013130000000000
#02218:0000001300000000
#02219:00000013
#02217:0000000000000013
#02216:0000000000000000000000000000000000000000001300000000000000000000
#0231b:00001300130013130000000000000000
#02315:0013001300000000
#02314:0000000000130013
#02312:13130013
#02317:0000000000000000000000000000000000000000000000130000000000000000
#02318:00130000000000000000000000000000
#0241b:00000013000000000000000000000000
#02416:1300000014140000
#02412:0000001314000000
#0241a:0000000000140000
#02413:000000000000000000000000003400000034000000000000
#02414:000000000000003434000000
#02418:000000000000003434000000
#02417:000000000000000000000000003400000034000000000000
#01014:0000000000000013
#01016:1313
#01012:0013001300130000
#0101b:0013001300130000
#01019:0000000000000013
#01017:00130013
#04218:0000161600000000
#04212:0000000000161600
#00512:130013
#00517:13
#0051b:0000000013000013
#00516:0013
#04012:1414000014140000
#0401a:0000141400001414
#05118:0014001400140014001400140014001400140014001400140014001400140014
#0511a:24141414141414141414141414141414
#05114:0014001400140014001400140014001400140014001400140014001400140014
#05112:24141414141414141414141414141414
#0521a:14141414141414141414141400000000
#05218:0014001400140014001400140014001400140014001400140000000000000000
#05212:14141414141414141414141400000000
#05214:0014001400140014001400140014001400140014001400140000000000000000
#04615:00000000001300000000000000000000
#04618:00130000
#0461b:0000001300001300
#04616:24
#04612:24
#0531b:0000001313000000
#05316:1300001300130000
#05317:0000130000000013
#05312:00000013
#05014:0000000000000013
#05018:00000000001300001600120000000000
#05015:00130000
#05012:0000001316000000
#0501b:0000001300000000
#05016:2400000000120000
#05019:0000000000000013
#0501a:24
#05512:0000001313000000
#0551b:2300001300000000
#05515:00130000
#01212:13131300
#0121b:13000013000000130000000013000000
#01215:0013001300330000
#01218:00130000001300000000000000000000
#01217:000000000000000000000000000000000033000000000000
#01216:000033
#01214:000000000000003300000000
#01213:000000000000000000000000003300000000000000000000
#05812:00000000000000001600000000130000
#05816:00130000
#05818:0000000016000013
#0581b:00000013
#05815:00000000000000000000000000000013
#0351f:11
#03516:18
#03512:1400000000181414
#0351a:0000001414000000
#00612:00131300
#00615:0000000000161300
#0061b:00000013
#00618:0000000013000016
#00616:00130000000000000000000000000000
#00816:00130000
#00817:1313
#00814:0013000000000000
#00819:0000001300000000
#00812:13
#0081b:0000000000000013
#01518:13130000
#01515:00000013000000000000000000000000
#0151b:0013000000130013
#01512:00130000130000000000000000000000
#01517:00001313
#01516:0000001400000000
#01616:13
#01614:0013000000000000
#01615:0000000000130013
#0161b:1300001313000000
#01619:0013000000000000
#01617:00130000
#01618:00000000000000000000130013000013
#01612:00000013
#0171b:2300130000130013
#01712:23000013000013000000000000000000
#01717:0000001313001300
#01718:0013000000000000
#01715:00130000000000000000000000000000
#01816:1300001300000000
#01814:0013000000000000
#01812:0000130000001314
#0181b:1300001300130013
#01819:0013000000000000
#01817:00130014
#0181a:0014
#01815:0000000000140000
#01912:2300130000130013
#0191b:23000013000013000000000000000000
#01916:0000001313001300
#01915:0013000000000000
#01918:00130000000000000000000000000000
#02017:1300001300140000
#02019:0013000000000000
#02012:13000000000013001400130000160000
#02014:0013000000000000
#02016:00130000
#0201b:00130000
#02018:0000000000001613
#02015:00000000000000000000000000000013
#02515:00130000000000130000000000000000
#0251b:1300000000130013
#02518:0000001300000000
#02517:00001313
#02512:13130013
#02516:0000000000000013
#02510:41
#0261b:13000000130013130000000000000000
#02615:0000001300000000
#02612:1300000000130000
#02614:00000013
#02616:0000000000000013
#02617:0000000000000000000000000000000000000000001300000000000000000000
#02618:00130000000000000000000000000000
#02712:00001300130013130000000000000000
#02718:0013001300000000
#02719:0000000000130013
#0271b:13130013
#02716:0000000000000000000000000000000000000000000000130000000000000000
#02715:00130000000000000000000000000000
#03412:1300001414000000
#03416:0013000000180000
#0341a:0000000000001414
#03417:13
#0341b:0013000000000000
#03612:1800000037373434
#0361a:1414
#03619:0000000000150000
#03618:00000016
#03617:0000000000000017
#0361b:0000001300000000
#03716:18
#03713:0014140000000000
#03719:0014140000000000
#03712:0000001314151617
#0371a:0000000000003434
#03717:0000000037370000
#04118:00130013000000000000000000000000
#04112:1313130000000000
#04115:00000000001300130000000000000000
#0411b:1300131313000000
#04114:000000000000000000000000003300000000003300000000
#04116:000000000000003300003300
#04117:000000000000000000000000000000000033000000000033
#04119:000000000000000033000033
#04712:26001600160013000013000000001300
#0471b:23130013
#04716:00000000000000130000130013000000
#04718:00130013000000000000000000000000
#04717:0000000000000013
#0491b:00000000000013130000000000000000
#04912:23000000130000000013130014000014
#04918:2616160000000014
#04917:00000000000000130000000000000000
#04915:00130013000000000000000000000000
#04916:00000000000000000000130014140014
#04914:0000000000000014
#0491a:00000000000000000000000000140000
#0481b:1300001300000000
#04814:0000000000160018
#04812:00131626
#04818:00001626
#0541b:1300001300000000
#05416:0013000000120000
#05419:0000000000000013
#05414:0000000000000013
#05415:00000000001300000000000000000000
#05418:0000130016120000
#05412:0000001316000000
#05410:41
#05617:00130000
#05612:00000000000000001300001300001300
#0561b:00000000000000000013000000130000
#05618:00001313
#05615:0000000000130000
#0571b:0000001313000000
#05712:1300001300000000
#05718:00130000
#03112:1300000013000013
#03117:13000000000000000000001300001300
#0311b:0013000000000000
#03116:0013000013000000
#0331b:1300000013000013
#03316:13000000000000000000001300001300
#03312:0013000000000000
#03317:0013000013000000
#03310:41
#06016:0013
#06012:13
#06017:13
#0591b:2313
#05916:0013
#05912:23
#04258:00000016
#04252:00000016
#04256:13
#0295b:6300430063000063
#02956:63000000430000000000006300006300
#02952:0023000000000000
#02957:0023000063000000
#03952:1313
#0395b:00130013
#0035b:630063
#00352:0000000063000063
#00356:630013
#00357:0000000013000013
#0145b:0000000000000013
#01452:0013
#01458:0000000000130000
#01455:00000013
#01152:1313
#0115b:00130013
#02252:00000000000000530000000000000000
#02256:0000000000000000000000000000000000000000002300000000000000000000
#0235b:00000000000000530000000000000000
#02357:0000000000000000000000000000000000000000000000230000000000000000
#0245b:00000053000000000000000000000000
#02456:5300000054243400
#02452:00005434
#0245a:0000000000240000
#02156:00001313
#02152:0000000000130000
#03856:0000006300630063
#03857:00005353
#03852:18
#00258:4343
#00255:00330033
#00552:530053
#00557:530013
#0055b:0000000053000053
#00556:0000000013000013
#0075b:0013
#00756:63
#00752:00000000000000000000001300000000
#00759:0000000000000013
#00952:6363
#00956:0023000000230000
#0095b:00530053
#00957:0000002300000023
#01056:5353
#01052:0023000000230000
#01057:00630000
#0105b:0000002300000000
#04352:00000013
#04357:00000013
#04452:00006636
#0445b:00630000
#04456:0000000000260000
#04458:00000046
#0455b:00630000
#04552:00000000000000630000000000240000
#04556:00000000000000000000000064240024
#04558:0000000000000064
#0455a:00000000000000000000000064000024
#04554:0000000000000064
#04656:34
#04652:34000033
#0465b:00000043
#0515a:54545454545454545454545454545454
#05158:0054005400540054005400540054005400540054005400540054005400540054
#05154:0064006400640064006400640064006400640064006400640064006400640064
#05152:64646464646464646464646464646464
#0525a:54545454545454545454545400000000
#05258:0054005400540054005400540054005400540054005400540000000000000000
#05252:64646464646464646464646400000000
#05254:0064006400640064006400640064006400640064006400640000000000000000
#05357:00130000
#05555:00130000
#05558:00130000
#00457:00230000000000000000000000000000
#00656:00230000000000000000000000000000
#00857:53
#01252:0063
#01257:00000033
#0165b:0013
#01655:0000000000130000
#01658:00000013
#0175b:00130000
#01852:0000630000000034
#01856:0000002300000000
#0185a:0044
#01857:00000044
#01855:0000000000340000
#01952:00130000
#02052:0034
#0205b:00530000
#02057:0000002300440000
#02557:00001313
#0255b:0000000000130000
#0265b:00000000000000630000000000000000
#02657:0000000000000000000000000000000000000000002300000000000000000000
#02752:00000000000000630000000000000000
#02756:0000000000000000000000000000000000000000000000230000000000000000
#02852:00000063000000005300000000000000
#02857:63000013
#03552:14
#0365a:14
#03756:18
#04052:3434
#0405a:00440044
#0415b:00130000
#04152:13
#0475b:00000013
#04756:00000013
#04952:00000000530000000000000054000024
#0495b:00000000000000530000000000000000
#04956:00000000000000000000000054240024
#04954:0000000000000054
#0495a:00000000000000000000000000240000
#04958:0000000000000054
#04852:00530036
#04854:0000000000260000
#04858:00005646
#05052:00006636
#05056:4400000000220000
#05058:0000000056224600
#0505a:44
#05657:00130000
#0565b:00000000000000000023000000230000
#05658:00006363
#05652:00000000000000000000002300000000
#05655:0000000000530000
#05758:00130000
#05755:00130000
#05856:00130000
#05852:0066
#05858:0056
#05952:63
#0595b:0063
#05956:0063
#03152:5300330053000053
#03157:53000000330000000000005300005300
#0315b:0023000000000000
#03156:0023000053000000
#0335b:6300430063000063
#03356:63000000430000000000006300006300
#03352:0023000000000000
#03357:0023000063000000
#05452:00006636
#05456:0000000000220000
#05458:0000000056224600
#03052:63330000
#03057:63330000
#03056:0023000000000000
#0305b:0023000000000000
#0325b:53430000
#03257:0023000000000000
#03256:53430000
#03252:0023000000000000
#03452:63330000
#03456:0023000000000000
#03457:63330000
#0345b:0023000000000000
#06056:0063
#06052:53
#06057:53
#0033b0:13
#003370:0053230000000000
#003361:13
#003321:0053230000000000
#003321:0013
#003361:000023
#0033b0:000013
#003370:0000000000000023
#003321:0000000000000013
#004371:00530000000000000000000000000000
#004321:00230000
#005321:13
#005361:0053230000000000
#005370:13
#0053b0:0053230000000000
#0053b0:0013
#005370:000023
#005321:000013
#005361:0000000000000023
#0053b0:0000000000000013
#006360:00530000000000000000000000000000
#0063b0:00230000
#007360:13
#007320:0033230000000000
#008370:13
#0083b0:0033230000000000
#008320:0000000013230000
#008381:0000000000132300
#008350:0000000000001323
#009320:13230000
#009360:0033000000000000
#0093b1:00132300
#009371:0000003300000000
#009320:00001323
#009360:0000000000330000
#0093b1:00000013
#009371:0000000000000033
#0103b1:23
#010360:13
#010320:0033000000000000
#010340:00230000
#010371:00130000
#0103b1:0000003300000000
#010391:0023
#010360:0013
#010320:0000000000330000
#010340:00000023
#012320:0013
#012330:000000000000000000000000003300000000000000000000
#012340:000000000000003300000000
#012350:0000000000330000
#012360:000033
#012370:000000000000000000000000000000000033230000000000
#0133b0:0013
#013370:0000000000230000
#0133b0:00000013
#013370:0000000000000023
#0143b0:00130000
#014370:0000003323000000
#015320:0013
#015360:0000000000230000
#015320:00000013
#015360:0000000000000023
#016320:00130000
#016360:0000003323000000
#017320:00001333
#017370:0000000000330023
#018320:00132300
#018360:0000003300000000
#0193b0:00001333
#019360:0000000000330023
#0203b0:00132300
#020370:0000003300000000
#0213b0:00000000000000001323000000000000
#021360:00000000000000000000132300000000
#022320:00000000000000130000000000002300
#022360:0000000000000000000000000000000000000000005300000000000000000000
#0233b0:00000000000000130000000000000000
#023370:0000000000000000000000000000000000000000000000530000000000000000
#0243b0:23
#024361:13
#024321:00000023000000000000000000000000
#0243b0:00000013000000000000000000000000
#024370:0000002300000000
#024320:00001424
#024330:000000000000000000000000003400000034000000000000
#024340:000000000000003434000000
#024360:0000000000340000
#024361:00001424
#024371:000000000000000000000000003400000034000000000000
#024381:000000000000003434000000
#0243a1:0000000000340000
#025381:0013000000000000
#0253b1:00230000
#025321:00000000000000001323000000000000
#025371:00000000000000000000132300000000
#026351:0013000000000000
#026321:00230000
#0263b1:00000000000000130000000000002300
#026371:0000000000000000000000000000000000000000005300000000000000000000
#027321:00000000000000130000000000000000
#027361:0000000000000000000000000000000000000000000000530000000000000000
#028321:23
#028370:13
#0283b0:00000023000000000000000000000000
#028321:00000013000000000000000000000000
#028361:0000002300000000
#028321:0013
#028331:000000000000000000000000003300000000000000000000
#028341:000000000000003300000000
#028351:0000000000330000
#028361:000033
#028371:000000000000000000000000000000000033230000000000
#0293b1:13230000
#029371:0033000000000000
#029360:13230000
#029320:0033000000000000
#029370:0013
#029320:00000000000000000000002300000000
#0293b1:0000000013000033
#029361:00000000000000000000003300000000
#030371:33230000
#0303b1:0033000000000000
#029360:0000000000000013
#030320:33230000
#030360:0033000000000000
#031320:13230000
#031360:0033000000000000
#031371:13230000
#0313b1:0033000000000000
#031361:0013
#0313b1:00000000000000000000002300000000
#031320:0000000013000033
#031370:00000000000000000000003300000000
#032360:33230000
#032320:0033000000000000
#031371:0000000000000013
#0323b1:33230000
#032371:0033000000000000
#0333b1:13230000
#033371:0033000000000000
#033360:13230000
#033320:0033000000000000
#033370:0013
#033320:00000000000000000000002300000000
#0333b1:0000000013000033
#033361:00000000000000000000003300000000
#034371:33230000
#0343b1:0033000000000000
#033360:0000000000000013
#034320:33230000
#034360:0033000000000000
#034360:0000001424000000
#034360:0000000000001424
#035360:0013000000000000
#035320:00230000
#0353b1:0013000000000000
#035371:00230000
#035361:0000001424000000
#035361:0000000000001424
#036371:0013000000000000
#0363b1:00230000
#036320:0013000000000000
#036360:00230000
#036320:0000001837373434
#037320:23
#037360:0000001800000000
#037370:0000000037370000
#0373a0:0000000000003434
#0383b0:23
#038360:0000001300000000
#0383b0:0023
#038371:0013
#038321:0000000000230000
#038360:0000000000130000
#0383b0:00000023
#038371:00000013
#038321:0000000000000023
#038360:0000000000000013
#0393b0:23
#040360:1424000000000000
#040360:0000142400000000
#040360:0000000014240000
#040360:0000000000001424
#041320:0013
#041340:000000000000000000000000003300000000000000000000
#041360:000000000000003300000000
#041370:0000000000230000
#0413b1:0000000000130000
#041391:000033
#041371:000000000000000000000000000000000033000000000000
#041361:00000023
#041320:00000013
#041340:000000000000000000000000000000000000003300000000
#041360:000000000033
#041370:0000000000000023
#0413b1:0000000000000013
#041391:000000000000000000000033
#041371:000000000000000000000000000000000000000000000033
#042361:23
#042321:0000000000000000165600563656005626000000000000000000000000000000
#042341:000000000000000000000000000000000000000000000000000000000000000000000000000000000000000000000000000000000000000000000000000000000000000000000000000000000000000000000000000000000000000000000000000000000000000000000000000000000000000000000000000000000000000000000000000000000000000000000000000000000000000000000000000000000000000000000000000000000000000000000000000000000000000000000000000000000000000000000000000000000000000000000000000000000000000000000000000000000000000000000000000000000000000000000000000000000000000000000000000000000000005400000000000000000000000000000000000000000000000000000000000000000000000000000000000000000000000000000000000000000054000000000000000000000000000000000000000000000000000000000000000000000000000000000000000000000000000000000000000000000000005400000000000000000000000000000000000000000000000000000000000000000000000000000000000000000000000000000000000000000054000000000000000000000000000000000000000000000000000000000000000000000000000000000000000000000000000000000000000000000000000000000000000000000000000000000000000000000000000000000000000000000000000000000000000000000000000000000000000000000000000000000000000000000000000000000000000000000000000000000000000000000000000000000000000000000000000000000000000000000000000000000000000000000000000000000000000000000000000000000000000000000000000000000000000000000000000000000000000000000000000000000000000000000000000000000000000000000000000000000000000000000000000000000000000000000000000000000000000000000000000000000000000000000000000000000000000000000000000000000000000000000000000000000000000000000000000000000000000000000000000000000000000000000000000000000000000000000000000000000000000000000000000000000000000000000000000000000000000000000000000000000000000000000000000000000000000000000000000000000000000000000000000000000000000000000000000000000000000000000000000000000000000000000000000000000000000000000000000000000000
#042380:000000000000000000000000000000000000000000000000000000000000000000000000000000000000000000000000000000000000000000000000000000000000000000000000000000000000000000000000000000000000000000000000160000000000560056000000000000000000000000000000000000560000000000000000000000000000560000000000260000000000000000000000000000000000000000000000000000000000000000000000000000000000000000000000
#0423a0:000000000000000000000000000000000000000000000000000000000000000000000000000000000000000000000000000000000000000000000000000000000000000000000000000000000000000000000000000000000000000000000000000000000000000000000000000000000000000000000000000000000000000000000000000000000000000000000000000000000000000000000000000000000000000000000000000000000000000000000000000000000000000000000000000000000000000000000000000000000000000000000000000000000000000000000000000000000000000000000000000000000000000000000000000000000000000000000000000000000000000000000000000000000000000000000000000000000000000000000000000000000000000000000000000000000000000000000000000000000000000000000000000000000000000000000000000000000000000000000000000000000000000000000000000000000000000000000000000000000000000000000000000000000000000000000000000000000000000000000000000000000000000000000000000000000000000000000000000000000000000000000000000000000000000000000000000000000000000000000000000000000000000000000000000000000000000000000000000000000000000000000000000000000000000000000000000000000000000000000000000000000000000000000000000000000000000000000000000000000000000000000000000000000000000000000000000000000000000000000000000000000000000000000000000000000000000000000000000000000000000000000000000000000000000000000000000000000000000000000000000000000000000000000000000000000000000000000000000000000000000000000000000000000000000000000000000000000000000000000000000000000000000000000000000000000000000000000000000000000000000000000000000000000000000000000000000000000000000000000000000000000000000000000000000000000000000000000000000000000000000000000000000000000000000000000000000000000000000000000000000000000000000000000000000000000000000000000000000000000000000000000000000000000000000000000000000000000000000000000000000000000000000000000000000000000000000000000000000000000000000000000000000000000000000000000000000000000000000000000000000000000000000000000000000000000000000000000000000000000000000000000000000000000000000000000000000000000000000000000000000000000000000000000000000000000000000000005400000000000000000000000000000000000000000000000000000000000000000000000000000000000000000000000000000000000000000000000000000000000000000000000000000000000000000000000000000000000000000000000000000000000000000000000000000000000000000000000000000000000000000000000000000000000000000000000000000000000000000000000000340000000000000000000000000000540000000000000000000000000000000000000000000000000000000000000000000000000000000000000000000000000000000000000000000000000000000000000000000000000000000000000000000000000000000000000000000000000000000000000000000000000000000000000000000000000000000000000000000000000000000000000000000000000000000000000000000000000000000000000000000000000000000000000000000000000000000000000000000000000000000000000000000000000000000000000000000000000000000000000000000000000000000000000000000000000000000000000000000000000000000000000000000000000000000000000000000000000000000000000000000000000000000000000000000000000000000000000000000000000000000000000000000000000000000000000000000000000000000000000000000000000000000000000000000000000000000000000000000000000000000000000000000000000000000000000000000000000000000000000000000000000000000000000000000000000000000000000000000000000000000000000000000000000000000000000000000000000000000000000000000000000000000000000000000000000000000000000000000000000000000000000000000000000000000000000000000000000000000000000000000000000000000000000000000000000000000000000000000000000000000000000000000000000000000000000000000000000000000000000000000000000000000000000000000000000000000000000000000000000000000000000000000000000000000000000000000000000000000000000000000000000000000000000000000000000000000000000000000000000000000000000000000000000000000000000000000000000000000000000000
#043360:0000001300000000
#043320:00000000000000230000000000000000
#043360:00000000000000000013000000000000
#043320:0000000000230000
#044370:13230000000000000000000000000000
#044321:00132300000000000000000000000000
#0443b0:00001323000000000000000000000000
#044361:00000013230000000000000000000000
#0443b0:00130000
#044360:0000002300000000
#044320:00001626
#044360:0000000000560000
#0453b0:00130000
#045360:0000002300000000
#045320:00000000000000130000000000000000
#045370:0000000000230000
#0453a0:00000000000000000000000014000054
#045360:00000000000000000000000000540000
#045380:0000000000000034
#046360:24
#045361:00000000000000000000000014000054
#045321:00000000000000000000000000540000
#045341:0000000000000034
#046321:24
#046321:0000001323000000
#0463b0:00000000000000001323000000000000
#046351:00000000000000000013230000000000
#046380:00000000000000000000132300000000
#046321:00000000000000000000001323000000
#047371:0000001300000000
#0473b1:00000000000000230000000000000000
#047371:00000000000000000013000000000000
#0473b1:0000000000230000
#048361:13230000000000000000000000000000
#0483b0:00132300000000000000000000000000
#048321:00001323000000000000000000000000
#048370:00000013230000000000000000000000
#048321:00130000
#048371:0000002300000000
#048381:00001626
#048341:0000000000560000
#049321:00130000
#049371:0000002300000000
#0493b1:00000000000000130000000000000000
#049361:00000000000000000023000000000000
#049321:00000000000000000000000014000054
#049361:00000000000000000000000000540000
#049341:0000000000000034
#050361:24
#049360:00000000000000000000000014000054
#0493a0:00000000000000000000000000540000
#049380:0000000000000034
#0503a0:24
#050320:00001626
#050360:0000000000320000
#050381:0000000016322600
#0513a1:14545454345454543454545434545454
#051381:0054005400540054005400540054005400540054005400540054005400540054
#0523a1:34545454345454543454545424000000
#052381:0054005400540054005400540054005400540054005400540000000000000000
#051320:14545454345454543454545434545454
#051340:0054005400540054005400540054005400540054005400540054005400540054
#052320:34545454345454543454545424000000
#052340:0054005400540054005400540054005400540054005400540000000000000000
#0533b0:13230000000000000000000000000000
#053341:00132300000000000000000000000000
#053390:00001323000000000000000000000000
#053321:00000013230000000000000000000000
#053371:0013
#053321:00000000000000000053230000000000
#053361:00000013
#0533b1:00000000000000000000000000532300
#054371:13
#054321:00532300000000000000000000000000
#054321:00001626
#054361:0000000000320000
#054380:0000000016322600
#055320:13
#055350:00230000000000000000000000000000
#055381:00130000000000000000000000000000
#0553b1:0023000000000000
#055350:0013000000000000
#055320:00000023000000000000000000000000
#0553b1:00000013000000000000000000000000
#055381:00230000
#055371:00001323
#0553b1:0000000000330000
#055360:0000000000130023
#055320:00000033
#0553b1:0000000000000013
#056371:33
#0563b1:0023000000000000
#056320:13230000
#056360:0033000000000000
#056380:0000000013230000
#0563b0:00000000000000000053000000000000
#056351:0000000000132300
#056321:00000000000000000000005300000000
#056380:0000000000001323
#0563b0:00000000000000000000000000530000
#0573b0:13
#057380:00230000000000000000000000000000
#057351:00130000000000000000000000000000
#057321:0023000000000000
#057380:0013000000000000
#0573b0:00000023000000000000000000000000
#057321:00000013000000000000000000000000
#057351:00230000
#057361:00001323
#057321:0000000000330000
#057370:0000000000130023
#0573b0:00000033
#057321:0000000000000013
#058361:33
#058321:0023000000000000
#0583b0:13230000
#058370:0033000000000000
#058320:0016
#058360:0000000000220000
#058381:0000000016220000
#0593b1:1353
#059371:00000000000000000053000000000000
#060371:53
#0603b1:00530000000000000053000000000000
#062321:26
#059320:13000000000000000053000000000000
#059360:00530000000000005300000000000000
#060320:53000000000000000053000000000000
#060360:00530000000000005300000000000000
#062380:26
