This file was generated by Ched 2.6.2.0.
#TITLE ""
#ARTIST ""
#DESIGNER ""
#DIFFICULTY 0
#PLAYLEVEL
#SONGID ""
#WAVE ""
#WAVEOFFSET 0
#JACKET ""
#REQUEST "ticks_per_beat 480"
#00002: 4
#BPM01: 130
#00008: 01
#TIL00: ""
#HISPEED 00
#MEASUREHS 00
#0041a:0014
#00416:00000014
#00512:14
#00612:0014
#00616:00000014
#0071a:14
#00710:41
#00912:1414
#0101a:1414
#01114:1414
#01118:00140014
#01212:14
#0121a:00140000
#01318:14140000
#01314:00001414
#01310:41
#0141a:1414
#01412:00140000
#0171a:14
#01714:00140000
#01718:0014
#01712:00000014
#01818:14
#0181a:0014
#01814:00140000
#01912:14
#01918:00140000
#01914:0014
#0191a:00000014
#02014:14
#02018:00140000
#02012:0014
#0081a:0014
#00816:00000014
#02214:14140000
#0211a:14140000
#02918:14000014
#02914:0014
#03018:0014
#03014:00000014
#03012:14
#0311a:14
#03112:00001414
#0351a:00001414
#0351f:11
#03812:00001414
#03814:14
#0371a:00001414
#03718:14
#03612:00001414
#0401a:14
#04014:00140000
#04018:0014
#04012:00000014
#0391a:14
#03914:00140000
#03918:0014
#03912:00000014
#04314:00001414
#04318:26160000
#04312:0016000000000000
#0431f:21
#0531a:14
#05314:00140000
#05318:0014
#05312:00000014
#0541a:14
#05414:00140000
#05418:0014
#05412:00000014
#05410:41
#06114:00140000
#06118:00140000
#06012:1414
#0601a:1414
#02512:14140000
#02510:41
#02618:14140000
#04118:14141414
#04114:0014001400140014
#04218:14
#04418:0016000014001400
#04412:16160000
#04410:41
#04618:24000014
#04614:0014
#04612:24
#04718:0016000014001400
#04712:26160000
#04812:0016000000000000
#04814:00001414
#04818:16160000
#05212:00001414
#05218:14140000
#05114:00001414
#0511a:14140000
#05712:14
#05714:0000341434000000
#0231a:14
#02314:00140000
#02318:0014
#02312:00000014
#02712:14
#02718:00140000
#02714:0014
#0271a:00000014
#00312:14
#0021a:14141414
#05018:0014
#05014:24000014
#0501a:24
#03212:14
#03218:00001414
#0581a:14
#05818:0000341434000000
#01514:14140000
#01518:00001414
#01612:1414
#0161a:00140000
#03318:14000014
#03314:0014
#03310:41
#03418:0014
#03414:00000014
#03412:14
#02418:00000024
#0625a:14
#06252:14
#06154:00240000
#06158:00240000
#0605a:5454
#06052:6464
#03854:64
#03758:54
#04658:14
#04652:14
#0505a:14
#05054:14
#05752:54
#05754:0000002400000000
#02458:00000014
#01252:00000014
#04258:14
#04458:00000014
#04854:00000014
#0585a:64
#05858:0000002400000000
#003350:00000000000000001600003600002600
#005350:00000000000000001600003600002600
#007350:00000000000000001600003600002600
#012320:00001424
#0213a0:00001424
#022340:00001424
#024380:1424
#025320:00001424
#026380:00001424
#028340:1424
#0353a0:14240000
#036320:14240000
#037380:14
#0373a0:00240000
#038340:14
#038320:00240000
#045340:1434240000000000
#0453a1:14240000
#045321:00001424
#045380:0000000014342400
#049380:1434240000000000
#049321:14240000
#0493a1:00001424
#049340:0000000014342400
#055320:14343424
#055381:14343424
#0563a1:14343424
#056340:14343424
#057320:14000024
#057340:0000345434000000
#0583a0:14000024
#058380:0000345434000000
#0593a0:14000024
#059380:00343400
#059321:14000024
#059341:00343400
#0603a1:14
#060381:00240000
#060320:14
#060340:00240000
#0603a0:0014
#061380:00540000
#0623a0:24
#060321:0014
#061341:00540000
#062321:24
