This file was generated by Ched 2.7.0.0.
#TITLE ""
#ARTIST ""
#DESIGNER ""
#DIFFICULTY 0
#PLAYLEVEL
#SONGID ""
#WAVE ""
#WAVEOFFSET 0
#JACKET ""
#REQUEST "ticks_per_beat 480"
#00002: 4
#BPM01: 200
#00008: 01
#TIL00: ""
#HISPEED 00
#MEASUREHS 00
#0081a:14
#0091a:14
#01012:14
#01112:14
#01218:14
#01318:14
#01414:14
#01514:14
#04418:2616
#0441f:21
#04512:1616
#04510:41
#05118:0016
#05212:2616
#05318:1616
#05412:1616
#05518:16
#06018:16
#06012:0016
#06118:16
#06112:0016
#06218:16
#06212:0016
#06412:16
#06418:0016
#06410:41
#06512:16
#06518:0016
#06612:16
#06618:0016
#06818:1616
#06912:1616
#07018:16
#07012:0016
#07212:1616
#07318:1616
#04618:1616
#04712:16
#07618:14
#07610:41
#07712:14
#07818:14
#07912:14
#0801a:14
#08114:14
#0821a:14
#08314:14
#08418:14
#08512:14
#0861a:14
#08610:41
#08714:14
#08818:14
#08912:14
#0901a:14
#0281a:14
#0291a:14
#03012:14
#03010:41
#03112:14
#03218:14
#03318:14
#03414:14
#03514:14
#0161a:14
#01712:14
#0181a:14
#01912:14
#02018:14
#02010:41
#02114:14
#02218:14
#02314:14
#0241a:14
#02514:14
#02618:14
#02712:14
#0361f:11
#09515:26
#09812:3c
#0363a0:14
#0373a0:24
#038320:14
#039320:24
#040380:14
#041380:24
#042340:14
#043340:24
#047320:0016
#048320:26
#048380:0016
#049380:26
#049320:0016
#050320:36
#051320:26
#055380:0016
#056380:26
#056320:0016
#057320:26
#057380:0016
#058380:36
#059380:0026
#063380:1626
#067320:1626
#071380:1626
#074320:16
#075320:26
#091340:14
#092340:24
#093380:14
#094380:24
#095350:16
#098320:3c2c000000000000
