This file was generated by Ched 2.7.0.0.
#TITLE ""
#ARTIST ""
#DESIGNER ""
#DIFFICULTY 0
#PLAYLEVEL
#SONGID ""
#WAVE ""
#WAVEOFFSET 0
#JACKET ""
#REQUEST "ticks_per_beat 480"
#00002: 4
#BPM01: 200
#00008: 01
#TIL00: ""
#VOLUME: ""
#HISPEED 00
#MEASUREHS 00
#00414:13
#00419:13
#00612:13
#00615:0013000000130000
#00618:0000001300000000
#0061b:0000000000130000
#00818:13
#00812:13131313
#00915:13
#0091b:13131313
#0101b:13
#01016:1313
#01017:00130013
#01112:13131300
#0111b:00131300
#01115:0000000000130000
#01118:00000013
#01212:13131313
#01217:13131313
#0131b:13131313
#01316:13131313
#01419:12120000
#01415:12120013
#0141b:0013
#01412:0013
#01418:0000000000130000
#01615:1300001300001300
#01618:0013000000130013
#01612:0000130000000013
#0161b:0000001300000000
#01715:0013001300000000
#01718:00130000
#0171b:0000001300001300
#01712:0000000000130000
#01716:0000000000141400
#01818:1300001300001300
#01815:0013000000130013
#0181b:0000130000000013
#01812:0000001300000000
#01918:0013001300000000
#01915:00130000
#01912:0000001300001300
#0191b:0000000000130000
#01916:0000000000141400
#02018:0013000000000000
#02012:0000130000000013
#02015:2300001300000000
#0201b:2300001300130000
#02010:41
#02112:0013000000131300
#0211b:0000001300000000
#02117:0000000000131300
#02215:0013000000000000
#0221b:0000130000000013
#02218:1300001300000000
#02212:1300001300130000
#0231b:0013000000131300
#02312:0000001300000000
#02316:0000000000131300
#0241b:0013001300000013
#02418:23130000
#02415:0013001300000000
#02412:2300000000130000
#02516:0000000000130000
#02517:00000013
#0251b:0013000000130000
#02512:0000001300001300
#02612:0013001300000013
#02615:13130000
#02618:0013001300000000
#0261b:1300000000130000
#0271a:00001400140000000000001300000000
#02712:0014140013000000
#0271b:0013
#02715:0000000000130000
#02714:00000013
#02713:0000000000000013
#02719:00000000000000000000000000130000
#02718:00000000000000000000000000000013
#02916:0013
#02918:00000013
#0291b:0000000000000013
#0301b:1313
#03012:1313
#03019:00130000
#03014:00130000
#03010:41
#0311b:13000013
#03118:00000013000000000000000000000000
#03112:13000013
#03115:00000013000000000000000000000000
#03116:0000000000140000
#03212:1300001300000013
#03218:0013000000130000
#0321b:1313
#03215:00130013
#0331b:0013000000130000
#03318:1313
#03315:0000001300000013
#03312:00130013
#03416:00130000
#0341b:13
#03412:0013
#03414:00000013
#03419:00000013
#03517:13130000
#03512:1300000000130000
#03518:0013
#03515:00000013
#0351b:0000000000001313
#03612:1300000000000013
#03616:00131300
#03617:13000013
#0361b:0000001313000000
#0361f:11
#03712:1300000000000013
#03716:00131300
#03717:1300000000001313
#0371b:0000001313000000
#03812:00131300
#0381b:00130000000000000000000013000000
#03818:0013
#0391b:0013000000000013
#03912:1300000000000013
#03916:0013000000000000
#03917:0000001300000000
#0401b:0013000000130000
#04018:1313
#04012:0000001300000013
#04015:13130013
#0411b:0013001300001300
#04118:13
#04115:00130000
#04112:0000001300000000
#04116:00000000000000000013000000000000
#04212:1313
#04217:1313
#04219:0013000000130000
#0421b:00130013
#04216:00130013
#04214:0000001300000013
#04312:13000000000016000013000000000000
#04317:1313
#04319:0013000000001300
#0431b:00130000
#04316:00130000
#04314:00001300000000000000000000130000
#04318:0000000000130000
#04313:00000000000000000000001300000000
#0431a:0000000000000013
#04315:00000000000000000000000000000013
#04417:0000001300000000
#04412:2300001300000000
#04415:0013
#04418:2600000000130000
#04416:00000013
#0441b:00000013
#0441f:21
#04516:0000001300000000
#0451b:0000001300000000
#04518:0013
#04515:0000000000130000
#04517:00000013
#04512:00000013
#04510:41
#04612:14140014
#0461a:1414
#04616:0014001400140014
#0471a:14
#0471b:0000130000130000
#04716:0000130000130000
#04717:0000001300001300
#04712:0000001300001300
#0481b:1313
#04812:1313
#04818:0013001300001300
#04815:0000130000130013
#0491b:13001313
#04912:13001313
#04918:0013001300000000
#04915:0000130000160000
#0501b:00130000
#05018:0000001300000016
#05012:0000130000121416
#05015:0000001300000000
#0501c:0000000000120000
#0501a:00000014
#05114:0013000000001300
#05112:00130000
#05117:00130000
#05119:00001300000000000000000000130000
#05118:00000000000016000000000000000013
#05116:0013
#0511b:00000000000000000013000000000000
#05115:0000000000130000
#0511a:00000000000000000000001300000000
#05113:0000000000000013
#05218:0000001600000000
#05212:26
#0521b:23
#0531a:12
#05317:0013
#05312:0013
#0531b:0000001300000000
#05316:0000001300000000
#0541a:14140014
#05412:1414
#05416:0014001400140014
#05512:1400130000130000
#05517:0000130000130000
#05516:0000001300001300
#0551b:0000001300001300
#05818:0000130000000016
#0581b:0000001300000000
#05815:00130000
#05812:0000001300121416
#0581c:0000000000120000
#0581a:00000014
#0591a:00001400140000000033000000000000
#05912:00001400140000000000000000000033
#05915:0013
#05918:00000000000000000000003300000000
#05919:0000000000330000
#05913:0000000000000033
#05914:00000000000000000000000000330000
#06018:13
#0601b:0013000013000000
#06012:00130000
#06013:0000000000000013
#06019:00000013
#06016:0013
#06014:00000013
#0601a:0000000000130000
#06112:13
#06117:1313
#06116:00130013
#06312:1300002300000000
#06316:00000013000000000000000000000000
#0631b:00130000
#06319:00000014
#06313:00000014
#06317:1323
#06415:13
#06412:0013000013000000
#0641b:13130000
#06413:0000000000130000
#06414:00000013
#06417:0013
#06419:00000013
#0641a:0000000000000013
#06410:41
#0651b:13130013
#06512:1313
#06216:00131300
#06218:0013000000000000
#0621b:1313
#06219:00000013
#06213:0000000000000013
#0621a:0000000000130000
#06214:00000013
#06617:00131300
#06615:0013000000000000
#06612:1313
#06614:00000013
#0661a:0000000000000013
#06613:0000000000130000
#06619:00000013
#06716:00140014
#06712:00000013000000001300000000000000
#06718:00001300000000000013000000000000
#06715:00130000000000000000130000000000
#0671b:13000000000000000000001300000000
#06815:0013000000001300
#06818:0000130000130000
#0681b:2300001323000000
#06812:2300000023000013
#06915:0013001300001300
#06918:0000130000130013
#0691b:2300001323000000
#06912:2300000023000013
#07015:0013000023000000
#07012:2300001300000000
#07018:2300000000130000
#0701b:0000000023000013
#07115:0013000023000000
#07112:2300001300000000
#07118:2300000000130000
#0711b:0000000023000013
#07216:14241424
#0721a:2400000000000014
#07312:13
#07318:2323
#07315:0023000000230000
#0731a:00330000003300000033000000330000
#07313:00000033000000330000003300000033
#07518:1313
#07515:00130000
#0751b:0000000000131300
#07512:0000000000131300
#07618:13130000
#0761b:0013000000000000
#07612:13130013
#07615:0013000000000000
#07616:0000000000130013
#07610:41
#07717:0013001300000000
#0771b:00130000
#07716:0000000000140000
#0771a:00000014
#07712:00000014
#07815:13130000
#07812:0013000000000000
#0781b:13130013
#07818:0013000000000000
#07817:0000000000130013
#07916:0013001300140000
#07912:00130014
#0791a:00000014
#08018:0013130000000000
#08012:0000130000130000
#08015:2300001300000000
#0801b:2300001300000013
#0811b:0013000000131300
#08112:0000001300000000
#08215:0013130000000000
#0821b:0000130000130000
#08218:1300001300000000
#08212:1300001300000013
#0831a:0014140000000000
#08312:0014140000000000
#08315:0000000013131313
#08318:00000000000000000013001300130013
#08412:2313000000000013
#0841b:0000131300000000
#08416:0014140000000000
#0851b:0000001300130000
#08515:0000000000130000
#08518:00000013
#08512:00000013
#0861b:1313000000000013
#08612:0000131300000000
#08616:0014140000000000
#08610:41
#08712:0000001300130000
#08718:0000000000130000
#08715:00000013
#0871b:00000013
#08812:2313001300000013
#08818:0013000000000000
#08815:00130000
#0881b:0000000000130000
#08912:0013000000130000
#0891b:0000001300001300
#08915:00000013
#08918:0000000000130000
#0901b:1313001300000013
#09015:0013000000000000
#09018:00130000
#09012:0000000000130000
#0911b:00001300000000000013000000000000
#09112:0000130000131600
#09118:00000000000000000000001300000000
#09115:0013000013000000
#09212:00001300000000000013000000000000
#0921b:0000130000130000
#09215:00000000000000000000001300000000
#09218:0013000013001600
#0931b:0013130000000000
#09312:0013130000000000
#09418:0000001313000000
#09415:00000000000000130000000000000000
#0941b:0000000000130000
#09412:0000000000130000
#09814:14
#0981a:0014000000000000
#09818:24
#09812:0024000000000000
#05615:1313001300000000
#0561b:13130000
#05618:0000000013130013
#05612:00001313
#05715:1313001300161300
#0571b:13130000
#05718:00001313
#05712:0013
#07415:29
#0951a:22
#09514:22
#01056:6363
#01057:00530053
#02152:00000013
#0235b:00000013
#02557:00000013
#02956:0053
#0305b:0063
#03052:0053
#0315b:63
#03158:00000023000000000000000000000000
#03152:53
#03155:00000023000000000000000000000000
#03258:0023000000230000
#03252:0000002300000023
#0325b:6363
#03255:00630063
#0335b:0023000000230000
#03355:0000002300000023
#03352:00530053
#03358:5353
#03456:00230000
#0345b:63
#03557:00230000
#03558:0013
#03555:00000013
#03552:53
#03657:53
#03656:0063
#03757:5300000000000053
#03756:0063
#03752:0000000000000013
#0385b:00230000000000000000000063000000
#03852:0053
#03956:0063000000000000
#03957:0000001300000000
#0405b:0023000000230000
#04058:5353
#04052:0000002300000023
#04055:00630063
#0415b:0023000000000000
#04158:53
#04156:00000000000000000023000000000000
#04152:0000005300000000
#04252:1313
#0425b:00130013
#04458:16
#0445b:00000063
#04456:00000063
#04557:13
#04552:13
#0465a:6464
#04656:0024002400240024
#04652:00540054
#04752:34
#0475a:44
#0495b:00000063
#04952:00000053
#04955:00130000
#0505b:00630000
#05058:0000002300000016
#05052:0000530000000016
#05055:0000002300000000
#05252:16
#0535a:12
#05352:1653
#05357:0053
#05452:5454
#05456:0024002400240024
#0545a:00640064
#05552:34
#0555a:44
#05858:0000530000000016
#0585b:0000002300000000
#05855:00630000
#05852:0000002300000016
#06058:53330000
#0605b:0023000000000000
#06052:00330000
#06157:5353
#06156:00630063
#06352:5300003300000000
#06356:00000023000000000000000000000000
#0635b:00230000
#06357:5333
#06455:63430000
#06452:0023000000000000
#0645b:00430000
#06552:5353
#0655b:00630063
#06258:0023000000000000
#0625b:63
#06655:0023000000000000
#06652:53
#06756:00140014
#0685b:13
#06852:0013
#0695b:13
#06952:0013
#07058:13
#07055:0013
#07158:13
#07155:0013
#0725a:4444
#07252:00340034
#07455:49
#07658:53530000
#0765b:0063000000000000
#07652:53530000
#07655:0063000000000000
#0775a:00000044
#07752:00000034
#07855:63630000
#07852:0053000000000000
#0785b:63630000
#07858:0053000000000000
#07952:00000034
#0795a:00000044
#08156:00000013
#0815b:00000013
#08558:00000043
#08555:0000000000330000
#08758:0000000000430000
#08755:00000033
#0895b:00000043
#08952:0000000000330000
#09152:00000036
#09258:00000046
#09452:33
#0945b:43
#0955a:62
#09554:52
#04855:00130000
#04858:00000013
#0565b:00130000
#05652:00000013
#0575b:00130000
#05758:00000053
#05755:00000063
#010360:13
#010320:00230000
#010371:00130000
#0103b1:0023
#010360:0013
#010320:00000023
#010371:00000013
#0113b1:23
#0143b1:0000000000000013
#0153b1:00000023
#014320:0000000000000013
#015320:00000023
#020350:0000000000132300
#020381:0000000000001323
#021381:0013230000000000
#021350:0000132300000000
#022380:0000000000132300
#022351:0000000000001323
#023351:0013230000000000
#023380:0000132300000000
#024370:0000000000130000
#0243b0:00000023
#024321:00000013
#024361:0000000000000023
#025361:0013000000000000
#025321:00230000
#0253b0:00130000
#025370:0000002300000000
#026360:0000000000130000
#026320:00000023
#0263b1:00000013
#026371:0000000000000023
#028321:13230000
#028351:00530053000000000000000000000000
#028380:00132300
#0283b0:00000000005300530000000000000000
#028321:00001323
#028351:00000000000000000053005300000000
#0283b0:00000013
#028380:00000000000000000000000000530053
#0293b0:23
#029351:13230000
#029321:00530053000000000000000000000000
#0293b0:00132300
#029380:00000000005300530000000000000000
#029361:0013
#029321:0000000000005323
#0303b1:0013
#030381:00000023
#030320:0013
#030350:00000023
#0313b0:1300002300000000
#031380:00000053000000000000000000000000
#031321:1300002300000000
#031351:00000053000000000000000000000000
#0323b1:13230000
#032381:0053000000000000
#032350:00132300
#032320:0000005300000000
#0323b1:00001323
#032381:0000000000530000
#032350:00000013
#032320:0000000000000053
#033350:23
#033381:13230000
#0333b1:0053000000000000
#033320:00132300
#033350:0000005300000000
#033381:00001323
#0333b1:0000000000530000
#033320:00000013
#033350:0000000000000053
#034320:23
#0343b1:1323
#034361:00530000
#035321:1323
#035371:00530000
#036371:13
#0363b1:00230000
#036361:0013
#036321:00000023
#037371:13
#0373b1:00230000
#037361:0013
#037321:00000023
#037371:0000000000000013
#0383b1:00530000000000000000000000000000
#038371:00230000
#038321:0013
#038361:00000023
#0383b0:00000013
#039370:23
#039360:0013000000000000
#039320:0000002300000000
#040380:13230000
#0403b0:0053000000000000
#040351:00132300
#040321:0000005300000000
#040380:00001323
#0403b0:0000000000530000
#040351:00000013
#040321:0000000000000053
#041351:23
#041380:13230000
#0413b0:0053000000000000
#041320:0000001300002300
#041360:00000000000000000053000000000000
#0443b0:00000013
#045370:23
#044361:00000013
#045321:23
#0463a1:14240000
#046361:0054000000000000
#046320:00142400
#046360:0000005400000000
#0463a1:00001424
#046361:0000000000540000
#046320:00000014
#046360:0000000000000054
#047320:24
#0493b0:00000013
#050380:23
#049321:00000013
#050351:23
#0503b1:00132300
#050381:0000005300000000
#050320:00132300
#050350:0000005300000000
#052340:0000001200000000
#052320:0026
#052381:0016
#0523a1:0000000000220000
#052320:0000000000160000
#052340:00000022
#0523a1:00000012
#052381:0000000000000026
#052340:0000000000000012
#053320:26
#053320:0013
#053360:00000023
#053371:0013
#0533b1:00000023
#054321:14240000
#054361:0054000000000000
#0543a0:00142400
#054360:0000005400000000
#054321:00001424
#054361:0000000000540000
#0543a0:00000014
#054360:0000000000000054
#0553a0:24
#057380:00000013
#0583b0:23
#057351:00000013
#058321:23
#058381:00132300
#0583b1:0000005300000000
#058350:00132300
#058320:0000005300000000
#0593b0:0013
#0593a0:00000000000000000033000000000000
#059390:0000000000330000
#059380:00000000000000000000003323000000
#059351:00000013
#059341:00000000000000000000000000330000
#059331:0000000000000033
#059321:00000000000000000000000000000033
#060321:23
#060380:13230000
#0603b0:0053000000000000
#061370:13
#0613b0:00230000
#061361:00130000
#061321:0023
#061370:0013
#0613b0:00000023
#061361:00000013
#062321:23
#0623b0:13230000
#062380:0053000000000000
#063320:1300002300000000
#063360:00000053000000000000000000000000
#063371:1323
#0633b1:00530000
#064351:13230000
#064321:0053000000000000
#065321:13
#065361:00230000
#0653b0:00130000
#065370:0023
#065321:0013
#065361:00000023
#0653b0:00000013
#066370:23
#066321:13230000
#066351:0053000000000000
#0703b1:0000132300000000
#070321:0000000000001323
#0713b1:00130000
#071371:0000002300000000
#071321:00000013
#071361:0000000000000023
#072321:0014240000000000
#0723a1:0000001424000000
#072321:0000000000142400
#073381:13
#0733a1:00330000000000000000000000000000
#0733b1:0023000000000000
#073350:0013000000000000
#073330:00000033000000000000000000000000
#073320:00230000
#073381:00130000
#0733a1:00000000003300000000000000000000
#0733b1:0000002300000000
#073350:0000001300000000
#073330:00000000000000330000000000000000
#073320:0023
#073381:0013
#0733a1:00000000000000000033000000000000
#0733b1:0000000000230000
#073350:0000000000130000
#073330:00000000000000000000003300000000
#073320:00000023
#073381:00000013
#0733a1:00000000000000000000000000330000
#0733b1:0000000000000023
#073350:0000000000000013
#073330:00000000000000000000000000000033
#074320:23
#076380:13330000
#0763b0:0033002300000000
#076321:13330000
#076351:0033002300000000
#0763b1:0000000000130023
#076371:00000033
#077321:0013002300000000
#077361:00330000
#078351:13330000
#078321:0033002300000000
#0783b0:13330000
#078380:0033002300000000
#078320:0000000000130023
#078360:00000033
#0793b0:0013002300000000
#079370:00330000
#080390:0000000000122200
#080370:00000000000000000000005600000000
#080351:0000000000001222
#080331:00000000000000000000000000560000
#081351:0012220000000000
#081331:00000056000000000000000000000000
#081390:0000122200000000
#081370:00000000005600000000000000000000
#081360:0000000000132300
#082350:0000000000122200
#082330:00000000000000000000005600000000
#082391:0000000000001222
#082371:00000000000000000000000000560000
#084371:0000000000130023
#0843b1:00000033
#084320:0000000000130000
#084360:00000023
#085361:0013002300000000
#085321:00330000
#0853b0:0013000000000000
#085370:00230000
#086361:0000000000130023
#086321:00000033
#0863b0:0000000000130000
#086370:00000023
#087371:0013002300000000
#0873b1:00330000
#087320:0013000000000000
#087360:00230000
#0883b1:00130000
#088381:0000002300000000
#088321:0000000000130000
#088351:00000023
#088380:00000013
#0883b0:0000000000000023
#0893b0:0013000000000000
#089380:00230000
#089351:00130000
#089321:0000002300000000
#090321:00130000
#090351:0000002300000000
#0903b1:0000000000130000
#090381:00000023
#090350:00000013
#090320:0000000000000023
#091380:00132300
#092350:00132300
#093380:00000000000000001323000000000000
#093351:00000000000000000013230000000000
#0933b0:00000000000000000000132300000000
#093321:00000000000000000000001323000000
#093380:00000000000000000000000013230000
#093351:00000000000000000000000000132300
#0933b0:0000000000000013
#0943b0:23
#093321:00000000000000000000000000000013
#094321:23
#0953a1:12
#097381:0026
#095340:12
#097320:0026
