This file was generated by Ched 2.7.0.0.
#TITLE ""
#ARTIST ""
#DESIGNER ""
#DIFFICULTY 0
#PLAYLEVEL
#SONGID ""
#WAVE ""
#WAVEOFFSET 0
#JACKET ""
#REQUEST "ticks_per_beat 480"
#00002: 4
#BPM01: 200
#00008: 01
#TIL00: ""
#VOLUME: ""
#HISPEED 00
#MEASUREHS 00
#00419:14
#00413:14
#00612:13
#00618:0013000000000000
#00615:0000001300000000
#0061b:0000000000130000
#00812:13131313
#0091b:13131313
#01015:13
#01018:0013
#0111b:13
#01112:13
#01115:0000000000130000
#01118:00000013
#01212:13
#01218:00130000
#01215:0013
#0121b:00000013
#01312:13
#01318:00130000
#01315:0013
#0131b:00000013
#0141b:13130000
#01412:13130000
#01415:00001313
#01418:0000000000130000
#01612:1300000000130000
#01618:0013000000001300
#01615:0000130000000013
#0161b:0000001300000000
#0171b:0013000000131300
#01715:0000130000131300
#01718:0000001300000000
#0181b:1300000000130000
#01815:0013000000001300
#01818:0000130000000013
#01812:0000001300000000
#01912:0013000000131300
#01918:0000130000131300
#01915:0000001300000000
#02018:0013000000000000
#02015:00130000
#0201b:0000001300000000
#02012:23
#02013:00000033
#02010:41
#02118:0000000000130000
#02115:00000013
#0211a:00330000
#0221b:13
#02215:0013000000000000
#02218:00130000
#02212:0000001300000000
#0221a:00000033
#02315:0000000000130000
#02318:00000013
#02313:00330000
#02418:0013000000000000
#02415:00130033
#0241b:0000001300003300
#02412:2300001300000000
#0251b:0000000000130000
#02515:00000013
#02512:00330000
#02518:00330000
#0261b:1300001300000000
#02615:0013000000000000
#02618:00130033
#02612:0000001300003300
#02719:0013130000000000
#02714:0013130000000000
#0271b:0013
#02712:0013
#02718:00000013
#02715:0000000000000013
#02818:00130013
#0281b:13
#02812:00000013
#02912:00130000
#02915:13000013
#0291b:00000013
#03018:00130013
#0301b:13
#03012:00000013
#03010:41
#03118:0000000000130000
#0311b:00000013
#03115:00000013
#03215:00130013
#03212:13
#0321b:00000013
#0331b:00130000
#03318:13000013
#03312:00000013
#03412:13
#0341b:00000013
#03415:00000013
#03518:0000000000000013
#0351b:13
#03612:13000013
#0361b:00131300
#03615:00130000
#03618:00000013
#0361f:11
#03715:13
#03712:0000130000001313
#0371b:0000130000001313
#03718:0013
#03819:0013
#03814:0013
#03812:00000013
#0381b:00000013
#03912:1313000000000000
#0391b:1313000000000000
#03915:0000000000000013
#04018:13001313
#0401b:00130000
#04015:00130000
#04012:00000013
#04115:13
#0411b:00130000
#04112:0000001300000000
#04119:00000013
#04114:00000013
#0421b:1313
#04212:0013000000130000
#04218:00130013
#04215:0000001300000013
#0431b:13
#04312:13
#04318:0000001300130013
#04315:00001313
#04412:0000001300000000
#04418:0013
#04415:2300000000130000
#0441b:00000013
#0441f:21
#0451b:0000001300000000
#04515:0013
#04518:0000000000130000
#04512:00000013
#04510:41
#04618:13
#0461b:0013
#04612:13
#04615:0013
#04619:00000033
#0461a:00330000
#04613:00000033
#04614:00330000
#0471b:0000000000131300
#04715:0000000000131300
#04812:0000000000131300
#04818:0000000000131300
#0491b:0000000000131300
#04912:0000000000131300
#0501b:0000130000000013
#05012:00131300
#05018:0000000000130000
#05015:00000013
#05115:0000001300130013
#05118:00001313
#0521b:0000001300000000
#05215:0013
#05218:2300000000130000
#05212:00000013
#05214:0000000000000033
#05312:0000001300000000
#05318:0013
#05315:0000000000130000
#0531b:00000013
#05415:13
#05412:0013
#0541b:13
#05418:0013
#05414:00000033
#05413:00330000
#0541a:00000033
#05419:00330000
#05515:0000000000130000
#05512:00000013
#0551b:0000000000130000
#05518:00000013
#05618:0000000000130000
#0561b:00000013
#05612:0000000000130000
#05615:00000013
#05712:0000000000131300
#0571b:0000000000131300
#05812:0000130000000013
#0581b:00131300
#05815:0000000000130000
#05818:00000013
#0591a:0013000000000000
#05913:0013000000000000
#06018:00130013
#06012:0000130000000013
#0601b:0013
#06015:0000000000130000
#0601a:24
#06014:24
#06118:13
#06115:0013
#06218:13000013
#06212:0013
#06215:0000000000130000
#0621b:0000000000000013
#06315:13000013
#06312:0013
#06318:0013
#0631b:00000013
#06418:1400000000130000
#06412:1413
#06415:00130013
#0641b:0000130000000013
#06410:41
#06512:13
#0651b:0013
#06612:1300000000000013
#0661b:0013
#06618:0000000000130000
#06615:00000013
#06818:00130013
#06812:0000130000130000
#06815:2300000000000013
#0681b:2323
#06915:00130013
#0691b:0000130000130000
#06918:2300000000000013
#06912:2323
#07018:00130013
#07012:0000130000130000
#07015:2300000000000013
#0701b:2323
#07112:13
#0711b:13
#07119:00000013
#07114:00000013
#07212:1313
#07218:0000130000130013
#0721b:2323
#07215:00230023
#0731b:2313
#07318:00000000000000000000333313333300
#07312:0013
#07315:00000000000000000000333313333300
#07319:00000000000000000033000000000033
#07314:00000000000000000033000000000033
#07518:1313
#07515:00130000
#0751a:00000014
#07512:00000014
#07618:0013000000001300
#07612:0000130000000013
#0761b:0000001300000000
#07615:2300000000130000
#07610:41
#07718:0013000000000000
#07715:00130000
#0771b:0000001300000000
#07815:0013000000001300
#0781b:0000130000000013
#07812:0000001300000000
#07818:1300000000130000
#07915:0013000000000000
#07918:00130000
#07912:0000001300000000
#0811b:0013000000000000
#08112:00130000
#08117:0000001300000000
#08016:0000000000000013
#0801b:2300001300001300
#08012:2300000000130000
#08015:00130000
#08018:0013000000000000
#08217:0000000000000013
#08212:1300001300001300
#0821b:1300000000130000
#08218:00130000
#08215:0013000000000000
#08312:0013130000000000
#0831b:0013130000000000
#08415:0013000000000000
#0841b:00130000
#08418:2300001300000000
#08412:2300001300000000
#08512:0000000000130000
#08518:00000013
#0861b:1300001300000000
#08615:1300001300000000
#08618:0013000000000000
#08612:00130000
#08610:41
#0871b:0000000000130000
#08715:00000013
#08815:0013000000000000
#08812:0000131300000000
#0881b:0000131300000000
#08816:0000000000140000
#08818:23
#08916:0014000000140000
#0891a:00000014
#09015:13
#09018:0013000000000000
#0901b:0000131300000000
#09012:0000131300000000
#09016:0000000000140000
#0911a:0014140000000000
#09112:0014140000000000
#09212:0014140000000000
#0921a:0014140000000000
#0931a:0014140000000000
#09312:0014140000000000
#09319:00000000000000001300000000343400
#09314:00000000000000001300000000000034
#09313:00000000000000000000000000343400
#09318:00000000000000000000000000000034
#09414:0000001300130000
#09419:0013
#09813:1424000000000000
#09819:2414000000000000
#0741b:23
#07412:23
#09519:23
#09514:23
#06715:00000000000000000000003400000000
#06714:0000000000340000
#06713:00000000000000000034000000000000
#06717:00000034000000000000000000000000
#06718:0034000000000000
#06719:00340000000000000000000000000000
#01058:0053
#01055:63
#02155:00000013
#02358:00000013
#02555:00000013
#0285b:63
#02858:00230000
#02952:00230000
#02955:63
#03058:00230000
#0305b:63
#03255:00230000
#03252:53
#0335b:00230000
#03358:53
#03452:53
#03955:0000001300000000
#03952:0053000000000000
#0395b:0063000000000000
#03958:0000001300000000
#04455:13
#0445b:00000063
#04558:13
#0465b:0063
#04658:53
#04652:53
#04655:0063
#04758:13
#04752:13
#0475b:00000063
#04755:00000063
#04852:00000053
#04858:00000053
#0495b:00000063
#04952:00000053
#0505b:0000000000000013
#05252:00000053
#05258:13
#05455:63
#05452:0053
#0545b:63
#05458:0053
#05552:00000053
#05558:00000053
#05555:13
#0555b:13
#0565b:00000063
#05655:00000063
#05752:00000053
#0575b:00000063
#05355:13
#06158:53
#06155:0063
#06258:53
#06355:63
#06552:53
#0655b:0063
#06652:53
#06757:00140000
#06755:00000014
#07155:0013
#07158:0000001300000000
#07152:53
#0715b:63
#0735b:0063
#07358:00000023
#07352:0053
#07355:00000023
#08558:00000013
#08755:00000013
#0895a:00000014
#09152:00000034
#0925a:00000044
#03557:0013
#0355b:63
#0745b:43
#07452:33
#05852:0000000000000013
#010350:13
#010320:00230000
#010380:0013
#0103b0:00000023
#014380:0000000000000013
#015380:00000023
#020350:0000000000130000
#020330:00000033
#020320:0000000000000023
#021380:0013000000000000
#0213a0:00330000
#0213b0:0000002300000000
#022380:0000000000130000
#0223a0:00000033
#0223b0:0000000000000023
#023350:0013000000000000
#023330:00330000
#023320:0000002300000000
#024380:0000000000130000
#0243b0:0000000000003323
#024321:0000000000130000
#024351:0000000000003323
#025351:0013000000000000
#025321:0000332300000000
#0253b0:0013000000000000
#025380:0000332300000000
#026350:0000000000130000
#026320:0000000000003323
#0263b1:0000000000130000
#026381:0000000000003323
#0283b1:1323
#028381:00330000
#029351:1323
#029321:00330000
#0303b1:1323
#030381:00330000
#031351:1300002300000000
#0313b0:1300002300000000
#032320:1323
#032350:00330000
#033380:1323
#0333b0:00330000
#034320:13
#034360:0023
#0353b0:13
#035370:0023
#039320:0013000000000000
#039350:0000002300000000
#0393b1:0013000000000000
#039381:0000002300000000
#0443b1:00000013
#045381:23
#046381:13
#0463a1:00330000
#0463b1:0033
#046391:00000033
#047381:23
#046320:13
#046340:00330000
#046350:0033
#046330:00000033
#047320:23
#0473b0:00000013
#048380:23
#047351:00000013
#048321:23
#048321:00000013
#049351:23
#048380:00000013
#0493b0:23
#0493b0:00000013
#050380:23
#049321:00000013
#050351:23
#052321:00000013
#052341:0000000000000033
#053351:23
#054351:13
#054331:00330000
#054321:0033
#054341:00000033
#055351:23
#0543b0:13
#054390:00330000
#054380:0033
#0543a0:00000033
#0553b0:23
#055320:00000013
#056350:23
#055381:00000013
#0563b1:23
#0563b1:00000013
#057381:23
#056350:00000013
#057320:23
#057320:00000013
#058350:23
#0573b1:00000013
#058381:23
#0593a1:0000133333332300
#059391:00000000003300330033003300000000
#059330:0000133333332300
#059340:00000000003300330033003300000000
#061380:13
#0613b0:00230000
#061350:0013
#061320:00000023
#062380:13
#0623b0:00230000
#063350:13
#063320:0000002300000000
#065320:13
#065350:00230000
#0653b0:0013
#065380:00000023
#066320:13
#066350:00230000
#0673a0:14
#067390:00340000000000000000000000000000
#067380:0034000000000000
#067370:00000034240000000000000000000000
#067320:0014
#067330:00000000000000000034000000000000
#067340:0000000000340000
#067350:00000000000000000000003424000000
#0713b0:13
#071380:0000532300000000
#071321:13
#071351:00532300
#073321:13230000
#0733b0:13230000
#0733b0:0013
#073390:00000000000000000033000000000033
#073380:00000000000000000000333333333300
#0743b0:23
#073321:0013
#073341:00000000000000000033000000000033
#073351:00000000000000000000333333333300
#074321:23
#077381:0000000000132300
#077320:0000000000132300
#079350:0000000000132300
#0793b1:0000000000132300
#081381:0000000000130000
#0813b1:00000023
#081320:0000000000130000
#081350:00000023
#0833a0:0014
#083390:00000000000000000034000000000000
#083380:0000000000340000
#083370:00000000000000000000003400000000
#083360:00000024
#084350:0000000000130023
#084320:00000033
#085380:0013002300000000
#0853b0:00330000
#086380:0000000000130023
#0863b0:00000033
#087350:0013002300000000
#087320:00330000
#0883a0:0000000000001424
#089320:0000142400000000
#090320:0000000000001424
#091320:00001424
#091340:00000000000000000034003400000000
#091360:0000000000340000
#0923a0:00001424
#092380:00000000000000000034003400000000
#092360:0000000000340000
#093320:00000014
#093330:00000000000000000000000000343400
#093340:00000000000000000000000000000034
#094340:24
#0933a1:00000014
#093391:00000000000000000000000000343400
#093381:00000000000000000000000000000034
#094381:24
#095391:13
#097381:0026
#095340:13
#097320:0026
