This file was generated by Ched 2.7.0.0.
#TITLE ""
#ARTIST ""
#DESIGNER ""
#DIFFICULTY 0
#PLAYLEVEL
#SONGID ""
#WAVE ""
#WAVEOFFSET 0
#JACKET ""
#REQUEST "ticks_per_beat 480"
#00002: 4
#BPM01: 200
#00008: 01
#TIL00: ""
#VOLUME: ""
#HISPEED 00
#MEASUREHS 00
#00314:00000000000000000000000000000000000000000000000000000000000000000000000000000000000000000000000000000000000000000000000000130000
#02117:0000130013130000
#0211b:0013001300001300
#02112:0013
#04112:0000001300001300
#0411b:0013001300000000
#04118:00130000
#04616:1413000014130000
#0461a:0014000000140000
#04612:14140014
#04617:0000001400000014
#0461b:0000001300000013
#0471a:14
#04719:00130000
#04712:0000001300000000
#04716:0014000000000000
#0471b:0000001300000000
#04714:00130000
#0621b:13000012
#06216:13
#06212:00130000
#06213:0012
#06217:00001212
#06215:0000000000120000
#06219:0000000000000012
#06319:00000013
#0631b:1323
#06314:00000013
#06316:13
#06312:0023
#06317:0000002300000000
#06112:13131300
#06116:0013001300130000
#0611b:1313
#06117:00130013
#05912:00001300130000000000000000000016
#0591b:0013130000000000
#05918:0000001213141516
#05916:00000000000000120000000000000000
#05915:00000000000000000013000000000000
#05914:00000000000000000000001400000000
#05913:00000000000000000000000000150000
#09415:0000001300000000
#09418:00000000000000130000000000000000
#09412:1c
#05016:0000001200000000
#05012:0000160000161616
#05018:0000161200161616
#00812:13131313
#00818:1200001200000000
#01012:13131313
#00912:13131313
#0091c:12
#00917:0000001200000000
#00919:0012
#0091b:00000012
#01112:13131300
#0111b:0013
#01116:00000012
#01118:0000000000120000
#0111c:12
#01212:00000012
#0121b:13131313
#01216:0000000000120000
#01312:0000000000120000
#01316:00000012
#0131b:13131313
#01416:00121313
#01412:0000000000130013
#01417:0000000000130013
#0141b:13131313
#0161c:1212001200001200
#01617:1212121200000000
#01612:0000120000120012
#01616:00000012
#01618:0000000000120012
#02012:0000001300001300
#02016:00130000000000000000130000001300
#02019:0013000000000000
#02014:00000013000000000000000000000000
#0201b:23
#02010:41
#04216:14141414
#04212:1414
#0421a:00140014
#04214:0013000000130000
#04219:0000001300000013
#04412:2300141300001300
#04417:00000013
#0441b:2300000000130013
#04416:0000000013130013
#0441a:00140000
#0441f:21
#00518:00000000000000000000000000000012
#00515:0000000000000000000000000000000000000000000000000000000000000012
#00512:00000000000000000000000000000000000000000000000000000000000000000000000000000000000000000000000000000000000000000012000000000000
#00617:0000000000120000
#00614:0000001200000000
#0061a:0012000000000000
#0061c:0000000000000000000000000000000000000000000000000000000000000000000000000000000000000000000000000000000000000000000000000000000000000000000000000000000000000000000000120000000000000000000000000000000000000000000000000000000000000000000000000000000000000000
#08318:00000000000000000000000000000000000000000000000000000000000000000000000000000000000000000000000000000000000000000000000000000000000000000000000000000000000000000000000000000000000000000000000000000000000000000000000000000000000000000000000000000000000000000000000000000000000000000000000000000000000000000000000000000000000000000000000000000000000000000000000000000000000000000000000000000000000000000000000000000000000000000000000000000000000000000000000000000000000000000000000000000000000000000000000000000000000000000000000000000000000000000000000000000000000000000000000000000000000000000000000000000000000000000000000000000000000000000000000000000000000000000000000000000000000000000000000000000012000000000000000000000000000000000000000000000000000000000000000000000000000000000000000000000000000000000000000000000000000000000000000000000000000000000000000000000000000000000000000000000000000000000000000000000000000000000000000000000000000000000000000012000000000000000000000000000000000000000000000000000000000000000000000000000000000000000000000000000000000000000000000000000000000000000000000000000000000000000000000000000000000000000000000000000000000000000000000000000000000000000000000000000000000000000000000000000000000000000000000000000000000000000000000000000000
#0831a:0000000000120000
#08316:00000000000000000000001200001200
#08312:00001500150000000000000000000012
#08314:00000000000000000000000000120000
#0831c:00000000000000000000000000000000000000000000000000000000000000000000000000000000000000000000000000000000000000000000000000000000000000000000000000000000000000000000000000000000000000000000000000000000000000000000000000000000000000000000000000000000000000000000000000000000000000000000000000000000000000000000000000000000000000000000000000000000000000000000000000000000000000000000000000000000000000000000000000000000000000000000000000000000000000000000000000000000000000000000000000000000000000000000000000000000000000000000000000000000000000000000000000000000000000000000000000000000000000000000000000000000000000000000001200000000000000000000000000000000000000000000000000000000000000000000000000000000000000000000000000000000000000000000000000000000000000000000000000000000000000000000000000000000000000000000000000000000000000000000000000000000000000000000000000000000000000000000000000000000000000000000000000000000000000000000000000000000000000000000000000000000000000000000000000000000000000000000000000000000000000000000000000000000000000000000000000000000000000000000000000000000000000000000000000000000000000000000000000000000000000000000000000000000000000000000000000000000000000000000000000000000000000000000000000000000000000000000000000000000000000000000000000000000
#08319:0015150000000000
#08812:0013001300130013
#08816:00000013
#08818:00130000001300000000000000000000
#0881b:00000013000013000000000000130000
#08815:23130000
#08813:0014
#08819:0014
#09812:2316000000000000
#0981b:13
#09818:0026000000000000
#03912:1300130000000013
#03912:13
#03915:0013000000001600
#0391b:0000130000000013
#03918:0013000000000000
#00419:13
#00718:0000001200000000
#00714:0012
#0071a:0000000000120000
#00716:00000012
#0071c:0000000000000012
#02417:00000013000000000000130000001300
#02412:0013000000130000
#02416:23000013
#0241b:00130000000013000000000013000000
#03112:13000013
#03117:00000013000013000000000000000000
#0311b:13000013
#03115:0000000000130000
#03118:00000000000000000000001300000000
#04815:1600130016130013
#04812:0013001300001300
#04818:0013001300001300
#0481b:0000130000130013
#06018:16
#06012:0016000000000000
#0601b:0012
#06017:00001212
#06019:0000000000120000
#06013:00000012
#06015:0000000000000012
#03617:1300130000130000
#0361b:0013000013001300
#0361f:11
#02818:13
#0281b:0013000000000000
#02817:00130000
#02816:00001313
#02812:0000000000130000
#03716:1300130000130000
#03712:0013000013001300
#03414:00140013
#0341a:14
#03412:0014
#03419:00000013
#03518:00140000
#03512:1400000000141800
#0351a:1400000000001414
#03516:0018
#01812:1212001200001212
#01817:1212121200120012
#0181c:0000120000121200
#01912:0012120000000000
#01917:0012001200000000
#0191c:0000121200000000
#09112:0013001c
#0911b:0013000013000000
#09118:00000000000000000016000000000000
#09116:0013000000180000
#09114:00000000000000000000001a00000000
#09117:00130000
#09113:14
#09119:14
#0841a:0014001400000000
#0841b:0000000000000013
#08415:00000013
#08418:00000000000000000000000000130000
#08412:00140000000000000000130000001300
#08416:00000014140000001400000000000000
#08414:28
#08512:00000000001300001300000013000000
#08516:1400000000130000
#08517:00130000
#0851b:0013001300000000
#09315:00000000000000001600001616000016
#09312:00001300000000000013000000130000
#0931b:0000130000130013
#09316:00130000
#09317:0013000000000000
#09512:2616
#09514:00120012
#09518:2616
#0951a:00120012
#09612:1616
#09614:00120012
#09618:1616
#0961a:00120012
#09712:16
#09714:00120000
#09715:00000000000000000000000000000013
#09718:1600000000000013
#0971a:00120000
#0171c:0012001200000000
#01718:00120000
#01716:0012001200000000
#01712:00120000
#02316:0000130013130000
#02312:0013001300001300
#0231b:0013
#0221b:0000001300001300
#02217:00130000000000000000130000001300
#02214:0013000000000000
#02219:00000013000000000000000000000000
#02212:13
#02512:0013001313130000
#02517:0013000013000000
#0251b:00130000
#02516:00130013
#02616:00000013000000000000130000001300
#0261b:0013000000130000
#02617:13000013
#02612:00130000000013000000000013000000
#02717:0013
#0271b:0000000000130000
#02715:00000000000000000000001300000000
#0271a:00000013
#02714:00000000000000000000000000130000
#02719:00000013000000000000000000001300
#02713:00000000000000000000000000000013
#02712:0013000000000000
#02716:00130000
#0291b:13131300
#02917:00001300000000000000001300000000
#02912:00000013
#02916:0000000013000013
#03012:13130000
#03017:13
#0301b:00130000
#03018:00001313
#03015:0000000000130013
#03010:41
#03216:00131300
#03212:1313000000000000
#03217:13000013
#0321b:0000000000130000
#03312:00131300
#03315:0013000000000000
#0331b:1300000000131300
#04915:16131600
#04912:0013001300001300
#04918:0013001300000000
#0491b:0000130000130000
#04916:0000000000130000
#04917:00000013
#0511a:0014140000000000
#05112:00001400140000000013000000000000
#05116:00000000000014000000000000140000
#05114:00000000000000130000001300000013
#05119:0000000013001313
#0511b:0000000000130000
#05416:1414
#05412:0014001300140013
#0541a:14140014
#05415:0000001400000014
#05417:0013000000130000
#05512:1400001300000000
#05514:00130000
#0551b:0000001300000000
#05516:0014000000000000
#05519:00130000
#03812:0013
#0381b:00000013
#03817:0013
#03819:0000000000130000
#03814:0000000000000013
#03815:13
#03818:13
#04018:13
#0401b:0013000000130000
#04012:0000001300000013
#04312:1414140000130000
#0431a:1414140000000000
#04316:00000000000014000000000000140000
#04319:00000000000000130000001300000013
#04314:0000000013001313
#0431b:00000000000000000013000000000000
#04517:00001313
#0451b:0000001300130000
#04512:00140000
#0451a:00140000
#04510:41
#05212:23140000
#0521a:00140000
#0521b:23
#0531a:00140000
#05312:0000141300130000
#05316:00001313
#05615:1600001316000000
#05612:0013130000000013
#0561b:0000001300131300
#05618:0000000000000013
#05715:1600001316000000
#05712:0013130000130000
#0571b:0000001300001300
#05717:0000000000130000
#05716:00000013
#05812:0000161200161616
#05818:0000160000161616
#0581c:0000001200000000
#06612:13000012
#06617:13
#0661b:00130000
#0661c:0012
#06618:0012
#0661a:0000000000120000
#06616:00000012
#06614:0000000000000012
#06412:1612
#06418:0016000000001200
#06416:0012
#06414:0000000000120000
#0641c:00000012
#0641a:0000000000000012
#06410:41
#06715:00000013000016000000130000001600
#06718:00001300160000000000001300000000
#0671b:13000000000000000013000000000000
#06712:00130000000000001300000016000000
#06814:0013000000000000
#06816:24142414
#06812:2300001300001313
#0681b:0000131323000013
#06819:0000000000130000
#0691b:0000130023000013
#06912:2300001300001300
#06914:0014000000000000
#06916:2400141424001414
#06918:0000000000140000
#07016:0000141400001414
#0701a:2414001424000000
#07012:2400000024140014
#07216:2400140024181400
#07214:0000001400000000
#07218:0014000000000000
#07212:0000000000000018
#0721a:00240024
#07315:00161600000016160016160000001600
#0731b:00000000001300000000000000130000
#07313:0000000000000000000000000000001a
#07312:2323
#07316:00240024
#0751b:00000013
#07512:00000013
#07518:0000000000130000
#07517:12121200
#07515:00000000000000000000001300000000
#07612:00130000130013000000000000000000
#0761a:0013000000000000
#07616:23000013000000000000000000001300
#0761b:0000000000130013
#07617:00000013
#07610:41
#07716:0000130000141400
#0771b:00001313
#07712:0013001300000000
#07717:0000001300000000
#0781b:00130000130013000000000000000000
#07813:0013000000000000
#07817:13000013000000000000000000001300
#07812:0000000000130013
#07816:00000013
#08015:00130000000000000000000000000000
#08019:0013000000000000
#08013:00000013000000000000000000000000
#08016:0000001300000000
#08012:2300000000130013
#08017:0000000000130013
#0801b:23000013
#08212:13000013
#0821b:1300000000130013
#08218:00130000000000000000000000000000
#08214:0013000000000000
#0821a:00000013000000000000000000000000
#08217:0000001300000000
#08216:0000000000130013
#08117:00000013
#08112:00131300
#0811b:0013001300000000
#08116:0013001300000000
#07916:0000001300141400
#07912:00001313
#0791b:0013001300000000
#07917:00130000
#08612:0014001400000013
#08618:00000013
#08615:00000000000000000000000000130000
#0861b:0000000000130013
#08614:18
#08616:00000014140000001400000000000000
#0861a:00140000000000000000000000000000
#08610:41
#09015:00130000001300000000000000000000
#0901b:0013001300130013
#09012:00000013000013000000000000130000
#09018:13130000
#09013:0014
#09019:0014
#09017:00000013
#09212:00001300000000001316181a1c000000
#09216:00130000
#09217:0013000000000000
#0921b:00130000
#0651b:13131300
#06517:0013001300130000
#06512:1313
#06516:00130013
#08716:14130000
#0871b:00000000001300001300000013000000
#08717:0000000000130000
#08712:0013001300000000
#08913:14
#08919:14
#07116:0014001400140014
#07112:2400001424001400
#0711a:2400140024000014
#07418:26
#07412:26
#04656:6464
#0465a:0024000000240000
#04652:00540054
#04657:0000002400000024
#06152:53535300
#06156:0023002300230000
#0615b:4343
#06157:00430043
#0635b:53
#06352:0043
#06357:0000004300000000
#06356:53
#04752:34
#0475a:44
#05052:0000560000000036
#05056:0000002200000000
#05058:0000662200000046
#04452:33000063
#04457:00000063
#0445b:4300000000000023
#04456:0000000000000023
#02052:0000001300000000
#03152:63
#03157:00000023000000000000000000000000
#04256:44344434
#0415b:0000002300000000
#0625b:63
#06058:56460000
#06052:0026000000000000
#03657:00130000
#0365b:00000013
#03756:00130000
#03752:00000013
#03757:0000000000000013
#03454:00240000
#0345a:64
#03558:00240000
#03552:54000038
#03556:0048
#05355:12
#09452:1c
#09552:6666
#09554:00220022
#09558:5656
#0955a:00220022
#09652:6666
#09654:00220022
#09658:5656
#0965a:00220022
#09752:66
#09754:00220000
#09758:56
#0975a:00220000
#0115c:62
#01156:00000062
#01252:00000062
#01356:00000062
#01452:0000000000000063
#01457:0000000000000063
#0215b:00000043
#02352:00000033
#0225b:0000001300000000
#0245b:0000001300000000
#02452:0000000000530000
#02456:00000023
#02557:0053000000000000
#0255b:00230043
#0265b:0000000000630000
#02657:00000023
#02652:0000001300000000
#0295b:0053
#02957:00000000000000000000002300000000
#03257:63
#03256:0053
#0335b:63
#03352:0053
#04552:33
#04557:33
#0485b:00430000
#04852:00000033
#0495b:00430000
#04952:00000053
#04957:00000053
#05252:33
#0525b:43
#05456:5454
#05452:0024000000240000
#0545a:00640064
#05455:0000002400000024
#05552:34
#0555a:44
#03955:0063004300000000
#03952:00230000
#0395b:00230000
#03958:0053003300000000
#03852:0053
#0385b:00000053
#03855:23
#03858:23
#05652:00330000
#0565b:00000043
#05752:00330000
#0575b:00000063
#05756:00000063
#05852:0000662200000036
#05858:0000560000000046
#0585c:0000002200000000
#06652:53
#06452:66360000
#06458:0026000000000000
#06856:4434
#06956:4434
#0705a:44
#07052:0034
#07256:14141414
#07458:46
#07452:36
#07652:0000001300000000
#07657:0000001300000000
#07756:0000000000443400
#0785b:0000001300000000
#07856:0000001300000000
#08056:0000001300000000
#0805b:0000001300000000
#08052:0000000000530000
#08152:00000033
#0815b:0063000000430000
#07956:0000000000344400
#08257:0000001300000000
#0825b:0000000000630000
#08252:0000001300000000
#08452:0000001400000000
#0845a:0000001400000000
#08556:0000000000330000
#0855b:00000033
#08852:0000003300000000
#0885b:0000004300000000
#0895b:00000043
#08952:00000033
#0905b:0000004300000000
#09052:0000003300000000
#09152:0053004c
#09252:0000003c
#0925b:00630000
#09356:00530000
#0655b:63636300
#06557:0023002300230000
#06552:3333
#06556:00330033
#08652:0000001400000000
#0865a:0000001400000000
#06758:00460000
#06752:00000036
#02756:00530000
#0715a:44
#07152:0034
#08757:0000000000430000
#08752:00000043
#0083a0:0000000012000022
#0103c0:1222000000000000
#010370:0000122200000000
#0103c0:0000000012220000
#010370:0000000000001222
#0113c0:12
#011370:00220000
#011360:00000012
#012320:22
#012320:00000012
#013360:22
#013360:00000012
#014320:22
#014320:0000000000000013
#015360:00000023
#014371:0000000000000013
#0153b1:00000023
#017361:0000000000120000
#017321:00000022
#017380:0000000000120000
#0173c0:00000022
#019320:0000000000130000
#019350:00000023
#0193b1:0000000000130000
#019381:00000023
#020371:0000132300000000
#0203b1:0000000000130023
#020371:00000000000000000000005333530000
#021361:0013002300000000
#021321:00000053335300000000000000000000
#021321:0000000000130000
#021361:00000023
#022361:0000132300000000
#022321:0000000000130023
#022361:00000000000000000000005333530000
#023371:0013002300000000
#0233b1:00000053335300000000000000000000
#0233b1:0000000000130000
#023371:00000023
#024321:00130000
#024361:0000002300000000
#024321:0000000000130023
#024361:00000053
#025371:0013002300000000
#0253b1:00530000
#025371:0000000000130000
#0253b1:00000023
#0263b1:00130000
#026371:0000002300000000
#0263b1:0000000000130023
#026371:00000053
#027361:00130000
#027321:0000005323000000
#028321:13230000
#028351:0033000000000000
#0283b1:00001323
#028381:0000000000330000
#029351:13230000
#029321:0033000000000000
#0293b1:0000000013000023
#029371:00000000000000000000005300000000
#031321:1300002300000000
#031371:00000053000000000000000000000000
#032371:13
#0323b1:00532300
#032360:0013
#032320:00000053
#033320:23
#0333b1:13
#033371:00532300
#033320:0013
#033360:00000053
#034360:23
#0343a1:1424
#034341:00540000
#035321:1424
#035381:00540000
#036321:1323000000000000
#036321:0000132300000000
#036361:0013
#036321:0000000000230000
#036321:00000013
#036361:0000000000000023
#0373b1:1323000000000000
#0373b1:0000132300000000
#037371:0013
#0373b1:0000000000230000
#0373b1:00000013
#037371:0000000000000023
#038351:13
#038321:00230000
#038380:13
#0383b0:00230000
#038320:0013
#038360:00000023
#0383b1:00000013
#039371:23
#039351:0013002300000000
#039321:00530000
#039380:0013002300000000
#0393b0:00530000
#040350:13230000
#040320:0033000000000000
#040381:00132300
#0403b1:0000003300000000
#040350:00001323
#040320:0000000000330000
#040381:00000013
#0403b1:0000000000000033
#041381:23
#041350:13230000
#041320:0033000000000000
#0413b0:0000001300000000
#041360:00000023
#044370:0000001300000000
#0443b0:0023
#044320:00000013
#044360:0000000000000053
#045320:23
#044371:00000013
#0443b1:0000000000000053
#045371:23
#045361:0000001300330000
#045321:00003323
#046361:14240000
#0463a1:0054000000000000
#046320:00142400
#046370:0000005400000000
#046361:00001424
#0463a1:0000000000540000
#046320:00000014
#046370:0000000000000054
#047320:24
#047380:0000000000130000
#0473b0:00000023
#047351:0000000000130000
#047321:00000023
#049321:00000013
#050361:23
#049370:00000013
#0503b0:23
#050320:00162600
#050360:0000005200000000
#050381:0000165226000000
#052351:000000000000000000000000000000000000000000000000000000000000000000000000000000000000000000000000000000000000000000000000000000000000000000000000000000000000000000000000000000000000000000000000000000000000000000000000000000000000000000000000000000000000000000000000000000000000000000000000000000000000000000000000000000000000000000000000000000000000000000000000120000000000005200000000000000000000000000000000000000000000000000000000000000000000000000000000000000000052000000000000220000000000000000000000000000000000000000000000000000000000000000000000000000000000000000000000000000000000000000000000000000000000000000000000000000000000000000000000000000000000000000000000000000000000000000000000000000000000000000000000000000000000000000000000000000000000000000000000000000000000000000000000000000000000000000000000000000000000000000000000000000000000000000000000000000000000000000000000000000000000000000000000000000000000000000000000000000000000000000000000
#052341:000000000000000000000000000000000000000000000000000000000000000000000000000000000000000000000000000000000000000000000000000000000000000000000000000000000000000000000000000000000000000000000000000000000000000000000000000000000000000000000000000000000000000000000000000000000000000000000000000000000000000000000000000000000000000000000000000000000000000000000000000000000000000000000000000000000000000000000000000000000000000000000000000000000000000000000000000000000000000000000000000000000000000000000000000000000000000000000000000000000000000000000000000000000000000000000000000000000000000000000000000000000000000000000000000000000000000000000000000000000000000000000000000000000000000000000000000000000000000000000000000000000000000000000000000000540000000000000000000000000054000000000000000000000000000000000000000000000000000000000000000000000000000000000000000000000000000000000000000000000000005400000000000000000000000000540000000000000000000000000000000000000000000000000000000000000000000000000000000000000000000000000000000000000000000000000000000000000000000000000000000000000000000000000000000000000000000000000000000000000000000000000000000000000000000000000000000000000000000000000000000000000000000000000000000000000000000000000000000000000000000000000000000000000000000000000000000000000000000000000000000000000000000000000000000000000000000000000000000000000000000000000000000000000000000000000000000000000000000000000000000000000000000000000000000000000000000000000000000000000000000000000000000000000000000000000000000000000000000000000000000000000000000000000000000000000000000000000000000000000000000000000000000000000000000000000000000000000000000000000000000000000000000000000000000000000000000000000000000000000000000000000000000000000000000000000000000000000000000000000000000000000000000000000000000000000000000000000000000000000000000000000000000000000000000000000000000000000000000000000000
#052331:000000000000000000000000000000000000000000000000000000000000000000000000000000000000000000000000000000000000000000000000000000000000000000000000000000000000000000000000000000000000000000000000000000000000000000000000000000000000000000000000000000000000000000000000000000000000000000000000000000000000000000000000000000000000000000000000000000000000000000000000000000000000000000000000000000560000000000005600000000000000000000000000000056000000000000560000000000000000000000000000000000000000000000000000000000000000000000000000000000000000000000000000000000000000000000000000000000000000000000000000000000000000000000000000000000000000000000000000000000000000000000000000000000000000000000000000000000000000000000000000000000000000000000000000000000000000000000000000000000000000000000000000000000000000000000000000000000000000000000000000000000000000000000000000000000000000000000000000000000000000000000000000000000000000000000000000000000000000000000000000
#052321:00000000000000000000000000000000000000000000000000000058585800000000000000000000000000000000000000000000000000000000000000000000
#052390:000000000000000000000000000000000000000000000000000000000000000000000000000000000000000000000000000000000000000000000000000000000000000000000000000000000000000000000000000000000000000000000000000000000000000000000000000000000000000000000000000000000000000000000000000000000000000000000000000000000000000000000000000000000000000000000000000000000000000000000000000000000000000000000000000000000000000000000000000000000000000000000000000000000000000000000000000000000000000000000000120000000000005200000000000000000000000000000000000000000000000000000000000000000000000000000000000000000052000000000000220000000000000000000000000000000000000000000000000000000000000000000000000000000000000000000000000000000000000000000000000000000000000000000000000000000000000000000000000000000000000000000000000000000000000000000000000000000000000000000000000000000000000000000000000000000000000000000000000000000000000000000000000000000000000000000000000000000000000000000000
#052380:000000000000000000000000000000000000000000000000000000000000000000000000000000000000000000000000000000000000000000000000000000000000000000000000000000000000000000000000000000000000000000000000000000000000000000000000000000000000000000000000000000000000000000000000000000000000000000000000000000000000000000000000000000000000000000000000000000000000000000000000000000000000000000000000000000000000000000000000000000000000000000000000000000000000000000000000000000000000000000000000000000000000000000000000000000000000000000000000000000000000000000000000000000000000000000000000000000000000000000000000000000000000000000000000000000000000000000000000000000000000000000000000000000000000000000000000000000000000000000000000000000000000000000000000000000000000000000000000000000000000000000000000000000000000000000000000000000000000000000000000000000000000000000000000000000000000000000000000000000000000000000000000000000000000000000000000000000000000000000000000000000000000000000000000000000540000000000000000000000000054000000000000000000000000000000000000000000000000000000000000000000000000000000000000000000000000000000000000000000000000005400000000000000000000000000540000000000000000000000000000000000000000000000000000000000000000000000000000000000000000000000000000000000000000000000000000000000000000000000000000000000000000000000000000000000000000000000000000000000000000000000000000000000000000000000000000000000000000000000000000000000000000000000000000000000000000000000000000000000000000000000000000000000000000000000000000000000000000000000000000000000000000000000000000000000000000000000000000000000000000000000000000000000000000000000000000000000000000000000000000000000000000000000000000000000000000000000000000000000000000000000000000000000000000000000000000000000000000000000000000000000000000000000000000000000000000000000000000000000000000000000000000000000000000000000000000000000000000000000000000
#052370:000000000000000000000000000000000000000000000000000000000000000000000000000000000000000000000000000000000000000000000000000000000000000000000000000000000000000000000000000000000000000000000000000000000000000000000000000000000000000000000000000000000000000000000000000000000000000000000000000000000000000000000000000000000000000000000000000000000000000000000000000000000000000000000000000000000000000000000000000000000000000000000000000000000000000000000000000000000000000000000000000000000000000000000000000000560000000000005600000000000000000000000000000056000000000000560000000000000000000000000000000000000000000000000000000000000000000000000000000000000000000000000000000000000000000000000000000000000000000000000000000000000000000000000000000000000000000000000000000000000000000000000000000000000000000000000000000000000000000000000000000000000000000000000000000000000000000000000000000000000000000000000000000000000000000000000000000000000000000000000000
#052360:00000000000000000000000000000000000000000000000000000000000000000000005858580000000000000000000000000000000000000000000000000000
#052351:000000000000000000000000000000000000000000000000000000000000000000000000000000000000000000000000000000000000000000000000000000000000000000000000000000000000000000000000000000000000000000000000000000000000000000000000000000000000000000000000000000000000000000000000000000000000000000000000000000000000000000000000000000000000000000000000000000000000000000000000000000000000000000000000000000000000000000000000000000000000000000000000000000000000000000000000000000000000000000000000000000000000000000000000000000000000000000000000000000000000000000000000000000000000000000000000000000000000000000000000120000000000005200000000000000000000000000000000000000000000000000000000000000000000000000000000000000000052000000000000220000000000000000000000000000000000000000000000000000000000000000000000000000000000000000000000000000000000000000000000000000000000000000000000000000000000000000000000000000000000000000000000000000000000000000000000000000000000000000000000
#052341:000000000000000000000000000000000000000000000000000000000000000000000000000000000000000000000000000000000000000000000000000000000000000000000000000000000000000000000000000000000000000000000000000000000000000000000000000000000000000000000000000000000000000000000000000000000000000000000000000000000000000000000000000000000000000000000000000000000000000000000000000000000000000000000000000000000000000000000000000000000000000000000000000000000000000000000000000000000000000000000000000000000000000000000000000000000000000000000000000000000000000000000000000000000000000000000000000000000000000000000000000000000000000000000000000000000000000000000000000000000000000000000000000000000000000000000000000000000000000000000000000000000000000000000000000000000000000000000000000000000000000000000000000000000000000000000000000000000000000000000000000000000000000000000000000000000000000000000000000000000000000000000000000000000000000000000000000000000000000000000000000000000000000000000000000000000000000000000000000000000000000000000000000000000000000000000000000000000000000000000000000000000000000000000000000000000000000000000000000000000000000000000000000000000000000000000000000000000000000000000000000000000000000000000000000000540000000000000000000000000054000000000000000000000000000000000000000000000000000000000000000000000000000000000000000000000000000000000000000000000000005400000000000000000000000000540000000000000000000000000000000000000000000000000000000000000000000000000000000000000000000000000000000000000000000000000000000000000000000000000000000000000000000000000000000000000000000000000000000000000000000000000000000000000000000000000000000000000000000000000000000000000000000000000000000000000000000000000000000000000000000000000000000000000000000000000000000000000000000000000000000000000000000000000000000000000000000000000000000000000000000000000000000000000000000000000000000000000000000000000000
#052331:000000000000000000000000000000000000000000000000000000000000000000000000000000000000000000000000000000000000000000000000000000000000000000000000000000000000000000000000000000000000000000000000000000000000000000000000000000000000000000000000000000000000000000000000000000000000000000000000000000000000000000000000000000000000000000000000000000000000000000000000000000000000000000000000000000000000000000000000000000000000000000000000000000000000000000000000000000000000000000000000000000000000000000000000000000000000000000000000000000000000000000000000000000000000000000000000000000000000000000000000000000000000000000000000000000560000000000005600000000000000000000000000000056000000000000560000000000000000000000000000000000000000000000000000000000000000000000000000000000000000000000000000000000000000000000000000000000000000000000000000000000000000000000000000000000000000000000000000000000000000000000000000000000000000000000000000000000000000000000000000
#052321:00000000000000000000000000000000000000000000000000000000000000000000000000000000000000585858000000000000000000000000000000000000
#052390:000000000000000000000000000000000000000000000000000000000000000000000000000000000000000000000000000000000000000000000000000000000000000000000000000000000000000000000000000000000000000000000000000000000000000000000000000000000000000000000000000000000000000000000000000000000000000000000000000000000000000000000000000000000000000000000000000000000000000000000000000000000000000000000000000000000000000000000000000000000000000000000000000000000000000000000000000000000000000000000000000000000000000000000000000000000000000000000000000000000000000000000000000000000000000000000000000000000000000000000000000000000000000000000000000000000000000000000000000000000000000000000000000000000000000000000000000000000000000000000000120000000000005200000000000000000000000000000000000000000000000000000000000000000000000000000000000000000052000000000000220000000000000000000000000000000000000000000000000000000000000000000000000000000000000000000000000000000000000000000000
#052380:000000000000000000000000000000000000000000000000000000000000000000000000000000000000000000000000000000000000000000000000000000000000000000000000000000000000000000000000000000000000000000000000000000000000000000000000000000000000000000000000000000000000000000000000000000000000000000000000000000000000000000000000000000000000000000000000000000000000000000000000000000000000000000000000000000000000000000000000000000000000000000000000000000000000000000000000000000000000000000000000000000000000000000000000000000000000000000000000000000000000000000000000000000000000000000000000000000000000000000000000000000000000000000000000000000000000000000000000000000000000000000000000000000000000000000000000000000000000000000000000000000000000000000000000000000000000000000000000000000000000000000000000000000000000000000000000000000000000000000000000000000000000000000000000000000000000000000000000000000000000000000000000000000000000000000000000000000000000000000000000000000000000000000000000000000000000000000000000000000000000000000000000000000000000000000000000000000000000000000000000000000000000000000000000000000000000000000000000000000000000000000000000000000000000000000000000000000000000000000000000000000000000000000000000000000000000000000000000000000000000000000000000000000000000000000000000000000000000000000000000000000000000000000000000000000000000000000000000000000000000000000000000000000000000000000000000000000000000000000000000000000000000000000000000000000540000000000000000000000000054000000000000000000000000000000000000000000000000000000000000000000000000000000000000000000000000000000000000000000000000005400000000000000000000000000540000000000000000000000000000000000000000000000000000000000000000000000000000000000000000000000000000000000000000000000000000000000000000000000000000000000000000000000000000000000000000000000000000000000000000000000000000000000000000000000000000000000000000000000000000
#052370:000000000000000000000000000000000000000000000000000000000000000000000000000000000000000000000000000000000000000000000000000000000000000000000000000000000000000000000000000000000000000000000000000000000000000000000000000000000000000000000000000000000000000000000000000000000000000000000000000000000000000000000000000000000000000000000000000000000000000000000000000000000000000000000000000000000000000000000000000000000000000000000000000000000000000000000000000000000000000000000000000000000000000000000000000000000000000000000000000000000000000000000000000000000000000000000000000000000000000000000000000000000000000000000000000000000000000000000000000000000000000000000000000000000000000000000000000000000000000000000000000000000000000000000000000000560000000000005600000000000000000000000000000056000000000000560000000000000000000000000000000000000000000000000000000000000000000000000000000000000000000000000000000000000000000000000000000000000000000000000000
#052360:00000000000000000000000000000000000000000000000000000000000000000000000000000000000000000000000000000058585800000000000000000000
#052351:000000000000000000000000000000000000000000000000000000000000000000000000000000000000000000000000000000000000000000000000000000000000000000000000000000000000000000000000000000000000000000000000000000000000000000000000000000000000000000000000000000000000000000000000000000000000000000000000000000000000000000000000000000000000000000000000000000000000000000000000000000000000000000000000000000000000000000000000000000000000000000000000000000000000000000000000000000000000000000000000000000000000000000000000000000000000000000000000000000000000000000000000000000000000000000000000000000000000000000000000000000000000000000000000000000000000000000000000000000000000000000000000000000000000000000000000000000000000000000000000000000000000000000000000000000000000000000000000000000000000000000000000000000000000000000000000000000000000000000000000120000000000005200000000000000000000000000000000000000000000000000000000000000000000000000000000000000000052000000000000
#052341:000000000000000000000000000000000000000000000000000000000000000000000000000000000000000000000000000000000000000000000000000000000000000000000000000000000000000000000000000000000000000000000000000000000000000000000000000000000000000000000000000000000000000000000000000000000000000000000000000000000000000000000000000000000000000000000000000000000000000000000000000000000000000000000000000000000000000000000000000000000000000000000000000000000000000000000000000000000000000000000000000000000000000000000000000000000000000000000000000000000000000000000000000000000000000000000000000000000000000000000000000000000000000000000000000000000000000000000000000000000000000000000000000000000000000000000000000000000000000000000000000000000000000000000000000000000000000000000000000000000000000000000000000000000000000000000000000000000000000000000000000000000000000000000000000000000000000000000000000000000000000000000000000000000000000000000000000000000000000000000000000000000000000000000000000000000000000000000000000000000000000000000000000000000000000000000000000000000000000000000000000000000000000000000000000000000000000000000000000000000000000000000000000000000000000000000000000000000000000000000000000000000000000000000000000000000000000000000000000000000000000000000000000000000000000000000000000000000000000000000000000000000000000000000000000000000000000000000000000000000000000000000000000000000000000000000000000000000000000000000000000000000000000000000000000000000000000000000000000000000000000000000000000000000000000000000000000000000000000000000000000000000000000000000000000000000000000000000000000000000000000000000000000000000000000000000000000000000000000000000000000000000000000000000000000000540000000000000000000000000054000000000000000000000000000000000000000000000000000000000000000000000000000000000000000000000000000000000000000000000000005400000000000000000000000000540000000000000000000000000000
#052331:000000000000000000000000000000000000000000000000000000000000000000000000000000000000000000000000000000000000000000000000000000000000000000000000000000000000000000000000000000000000000000000000000000000000000000000000000000000000000000000000000000000000000000000000000000000000000000000000000000000000000000000000000000000000000000000000000000000000000000000000000000000000000000000000000000000000000000000000000000000000000000000000000000000000000000000000000000000000000000000000000000000000000000000000000000000000000000000000000000000000000000000000000000000000000000000000000000000000000000000000000000000000000000000000000000000000000000000000000000000000000000000000000000000000000000000000000000000000000000000000000000000000000000000000000000000000000000000000000000000000000000000000000000000000000000000000000000000000000000000000000000000000000000000000000000560000000000005600000000000000000000000000000056000000000000560000000000000000000000000000
#052321:00000000000000000000000000000000000000000000000000000000000000000000000000000000000000000000000000000000000000000000005858580000
#053351:22
#053371:0000001300330000
#0533b1:00003323
#054361:14240000
#054321:0054000000000000
#0543a0:00142400
#054350:0000005400000000
#054361:00001424
#054321:0000000000540000
#0543a0:00000014
#054350:0000000000000054
#0553a0:24
#0553b0:0000000000130000
#055380:00000023
#055321:0000000000130000
#055351:00000023
#056371:0013000000000000
#0563b1:00230000
#056361:0000000000130000
#056321:00000023
#057371:0013000000000000
#0573b1:00230000
#0573b1:00000013
#058371:23
#057360:00000013
#058320:23
#058320:0000165226000000
#058381:00162600
#0583c1:0000005200000000
#060381:16260000
#060321:0056000000000000
#061321:13535323
#061361:0053005300530000
#0623b1:13
#062361:00230000
#0633b1:13
#063371:0000532300000000
#063360:13
#063320:00532300
#064320:16260000
#064380:0056000000000000
#0653b0:13535323
#065370:0053005300530000
#066320:13
#066370:00230000
#070360:0014000000000000
#070320:00240000
#070360:0000000000140000
#0703a0:00000024
#071320:0014000000000000
#071360:00240000
#0713a0:0000000000140000
#071360:00000024
#072320:1424000000000000
#0723a0:0000142400000000
#072320:0000000014240000
#0723a0:0000000000001424
#073320:13230000000000000000000000000000
#0733b0:00000013230000000000000000000000
#073320:00000000000000001323000000000000
#0733b0:00000000000000000000001323000000
#0763b0:00130000
#076370:0000002300000000
#076360:0000000000130000
#076320:00000023
#077370:0013000000000000
#0773b0:00230000
#077360:0013
#077320:0000000000230000
#078320:00130000
#078360:0000002300000000
#078370:0000000000130000
#0783b0:00000023
#079360:0013000000000000
#079320:00230000
#079370:0013
#0793b0:0000000000230000
#080370:00130000
#0803b0:0000002300000000
#080320:0000000000130000
#080360:00000023
#0813b0:0013000000000000
#081370:00230000
#081370:0013
#0813b0:0000000000230000
#081361:0000000000130000
#081321:00000023
#082361:00130000
#082321:0000002300000000
#0823b1:0000000000130000
#082371:00000023
#084321:00000000001424000000000000000000
#084381:0000000000132300
#085361:0013000000000000
#085321:00230000
#085371:0013
#0853b1:0000000000332300
#0863a1:00000000001424000000000000000000
#086351:0000000000132300
#087371:0013000000000000
#0873b1:00230000
#087361:0013
#087321:0000000000332300
#088371:0000000000130000
#0883b1:00000023
#089381:0013002300000000
#0893b1:00330000
#089350:0013002300000000
#089320:00330000
#0893b0:00000000000000001300005323000000
#089380:00000000000000000053330000000000
#089321:00000000000000001300005323000000
#089351:00000000000000000053330000000000
#090361:0000000000130000
#090321:00000023
#091321:00130000
#091361:0023
#0923b1:00130000
#092371:0023
#093361:00130000
#093321:0023
#0943b1:0013
#094381:0000000000230000
#094320:0013
#094350:0000000000230000
#095320:1656
#095340:00520052
#096320:5656
#096340:00520052
#097320:5626
#097340:00520000
#095381:1656
#0953a1:00520052
#096381:5656
#0963a1:00520052
#097381:5626
#0973a1:00520000
