This file was generated by Ched 2.7.0.0.
#TITLE ""
#ARTIST ""
#DESIGNER ""
#DIFFICULTY 0
#PLAYLEVEL
#SONGID ""
#WAVE ""
#WAVEOFFSET 0
#JACKET ""
#REQUEST "ticks_per_beat 480"
#00002: 4
#BPM01: 200
#00008: 01
#TIL00: ""
#VOLUME: ""
#HISPEED 00
#MEASUREHS 00
#0281a:14
#02814:0014
#0291a:14
#02914:0014
#03012:0014
#03018:14
#03010:41
#0361a:1414
#03614:00140014
#0361f:11
#03718:1414
#03712:00140014
#0381a:14
#03818:0014
#03812:00000014
#03814:00140000
#03918:14
#03914:00140000
#0391a:0014
#04012:1414
#04018:00140014
#04114:1414
#0411a:00140014
#04212:14
#04218:00140000
#04214:0014
#0421a:00000014
#04316:14
#04414:2400140000140000
#0441a:24141414
#0441f:21
#04518:1400140000140000
#04512:14141414
#04510:41
#0461a:14
#04616:00140014
#04612:0014
#0471a:14
#0481a:14
#04814:00140000
#04818:0014
#04812:00000014
#0491a:14
#04914:00140000
#04918:0014
#04912:00000014
#05412:14
#05416:00140014
#0541a:0014
#05512:14
#05612:14
#05618:00140000
#05614:0014
#0561a:00000014
#05712:14
#05718:00140000
#05714:0014
#0571a:00000014
#0601a:24140000
#06012:00001414
#06118:14140000
#06114:00001414
#0621a:14140000
#06212:00001414
#06412:14140000
#0641a:00001414
#06410:41
#06514:14140000
#06518:00001414
#06612:14140000
#0661a:00001414
#06814:24140000
#0681a:24140000
#06818:00002414
#06812:00002414
#06914:24140000
#0691a:24140000
#06918:00002414
#06912:00002414
#07014:24140000
#0701a:24140000
#07018:00002414
#07012:00002414
#07214:1414
#07218:00140014
#0721a:2424
#07212:00240024
#07314:1414
#07318:00140014
#0731a:2424
#07312:00240024
#07118:00140000
#07112:00140000
#07114:14
#0711a:14
#06712:14
#06714:00140000
#0631a:14
#06318:00140000
#05812:14
#05816:0000340034343414
#0501a:14
#05016:0000340034343400
#03112:0014
#03118:14
#0321a:14
#03214:0014
#03318:14
#03312:0014
#03414:0014
#0341a:14
#03512:0014
#03518:14
#00818:1414
#00914:1414
#01018:14
#01014:0014
#0111a:14
#01112:0014
#0121a:1414
#01312:1414
#01618:14
#01612:0014
#0171a:14
#01714:0014
#01818:14
#01812:0014
#0191a:14
#01914:0014
#0201a:1414
#02014:00140014
#02010:41
#02118:1414
#02112:00140000
#02212:1414
#02218:00140014
#02314:1414
#0231a:00140000
#0241a:14
#02412:00140000
#02418:0014
#02414:00000014
#0251a:14
#02512:00140000
#02518:0014
#02612:14
#0261a:00140000
#02614:0014
#02618:00000014
#02712:14
#0271a:00140000
#02714:0014
#0801a:14
#08014:00140000
#08018:0014
#08012:00000014
#08118:14
#08114:00140000
#0811a:0014
#08212:14
#08218:00140000
#08214:0014
#0821a:00000014
#08314:14
#08318:00140000
#08312:0014
#07618:14
#07614:00140000
#0761a:0014
#07612:00000014
#07610:41
#07718:14
#07714:00140000
#0771a:0014
#07814:14
#07818:00140000
#07812:0014
#0781a:00000014
#07914:14
#07918:00140000
#07912:0014
#0841a:1414
#08414:00140014
#0851a:14
#08516:00140000
#08512:0014
#08612:1414
#08618:00140014
#08610:41
#08712:14
#08716:00140000
#0871a:0014
#0881a:14
#08816:00140014
#08812:0014
#0891a:14
#08916:00140000
#08912:0014
#09012:14
#09016:00140014
#0901a:0014
#09419:0014
#09413:0014
#05218:1400140000140000
#05212:14141414
#05314:1400140000140000
#0531a:14141414
#00419:13
#00414:13
#00614:13
#00619:0000000000130000
#0741a:24
#07414:24
#09519:24
#09513:24
#09818:26
#09812:0026000000000000
#07454:14
#0745a:14
#07152:00240000
#07158:00240000
#0715a:64
#07154:64
#0635a:64
#06358:00240000
#06752:54
#06754:00240000
#0505a:64
#05852:54
#05856:0000000000000024
#0143a0:1400340034343434
#0153a0:0024
#0503a0:14
#050360:0000340034343424
#058320:14
#058360:0000340034343434
#059330:0000002a
#0633a0:1424
#063380:00540000
#067320:1424
#067340:00540000
#071340:1424
#071320:00540000
#0713a1:1424
#071381:00540000
#091321:14
#091341:00000024
#0923a1:14
#092381:00000024
#093321:14
#093341:00000024
#0933a0:14
#093380:00000024
#095390:14
#097380:0026
#095331:14
#097321:0026
