This file was generated by Ched 2.6.2.0.
#TITLE ""
#ARTIST ""
#DESIGNER ""
#DIFFICULTY 0
#PLAYLEVEL
#SONGID ""
#WAVE ""
#WAVEOFFSET 0
#JACKET ""
#REQUEST "ticks_per_beat 480"
#00002: 4
#BPM01: 170
#00008: 01
#TIL00: ""
#HISPEED 00
#MEASUREHS 00
#00119:14
#00918:14
#00910:41
#01014:14
#00319:14
#00413:14
#0171a:14
#01814:14
#0191a:14
#02014:14
#04312:0016
#04318:26
#04310:41
#04418:16
#04412:0016
#04713:1414
#04819:1414
#0711a:14
#07214:14
#07318:14
#11412:16
#12613:0000000000140000
#12619:0000000000140000
#0871f:11
#08719:14
#00213:14
#00519:14
#00613:14
#01118:14
#01214:14
#01319:14
#01413:14
#02512:14
#02618:14
#02712:14
#02818:14
#02810:41
#03612:14
#03518:14
#03414:14
#0331a:14
#04012:14
#03918:14
#03814:14
#0371a:14
#04119:14
#04213:14
#04913:14
#04919:0014
#05013:14
#05019:0014
#05118:0016
#05112:26
#05110:41
#05212:16
#05218:0016
#05519:1414
#05613:1414
#05719:14
#05713:0014
#05819:14
#05813:0014
#05919:14
#06013:14
#06119:14
#06213:14
#06713:14
#06819:14
#06913:14
#06910:41
#07019:14
#07412:14
#0751a:14
#07614:14
#07718:14
#07812:14
#07919:14
#07913:0014
#08019:14
#08113:14
#08119:0014
#08213:14
#08319:14
#08313:0014
#08419:14
#08813:14
#08919:14
#09013:14
#09119:14
#09213:14
#09618:16
#09612:0016
#09913:1414
#10019:1414
#10113:14
#10119:0014
#10213:14
#10219:0014
#09512:0016
#0951f:21
#09518:26
#10412:16
#10418:0016
#10719:1414
#10813:1414
#10919:14
#10913:0014
#11019:14
#11013:0014
#10318:0016
#10312:26
#11118:16
#11212:16
#11318:16
#11519:14
#11719:14
#11813:14
#11613:14
#11919:14
#12013:14
#09710:41
#007390:14
#008390:24
#015390:14
#016390:24
#021390:14
#022390:24
#023330:14
#024330:24
#029330:14
#030330:24
#031390:14
#032390:24
#045380:16
#046380:26
#053320:16
#054320:26
#063390:14
#065390:24
#085330:1400003400003400
#086330:0034000024000000
#093390:14
#094390:0024
#097380:16
#098380:26
#105320:16
#106320:26
#121390:14
#124390:0024
