This file was generated by Ched 2.6.2.0.
#TITLE ""
#ARTIST ""
#DESIGNER ""
#DIFFICULTY 0
#PLAYLEVEL
#SONGID ""
#WAVE ""
#WAVEOFFSET 0
#JACKET ""
#REQUEST "ticks_per_beat 480"
#00002: 4
#BPM01: 170
#00008: 01
#TIL00: ""
#HISPEED 00
#MEASUREHS 00
#00916:13
#00918:0000001300001300
#0091b:2313
#00915:0013
#00912:00000013
#00910:41
#01418:00130013
#0141a:0000000000000013
#01414:0000000000000013
#01412:00130013
#01415:13
#0141b:13
#0151b:13131313
#01515:13131313
#01513:0013000000130000
#01517:0000001300000013
#01618:13131300
#0161a:0013000000130000
#01616:0000001300000000
#01612:00131313
#01716:00130000
#01714:0013
#01712:26000013
#01717:0000000000001313
#0171b:00130000
#01719:0013
#01819:0013000000000000
#01814:13
#0191b:00130000
#01912:0013
#01919:00000013
#01914:00000013
#01915:00130000
#01918:0000001313000000
#0201b:13
#02112:13
#02116:00130000
#0211b:0013
#02117:00000013
#02212:1300000000000014
#02216:00130000
#0221b:0013
#02217:00000013
#0241b:1313
#02418:0013001300001300
#02415:0000130000130013
#02412:1313
#03412:00000013
#0341b:0000130013000013
#03415:0000000000000013
#03418:13000013
#03512:1313
#03518:1313
#03612:13
#03618:1313
#03615:00000013
#03812:00000013
#03815:1300000013000013
#03818:00000013
#0381b:13
#0431b:00000013000000000000000000000000
#04316:00000013
#04317:2323
#04312:2300002323000000
#04310:41
#04517:0000131300000000
#04512:0000001300000000
#04516:00000000000000000000001300000000
#0451b:00000000000000000000001300000000
#04618:0000130000131300
#04615:0000001313000000
#04612:00130013
#0461b:0013
#04712:13001313
#04714:0000001300000000
#04717:1313
#04719:0000001300000000
#04716:0000000000000013
#04718:00000013
#04814:13
#0481b:00130000
#04816:0000001300000000
#04812:00000013
#0481a:13
#04817:00000013
#12613:0000000000130000
#12619:1313130000000000
#12614:00130013000000000000000000000000
#1261a:0000000000130000
#12519:1313131313131313
#12514:00130013001300130013001300130013
#04912:00130013
#04915:13
#0491b:00130013
#04918:0013
#05912:00130013
#05918:00130000
#06019:00000013
#06014:00000013
#0601b:00130000
#06015:00130000
#0611b:13
#06112:13
#06115:0000001300000000
#06118:0000001300000000
#06612:0000000000000013
#06817:13
#06816:0013
#06812:13
#0681b:0013
#06919:2300131300000000
#0691b:0000000023001313
#06914:2313130000000000
#06912:0000000023131300
#06910:41
#07012:13131600
#07018:00130000001300000000160000000000
#0701b:00000013000000130000000000000000
#07015:0013001300000000
#0051b:1300001300000000
#00518:00001313
#00615:13
#00612:00131300
#00614:00000013
#00613:0000000000000014
#00619:0000000000001314
#00712:16
#00718:16
#00816:12
#00818:12
#07512:2424000000000013
#0751b:0000000000000013
#0751a:2424000000000000
#0761b:1300000013130000
#07618:0013000000001300
#07615:0000130000000013
#07612:1300001313000000
#07712:13
#07718:13
#07713:0013
#07719:0013
#07918:0013000000130000
#07915:00130013
#0791b:2300001300000000
#07912:0000001300000013
#08018:0000001300000013
#08015:00001313
#08012:0000000000130000
#08014:0013000000000000
#08019:0013000000000000
#0851b:1300001300002300
#08518:00000013000000000000130000001300
#08515:00001300130000001300000000000013
#08512:2300002300131300
#08618:13130000
#08612:0013000024000000
#08615:0000001300000000
#0861b:0023001300000000
#0861a:0024
#08318:0013000013001300
#08312:0000130000131300
#08315:1300001300000013
#0831b:1300001300000000
#0841b:1300001300000013
#08415:00130013
#08412:0013000013000000
#08418:0013000000130000
#0811b:13
#08115:1313
#08112:00130000
#08118:00000013
#07218:001300000000000000000000
#07215:0013000000000000
#0721b:0013
#07219:00000013
#07216:0013
#07214:00000013
#0741b:2300001300000000
#07416:1313
#07419:0000000000130000
#07414:00000013
#07417:0000000000000013
#0011b:13
#0011a:0000001300000000
#00117:00001313
#00217:00131300
#0021b:13
#00316:13
#00315:0000001300000000
#00312:00001313
#00414:13
#00416:00130000
#00412:0013
#02312:14
#02316:0000001400000000
#0231a:00000014
#02517:00130000
#02519:0013
#0251b:00000013
#02512:00130000
#02514:0013
#02516:0000000000001313
#02518:26
#02915:0013
#02912:00000013
#02918:13
#0291b:00130000
#0311a:14
#03116:0000001400000000
#03112:00000014
#03015:0013
#03012:00000013
#03018:13
#0301b:00130000
#0301a:0000000000000014
#03912:13
#03915:0000001300000000
#03918:13
#0391b:0000001300000000
#09516:00000014000000002400000000000000
#09515:00000013
#0951b:00000013
#0951a:24
#09512:2400002400000000
#0951f:21
#09714:00130000
#09717:0000001300000000
#09719:00130000
#09712:1300001300000000
#09716:00000000000000000000001300000000
#0971b:00000000000000000000001300000000
#09718:13
#09710:41
#09818:00130013
#09812:00130013
#09815:0000001300130000
#0981b:0013
#09912:1300001300000013
#09915:00001313
#0991b:00131313
#09918:2300001300000013
#1001b:23130000
#10012:0000001300001300
#10017:00000013
#10018:0000001300000000
#10015:23130000
#10115:13
#1011b:00130013
#10112:00130013
#10118:0013
#1101b:13131313
#11015:00000013000013000000000000000000
#11018:00001300000000130000000000000000
#11012:23131300
#11115:00130000
#1111b:00130000
#11112:00000013
#12016:00130014
#12014:0000000000000013
#12019:0000000000000013
#12017:13
#12012:13
#1201b:00130000
#12112:13
#1211b:13
#11515:00000013
#11518:0000001313000000
#11516:13
#11512:0013
#1151b:23
#0871f:11
#08719:1200001212001200
#01117:13
#01115:0000001300001300
#01112:2313
#01118:0013
#0111b:00000013
#01316:13
#01318:0000001300001300
#0131b:2313
#01315:0013
#01312:00000013
#02614:0013000000000000
#02619:13
#02712:00130000
#0271b:0013
#02714:00000013
#02719:00000013
#02718:00130000
#02715:0000001313000000
#02812:13
#02810:41
#03315:13
#03312:00131300
#03318:00000013
#03215:0013001300001300
#03212:1313
#0321b:1313
#03218:00130000
#03712:13000013
#0371b:0013
#03718:00130013
#04019:13141500
#04014:13
#04013:00140000
#04012:0000151c
#0411b:13
#04112:0013
#04116:13
#04114:00130000
#04119:00000013
#0421b:13001313
#04215:00001300000000001300001300000000
#04218:0000130000130000
#04212:0000001300001300
#05012:13001313
#05018:00001300000000001300001300000000
#05015:0000130000130000
#0501b:0000001300001300
#05316:0000131300000000
#0531b:0000001300000000
#05317:00000000000000000000001300000000
#05312:00000000000000000000001300000000
#05415:0000130000131300
#05418:0000001313000000
#0541b:00130013
#05412:0013
#0551b:13001313
#05519:0000001300000000
#05516:1313
#05514:0000001300000000
#05517:0000000000000013
#05515:00000013
#05619:13000013
#05612:00130000
#05617:0000001300000000
#05613:13
#05614:00000013
#05117:00000013
#05112:00000013000000000000000000000000
#05116:2323
#0511b:2300002323000000
#05110:41
#0571b:1313000023000000
#05718:0000130000000013
#05718:00130000
#05715:0000001300001300
#05712:2300000013130000
#0581b:13000013
#05818:00000013000013001300000000000000
#05815:00001300130000130000000000000000
#05812:23
#06214:1313130000001200
#06219:1313130000130000
#0621b:0013
#06217:00000013
#06215:0000000000000012
#06212:0012
#06213:0000000000120000
#09618:13
#09612:13
#09615:00000013
#0961b:00000013
#10212:1313
#10218:00001300000000001300001300000000
#10215:0000130000131300
#1021b:0000131300001300
#10818:2300130000000013
#10815:0000001300001300
#10812:23130000
#1081b:0000001300000000
#1091b:1300001323000000
#10915:0013000000001300
#10918:0000130000130000
#10912:2300000013000013
#11312:13
#1131b:13130000
#11318:0000001300000000
#11315:0000001300000000
#11314:00330000
#11218:00130013
#11215:0000000000000013
#11212:00130000
#11412:1313130000000000
#1141b:1313130000000000
#1141a:0000002200000000
#11416:0022
#11418:0000000000220000
#11414:00000022
#07116:0000001300000000
#0711b:0000001300000000
#07112:23000013
#07117:23000013
#06712:13
#0671b:0013
#01015:13
#0101b:13
#01012:00130000
#01018:00130000
#01218:13
#01212:13
#0121b:00130000
#01215:00130000
#11617:13
#11612:13
#1161b:00130000
#11616:00130000
#07312:13
#07319:0013
#07314:0023
#07317:23
#07814:13
#0781a:13
#07815:0013
#0781b:0013
#0821b:13
#08212:0013
#08217:0023
#08216:23
#10316:00000014000000002400000000000000
#10318:00000013
#10312:24000013
#1031a:2400002400000000
#10519:00130000
#10516:0000001300000000
#10514:00130000
#1051b:1300001300000000
#10517:00000000000000000000001300000000
#10512:00000000000000000000001300000000
#10515:13
#10615:00130013
#1061b:00130013
#10618:0000001300130000
#10612:0013
#1071b:1300001300000013
#10718:00001313
#10712:00131313
#10715:2300001300000013
#10415:13
#1041b:13
#10418:00000013
#10412:00000013
#11718:00000013
#11715:0000001313000000
#11717:13
#1171b:0013
#11712:23
#11816:13
#1181b:13
#11812:00130000
#11817:00130000
#11915:00000013
#11918:0000001313000000
#11916:13
#11912:0013
#1191b:23
#12215:0013000000000000
#12218:0013000000000000
#09312:14
#0931a:14
#09418:12
#09416:12
#09112:12
#09118:1212
#09116:0000001200000000
#09114:00000012
#0911a:00000012
#0921c:1212
#09216:1200000012000012
#09212:00120000
#09218:00120012
#08819:12
#08915:1200001212001200
#09015:12
#00956:63
#01555:53535353
#01553:0023000000230000
#01557:0000002300000023
#01658:63636300
#0165a:0023000000230000
#01656:0000002300000000
#04357:6313
#0435b:00000023000000000000000000000000
#04352:13
#04557:0000005300000000
#04552:0000005300000000
#04556:00000000000000000000002300000000
#0455b:00000000000000000000002300000000
#04952:00230000
#04955:63
#0495b:00000023
#04958:0053
#04752:63
#04757:63
#04857:00000063
#07058:0000000000460000
#07052:0036
#00752:66
#00758:66
#00856:22
#00858:22
#06857:53
#06856:0063
#02156:00230000
#02152:63
#0215b:0053
#02157:00000023
#02252:63
#02256:00230000
#0225b:0053
#02257:00000023
#02352:64
#02356:0000002400000000
#02955:0053
#02952:00000023
#02958:63
#0295b:00230000
#0315a:54
#03156:0000002400000000
#03055:0053
#03052:00000023
#03058:63
#0305b:00230000
#03658:5343
#03652:53
#03558:5353
#03552:5353
#03955:0000002300000000
#03952:63
#03958:63
#0395b:0000002300000000
#0615b:63
#06155:0000006300000000
#06158:0000006300000000
#05952:00230000
#05958:00230000
#09556:00000024000000004400000000000000
#09555:00000053
#0955b:00000053
#0955a:64
#09552:1434
#09757:0000005300000000
#09752:6300005300000000
#09756:00000000000000000000002300000000
#0975b:00000000000000000000002300000000
#09758:63
#09952:63
#1005b:00130000
#10052:0000001300000000
#10057:00000063
#10155:63
#10158:0053
#10152:00530000
#1015b:00000053
#11155:00230000
#1115b:00230000
#11152:13
#09852:33
#09857:33
#11556:63
#11558:0053
#12152:63
#1215b:53
#12452:0016
#12458:0016
#01157:53
#01356:63
#01455:53
#0145b:5313
#01452:00630000
#01458:00630000
#03355:13
#03352:0013
#03458:13
#0345b:0013
#03752:13
#0375b:0013
#0385b:63
#03855:6333
#04152:0063
#0415b:63
#05356:0000006300000000
#0535b:0000006300000000
#05357:00000000000000000000002300000000
#05352:00000000000000000000002300000000
#0555b:53
#05556:53
#0855b:1300001300000000
#08552:00000013
#08652:0013000034000000
#0865a:0044
#05152:00000023000000000000000000000000
#05156:5313
#0515b:13
#09658:63
#09652:63
#09655:00000053
#0965b:00000053
#11352:53
#11358:0000005300000000
#11355:0000005300000000
#0605b:00230000
#06055:00230000
#01055:53
#0105b:5313
#01052:00630000
#01058:00630000
#01258:63
#01252:6313
#0125b:00530000
#01255:00530000
#11657:6313
#11652:6313
#1165b:00530000
#11656:00530000
#01752:16
#02558:16
#0425b:00000043
#04252:00000033
#0505b:00000043
#05052:00000033
#1025b:00000043
#10255:00000033
#10356:00000024000000003400000000000000
#10358:00000063
#10352:54000063
#1035a:1444
#10556:0000006300000000
#1055b:5300006300000000
#10557:00000000000000000000002300000000
#10552:00000000000000000000002300000000
#10555:53
#1075b:53
#10852:00130000
#1085b:0000001300000000
#10455:53
#1045b:53
#10458:00000063
#10452:00000063
#1065b:43
#10656:43
#11258:00230000
#11252:00230000
#1125b:13
#11757:53
#11755:0053
#11856:5313
#1185b:5313
#11852:00630000
#11857:00630000
#11956:63
#11958:0053
#12057:6313
#12052:6313
#1205b:00530000
#12056:00530000
#12255:0023000000000000
#12258:0023000000000000
#0935a:54
#09352:54
#09458:22
#09456:22
#001320:1200003232003200
#002320:32322200
#0033c0:1200003232003200
#0043c0:32322200
#005360:1200003232002200
#006380:12322200
#007320:16
#007360:00000022
#007381:16000022
#008361:12
#008321:00000026
#008380:12000026
#009360:13
#009320:0000002300000000
#010350:13000000000000532300000000000000
#010320:00000053330000000000000000000000
#0103b1:13000000000000532300000000000000
#010381:00000053330000000000000000000000
#011371:13
#0113b1:0000002300000000
#012381:13000000000000532300000000000000
#0123b1:00000053330000000000000000000000
#012320:13000000000000532300000000000000
#012350:00000053330000000000000000000000
#013360:13
#013320:0000002300000000
#014350:13000000000000532300000000000000
#014320:00000053330000000000000000000000
#0143b1:13000000000000532300000000000000
#014381:00000053330000000000000000000000
#015351:13535353
#015331:0053000000530000
#015371:0000005300000053
#016351:23
#016380:13535300
#0163a0:0053000000530000
#016360:0000005300000000
#016370:00000023
#018350:00130000
#018320:0023
#0183b1:00130000
#018381:0023
#018321:00000013
#019351:23
#018380:00000013
#0193b0:23
#020320:13
#020350:0053230000000000
#020381:00130000
#0203b1:0000005323000000
#020350:0013
#020320:0000000000532300
#0203b1:00000013
#020381:0000000000000053
#021381:23
#021320:1323
#021360:00530000
#0213b1:0013
#021371:00000053
#0223b1:23
#022320:1323
#022360:00530000
#0223b1:0013
#022371:00000053
#0233b1:23
#023320:14000024
#023360:0000005400000000
#026380:00130000
#0263b0:0023
#026321:00130000
#026351:0023
#0263b1:0000000000000013
#027381:23
#026350:0000000000000013
#027320:23
#0283b0:13
#028380:0053230000000000
#028351:00130000
#028321:0000005323000000
#028380:0013
#0283b0:0000000000532300
#028321:00000013
#028351:0000000000000053
#029351:23
#029380:1323
#0293b0:00530000
#029351:0013
#029321:00000053
#030351:23
#030380:1323
#0303b0:00530000
#030351:0013
#030321:00000053
#031351:23
#0313a0:14000024
#031360:0000005400000000
#0323b0:00000013
#0333b0:23
#033380:00132300
#033320:00000013
#034320:23
#034350:00132300
#035320:13
#035350:00230000
#035381:13
#0353b1:00230000
#035321:0013
#035351:00000023
#035380:0013
#0353b0:00000023
#036380:13
#0363b0:0053002300000000
#036321:13
#036351:0053000023000000
#0363b1:00000013
#037381:23
#037321:00130000
#037351:0023
#038351:13
#038321:0053002300000000
#0383b0:13
#038380:0053000023000000
#039320:13000023
#039350:0000005300000000
#039381:13000023
#0393b1:0000005300000000
#0413b1:13
#041371:0023
#041320:0013
#042360:23
#043370:1300002300000000
#0433b0:00000053000000000000000000000000
#0433b0:00000013
#0443b0:23
#044361:13230000
#044390:00132300
#044341:00001323
#044370:00000013
#045370:23
#045321:13230000
#045371:0000001300000000
#0453b1:00000000000000000000005300000000
#046371:23
#045320:0000001300000000
#045360:00000000000000000000005300000000
#046320:23
#047320:13
#047360:00230000
#047371:13
#0473b1:00230000
#048371:00000013
#0493b1:23
#049350:1323
#049320:00530000
#049381:0013
#0493b1:00000053
#050381:23
#051361:1300002300000000
#051321:00000053000000000000000000000000
#051321:00000013
#052321:23
#052370:13230000
#052341:00132300
#052390:00001323
#052361:00000013
#053361:23
#0533b0:13230000
#053360:0000001300000000
#053320:00000000000000000000005300000000
#054360:23
#0533b1:0000001300000000
#053371:00000000000000000000005300000000
#0543b1:23
#0553b1:13
#055371:00230000
#055360:13
#055320:00230000
#058320:00000013
#059320:33330000
#059350:0000002300000000
#059381:13330000
#0593b1:0000002300000000
#0593b1:00000013
#0603b1:33330000
#060381:0000002300000000
#060350:13330000
#060320:0000002300000000
#0613b0:1300000000532300
#061380:0000003300000000
#061351:0000001300000000
#061321:0000000000532300
#063361:12
#065361:22
#067371:13
#0673b1:00230000
#067361:0013
#067321:00000023
#068371:13
#0683b1:00230000
#068361:0013
#068321:00000023
#087331:1200003232003200
#088331:32322200
#088390:00122200
#0893b0:1200003232003200
#0903b0:32322200
#090351:00122200
#093321:14
#094361:52
#094321:00000026
#0933a0:14
#094380:52000026
#0953a0:1400002400000000
#095360:00000054000000000000000000000000
#095321:0000001424000000
#0953b1:00000013
#095381:0000000000000023
#095350:00000013
#095320:0000000000000023
#096320:13
#096350:0023000000000000
#096381:13
#0963b1:0023000000000000
#0963b1:00130000
#096381:0000002300000000
#096350:00130000
#096320:0000002300000000
#096320:0013
#096350:0000000000230000
#096381:0013
#0963b1:0000000000230000
#0963b1:00000013
#096381:0000000000000023
#096350:00000013
#096320:0000000000000023
#097320:13
#097350:0023000000000000
#097381:13
#0973b1:0023000000000000
#097371:0000001300000000
#0973b1:00000000000000000000005300000000
#098371:23
#097320:0000001300000000
#097360:00000000000000000000005300000000
#098320:23
#099320:13
#099350:00230000
#100370:00000013
#1013b0:23
#101351:1323
#101321:00530000
#101380:0013
#1013b0:00000053
#102380:23
#103320:1400002400000000
#103360:00000054000000000000000000000000
#1033a1:0000001424000000
#103321:00000013
#103351:0000000000000023
#103380:00000013
#1033b0:0000000000000023
#1043b0:13
#104380:0023000000000000
#104351:13
#104321:0023000000000000
#104321:00130000
#104351:0000002300000000
#104380:00130000
#1043b0:0000002300000000
#1043b0:0013
#104380:0000000000230000
#104351:0013
#104321:0000000000230000
#104321:00000013
#104351:0000000000000023
#104380:00000013
#1043b0:0000000000000023
#1053b0:13
#105380:0023000000000000
#105351:13
#105321:0023000000000000
#105361:0000001300000000
#105321:00000000000000000000005300000000
#106361:23
#1053b0:0000001300000000
#105370:00000000000000000000005300000000
#1063b0:23
#1073b0:13
#107380:00230000
#110360:00000013
#110320:0000000000000053
#111320:23
#1113b1:13330000
#111381:0000002300000000
#111350:00130000
#111320:0000002300000000
#111370:00000013
#1113b0:0000000000000053
#1123b0:23
#112321:13330000
#112351:0000002300000000
#112380:00130000
#1123b0:0000002300000000
#113320:13000023
#113340:00330000
#113350:0000003300000000
#113381:0000001300000000
#1133b1:00000023
#115361:13
#115321:0000002300000000
#115381:0013
#1153b1:00000023
#116371:13000000000000532300000000000000
#1163b1:00000053330000000000000000000000
#116320:13000000000000532300000000000000
#116360:00000053330000000000000000000000
#117370:13
#1173b0:0000002300000000
#117350:0013
#117320:00000023
#118360:13000000000000532300000000000000
#118320:00000053330000000000000000000000
#1183b1:13000000000000532300000000000000
#118371:00000053330000000000000000000000
#119361:13
#119321:0000002300000000
#119381:0013
#1193b1:00000023
#120371:13000000000000532300000000000000
#1203b1:00000053330000000000000000000000
#120320:13000000000000532300000000000000
#120360:00000053330000000000000000000000
#121320:13
#122350:0033000000000000
#124320:0026
#1213b1:13
#122381:0033000000000000
#124381:0026
