This file was generated by Ched 2.6.2.0.
#TITLE ""
#ARTIST ""
#DESIGNER ""
#DIFFICULTY 0
#PLAYLEVEL
#SONGID ""
#WAVE ""
#WAVEOFFSET 0
#JACKET ""
#REQUEST "ticks_per_beat 480"
#00002: 4
#BPM01: 170
#00008: 01
#TIL00: ""
#HISPEED 00
#MEASUREHS 00
#00918:1313
#00915:0000001300001300
#0091b:00000013
#00910:41
#01412:00130013
#0141b:1313
#01415:1300000013000013
#01418:00130000
#01715:0000130013000013
#0171b:00131300
#0171b:00130000
#01718:00000013
#01815:0013000000000000
#01818:13
#0191b:00130000
#01915:0013
#01912:00000013
#01918:0000001300000000
#02112:13
#0211b:0013
#02215:0000000013000013
#02218:13
#02212:13
#0221b:0013
#03818:1300000000000013
#03815:0000001300001300
#03812:13
#0381b:0013
#04618:00130013
#04615:0013
#04612:00130000
#0471b:1300001300000000
#04715:1313
#04712:00000013
#04718:00000013
#04815:1300001300000000
#04818:00130013
#04812:00000013
#0481b:13
#12614:0000000000130000
#12619:0000000000130000
#0601b:00000013
#06015:00000013
#06012:13
#06018:13
#0661b:0000000000000013
#07012:0014
#0701a:0000000000140000
#07018:0000001300000000
#07015:13130000
#0701b:0013000000000000
#00615:0000000000000013
#00618:00000013
#00714:18
#00816:14
#07515:0000000000000013
#0751b:0000000000000013
#07512:23
#07518:0023000000000000
#0761b:1313
#07615:0013000000130000
#07618:00130013
#07612:0000001300000013
#07918:0013000000000000
#07915:00130000
#0791a:0000000000140000
#07916:00000014
#07912:0000001300000014
#0791b:23
#08018:0000001300130000
#08012:0000001313000000
#08015:0013000000001300
#0801b:0013000000000013
#02318:13
#03912:13
#03915:0000001300000000
#09912:13
#0991b:0000001300001300
#09918:13
#09915:00000013
#0871f:11
#08715:0000001300000000
#08718:13001313
#07114:0000001300000000
#0711a:0000001300000000
#07113:00000013
#07119:00000013
#07112:23
#07118:23
#0101b:1313
#01015:1313
#01012:00130000
#01018:00130000
#01115:1313
#01118:0000001300001300
#01112:00000013
#01212:1313
#01218:1313
#0121b:00130000
#01215:00130000
#01318:1313
#01315:0000001300001300
#0131b:00000013
#01518:13
#01612:13
#01618:13
#02518:00131300
#02512:00131300
#02515:00000013
#02712:00130000
#02718:0013
#0271b:00000013
#02715:1300001300000000
#02618:1300000000000013
#0291b:13
#02912:0013
#03018:0000000013000013
#03015:13
#0301b:13
#03012:0013
#03115:13
#03412:00130013
#03418:0000130023000013
#03415:23
#0361b:13
#03615:13
#03612:00001313
#03618:0000001300001300
#03515:13
#0351b:0013
#04115:13
#0411b:13
#04118:0013
#04112:0013
#04212:00130013
#04218:00130013
#0421b:1313
#04215:1313
#04012:13
#04018:13
#04013:00130000
#04014:0013
#04015:00000013
#04019:00130000
#0401a:0013
#0401b:00000013
#04418:00000013
#04415:00130000
#04318:23002313
#04315:0000002300000000
#04312:23
#04310:41
#04516:00000000000000000000001400000000
#04512:0000141400000000
#04918:13
#04912:13
#04915:0013
#0491b:0013
#05415:00130013
#05418:0013
#0541b:00130000
#05512:1300001300000000
#05518:1300001300000000
#0551b:00000013
#05515:0000000000000013
#05618:1300001300001300
#05615:00130000
#05612:13000013
#05712:0000001300000000
#05718:0000001300000000
#0581b:00000013
#05815:00000013
#0591b:13
#05915:13
#05912:00000013
#05918:00000013
#06115:0000001300000000
#0611b:0000001300000000
#06212:0013
#06218:0000000000130000
#06215:00000013
#0621b:0000000000000013
#0721b:0013000013000000
#07215:0013000013000000
#07218:00000013
#0741b:0000001300000000
#07418:2300000013000013
#07415:0000000000130000
#07412:13000013
#07312:13
#0731b:0013
#07318:23
#07315:0023
#0771b:1313
#07715:00130000
#07712:0013
#07718:00000013
#07812:1414
#0781a:1414
#07818:00140000
#07814:00000014
#0831b:13130013
#08315:0013000000000013
#08312:0000001300130000
#08318:0013
#08418:1300130000130000
#08412:0013000000000013
#08415:0000001300001300
#0841b:0013
#08516:0000140000140000
#0851b:23000023
#08512:0000002300000000
#08616:1400001400000000
#08612:0023000024000000
#0861a:0024
#09215:1300000000000013
#09218:00131313
#09314:18
#09416:14
#09615:00000013
#09618:00130000
#09612:00130000
#0961b:00000013
#09515:23000013
#0951b:23000013
#0951a:0024
#0951f:21
#09512:0000002400000000
#09712:00140000
#09716:00000000000000000000001400000000
#0971a:0000001400000000
#09710:41
#09813:00000013
#09819:00000013
#09814:0013
#0981a:0013
#09815:00130000
#0981b:00130000
#10015:00130000
#10018:0000001300000000
#10012:00000013
#1001b:00000013
#10212:13000014
#1021b:13
#1021a:00140000
#10216:0014
#10115:0013
#10118:13
#10418:00000013
#10415:00130000
#1041b:00130000
#10412:00000013
#10318:23000013
#10312:23002413
#10312:0024
#1031a:0000002400000000
#1031a:0000002400000000
#1051a:00140000
#10516:00000000000000000000001400000000
#10512:0000001400000000
#1061a:00000013
#10614:00000013
#10619:0013
#10613:0013
#10618:00130000
#10612:00130000
#1071b:1300001300000000
#10715:1300001300000000
#10712:00000013
#10718:00000013
#10815:1300001300000013
#10818:00130000
#1081b:13000013
#1091b:0000001300000000
#10915:0000131300000000
#11212:00000013
#11218:00000013
#1121b:13
#11215:13
#11214:00330000
#1121a:00330000
#11012:00000013
#11018:00000013
#11112:13
#11118:13
#1111b:00000013
#11115:00000013
#11119:00330000
#11113:00330000
#11318:0000001300000000
#11312:0000001300000000
#1201a:00000014
#12018:13
#12012:1300000000000014
#1201b:00130000
#12015:00130000
#12216:0014000000000000
#1151b:13000013
#11518:0013
#11512:0013
#11515:00000013
#11618:1313
#11612:1313
#11715:0013
#1171b:0013
#11712:13000013
#11718:00000013
#11815:1313
#1181b:1313
#11915:13000013
#11918:0013
#11912:0013
#1191b:13000013
#03215:00000013
#0321b:00000013
#03318:00132300
#03312:00130000
#0331b:00000013
#03315:23000013
#03712:00000013
#03718:23000013
#03715:00132300
#0371b:00130000
#0501b:00130013
#05015:00130013
#05012:1313
#05018:1313
#0811b:13
#08115:13000013
#08112:00130000
#08118:0013
#08215:13
#08218:0013
#0821b:23
#08212:0023
#05215:00000013
#05218:00130000
#05115:23002313
#05118:0000002300000000
#0511b:23
#05110:41
#05316:00000000000000000000001400000000
#0531a:0000141400000000
#0691b:13
#06915:13
#06912:00000013
#06918:0000000000000013
#06910:41
#08815:13
#08818:00131300
#08918:0000001300000000
#08915:13001313
#09018:13
#0901b:00130000
#09015:0013
#09115:0000001300000000
#09118:13001313
#1141b:0000002300000000
#11415:0023
#11418:0000000000230000
#11412:00000023
#02810:41
#00958:53
#0475b:53
#04755:53
#00754:68
#00856:24
#02152:63
#0215b:0053
#02358:63
#03955:0000002300000000
#03952:63
#09952:63
#09958:63
#0995b:00000053
#09955:00000053
#09555:63000063
#0955b:63000023
#0105b:0053
#01055:0053
#01155:63
#01252:0063
#01258:0063
#01358:53
#01558:53
#01652:53
#01658:53
#02258:63
#02252:63
#02255:0053
#0225b:0053
#0295b:53
#02952:0063
#03155:53
#0365b:63
#03655:63
#03555:63
#0355b:0063
#03852:53
#03858:53
#04155:53
#0415b:53
#04158:0063
#04152:0063
#04458:00000053
#04455:00530000
#04358:63000053
#04352:63
#04556:00000000000000000000002400000000
#04552:0000005400000000
#04958:63
#04952:63
#04955:0053
#0495b:0053
#05552:63
#05558:63
#05758:0000005300000000
#05752:0000005300000000
#06155:0000005300000000
#0615b:0000005300000000
#07052:0014
#0705a:0000000000140000
#09354:68
#09456:24
#09655:00000063
#09658:00630000
#09652:00230000
#0965b:00000023
#09756:00000000000000000000002400000000
#0975a:0000006400000000
#0985a:44
#10155:0053
#10158:53
#10458:00000053
#10455:00530000
#1045b:00230000
#10452:00000023
#10358:53000053
#10352:53000023
#10556:00000000000000000000002400000000
#10552:0000005400000000
#10652:34
#1075b:53
#10755:53
#1095b:0000006300000000
#10955:0000006300000000
#11358:0000006300000000
#11352:0000006300000000
#1155b:63
#12058:63
#12052:63
#1205b:00530000
#12055:00530000
#11658:5353
#11652:5353
#11855:6363
#1185b:6363
#11955:63
#1195b:63
#12452:001c
#12256:0024000000000000
#03055:53
#0305b:53
#03058:0063
#03052:0063
#05255:00000063
#05258:00630000
#05155:53000063
#0515b:53
#05356:00000000000000000000002400000000
#0535a:0000006400000000
#0595b:53
#05955:53
#06052:63
#06058:63
#11152:53
#11158:53
#1125b:63
#11255:63
#11752:53
#0695b:53
#06955:53
#0505b:00000013
#05055:00000013
#10055:00130000
#10058:0000001300000000
#10252:00000014
#10858:00130000
#10855:0000001300000000
#001390:1300003333003300
#002390:33332300
#003340:1300003333003300
#004340:33332300
#005390:1300003333003300
#006390:33332300
#005341:1300003333003300
#006341:33332300
#007341:18
#007361:00000024
#008361:14
#008341:00000028
#009381:13
#0093b1:00230000
#0103b1:0013
#010381:00000023
#010350:0013
#010320:00000023
#011350:13
#011320:00230000
#012320:0013
#012350:00000023
#012381:0013
#0123b1:00000023
#013381:13
#0133b1:00230000
#015381:13
#0153b1:00005323
#016321:13
#016351:00005323
#016380:13
#0163b0:00005323
#018380:00130000
#0183b0:0023
#018350:00000013
#019320:23
#020320:13
#020350:00230000
#020381:13
#0203b1:00230000
#0203b1:0013
#020381:00000023
#020350:0013
#020320:00000023
#021320:13
#021350:00230000
#0213b0:0013
#021380:00000023
#022380:13
#0223b0:00230000
#022321:13
#022351:00230000
#022351:0013
#022321:00000023
#0223b0:0013
#022380:00000023
#023380:13
#0243b0:23
#026350:00130000
#026320:0023
#0283b0:13
#028380:00230000
#028351:13
#028321:00230000
#028321:0013
#028351:00000023
#028380:0013
#0283b0:00000023
#0293b0:13
#029380:00230000
#029320:0013
#029350:00000023
#030350:13
#030320:00230000
#0303b1:13
#030381:00230000
#030381:0013
#0303b1:00000023
#030320:0013
#030350:00000023
#031350:13
#032320:23
#035350:13
#035320:00230000
#0353b0:0013
#035380:00000023
#036350:13
#036320:00230000
#0363b1:13
#036381:00230000
#038381:13
#0383b1:00230000
#038320:13
#038350:00230000
#039320:13000023
#039350:0000005300000000
#0413b0:13
#041380:00230000
#041351:13
#041321:00230000
#041321:0013
#041351:00000023
#041380:0013
#0413b0:00000023
#043320:13
#043350:00230000
#043381:13
#0433b1:00230000
#043381:00000013
#0443b1:23
#044351:00130000
#044321:0023
#044381:00000013
#0453b1:23
#045321:0000001400000000
#045361:00000000000000000000005400000000
#046321:24
#0473b1:13
#047381:00230000
#047350:13
#047320:00230000
#049320:13
#049350:00230000
#049381:13
#0493b1:00230000
#0493b1:0013
#049381:00000023
#049350:0013
#049320:00000023
#0513b0:13
#051380:00230000
#051351:13
#051321:00230000
#051351:00000013
#052321:23
#052381:00130000
#0523b1:0023
#052351:00000013
#053321:23
#0533a1:0000001400000000
#053361:00000000000000000000005400000000
#0543a1:24
#055321:13
#055351:00230000
#055380:13
#0553b0:00230000
#057320:1300003300000000
#058350:0023
#057381:0000001300000000
#0583b1:0023
#059351:13
#059321:0000002300000000
#0593b0:13
#059380:0000002300000000
#060380:13
#0603b0:0000002300000000
#060321:13
#060351:0000002300000000
#061351:1300003300000000
#062321:23
#0613b0:1300003300000000
#062380:23
#063320:13
#065320:23
#067350:13230000
#067380:00001323
#0683b0:13230000
#068351:13230000
#068321:00001323
#068380:00001323
#0693b0:13
#069380:0023
#069351:13
#069321:0023
#093341:18
#094361:34
#094321:0000002c
#095351:13
#095321:00230000
#0953b0:13
#095380:00230000
#095350:00000013
#096320:23
#0953b1:00000013
#096381:23
#096381:00130000
#0963b1:0023
#096320:00130000
#096350:0023
#096350:00000013
#097320:23
#0963b1:00000013
#097381:23
#0973a1:0000001400000000
#097361:00000000000000000000005400000000
#0983a1:24
#099321:13
#099351:00230000
#099380:13
#0993b0:00230000
#0993b0:00000013
#100380:23
#099351:00000013
#100321:23
#101381:13
#1013b1:00230000
#101351:0013
#101321:00000023
#103381:13
#1033b1:00230000
#103320:13
#103350:00230000
#103380:00000013
#1043b0:23
#103321:00000013
#104351:23
#104351:00130000
#104321:0023
#1043b0:00130000
#104380:0023
#104380:00000013
#1053b0:23
#104321:00000013
#105351:23
#105321:0000001400000000
#105361:00000000000000000000005400000000
#106321:24
#1073b1:13
#107381:00230000
#107350:13
#107320:00230000
#1093b0:1300003300000000
#110380:0023
#109351:0000001300000000
#110321:0023
#111381:13
#111391:00330000
#1113b1:0000002300000000
#111320:13
#111330:00330000
#111350:0000002300000000
#112350:13
#112340:00330000
#112320:0000002300000000
#1123b1:13
#1123a1:00330000
#112381:0000002300000000
#113381:1300333300000000
#1143b1:23
#113320:1300333300000000
#114350:23
#1153b0:13
#115380:0000002300000000
#116380:13
#1163b0:00230000
#116321:13
#116351:00230000
#116381:0013
#1163b1:00000023
#116320:0013
#116350:00000023
#117320:13
#117350:0000002300000000
#118350:13
#118320:00230000
#1183b1:13
#118381:00230000
#118351:0013
#118321:00000023
#1183b0:0013
#118380:00000023
#119350:13
#119320:0000002300000000
#1193b1:13
#119381:0000002300000000
#120381:1323
#1203b1:00330000
#120320:1323
#120350:00330000
#121360:14
#122360:0034000000000000
#124320:002c
#125340:1333333333333333
#125330:00530053005300530053005300530053
#126340:3333230000000000
#126330:00530053000000000000000000000000
#125391:1353535353535353
#1253a1:00330033003300330033003300330033
#126391:5353230000000000
#1263a1:00330033000000000000000000000000
