This file was generated by Ched 2.7.0.0.
#TITLE ""
#ARTIST ""
#DESIGNER ""
#DIFFICULTY 0
#PLAYLEVEL
#SONGID ""
#WAVE ""
#WAVEOFFSET 0
#JACKET ""
#REQUEST "ticks_per_beat 480"
#00002: 4
#BPM01: 170
#00008: 01
#TIL00: ""
#VOLUME: ""
#HISPEED 00
#MEASUREHS 00
#00916:13
#00915:0000001300001300
#00917:0013
#00912:2313
#0091b:00000013
#00919:0000000000130000
#00918:0000000000000013
#00910:41
#01712:2c00130000000013
#01716:00000013
#0171b:0013
#01816:13130000
#01812:0013000000001300
#0181b:00130000
#01817:00000013
#01814:0000000000000033
#01819:0000000000000033
#01912:00130000
#01914:0000001300000000
#01916:00001313
#01917:00130000
#0191b:0013
#01919:0000001300000000
#03418:0013000000001300
#03415:0000001300000013
#03416:13
#03412:00131300
#0341b:2300001300000000
#03417:0023
#0361b:1300000000000013
#03615:1300000000000013
#03612:0013000000001300
#03618:0013000000001300
#03812:2300001300001300
#03814:0000000000000013
#0381b:00131313
#03819:0000000000000013
#03817:13
#03815:0013130000000000
#03818:0000001300000000
#03816:0023
#04316:00000014000024000000000000000000
#04312:00000013
#0431a:2424
#04314:24000000000000340000000000000000
#04310:41
#04516:00130013
#0451b:00130013
#04512:0000001300000000
#04518:13
#04519:0013
#04617:13131300
#04612:00131300
#0461b:0000001300001300
#04614:0000000000130000
#04616:00000013
#04619:0000000000000013
#04712:2300001313000000
#04716:00130013
#04717:1300001313000000
#04719:0000000000000013
#0471b:00000013
#12612:0000000000130000
#1261b:0000000000130000
#12616:14141414140000000000000000000000
#0581b:00131313
#05812:14131300
#05818:00001300000000130000000000000000
#05815:00000013000013000000000000000000
#05817:0000000000131300
#0581a:14
#05912:00130013
#05917:00130000
#05916:00000013
#06019:00000013
#06014:00000013
#0601b:00130000
#06016:00130000
#06612:0000000000000013
#0661b:0000000000000013
#07012:0013
#0701b:0000000000130000
#07015:0000000000130000
#0051c:12
#0051a:0000001200000000
#00517:00001212
#00617:12
#00612:00121200
#00614:00000012
#00613:0000000000000012
#0061a:00000012
#0061b:0000000000000012
#07412:1300000000000013
#07416:0000001300000000
#07414:0000000000130000
#07413:00000013
#0741b:0000001300000000
#0741a:0013
#07419:0000000000130000
#07417:0000000000000013
#07418:23
#08516:14000000000014001400000014000012
#08518:00000012000000000000000000000000
#08513:00120000
#08514:0000000000130000
#08519:0000000000130012
#08515:0012000000000000
#08512:2313
#0851b:0000002300002300
#08616:0014141400000000
#08612:0023001323000000
#0861b:12132300
#07218:001300000000000000000000
#07214:0013
#07217:00000013
#0721b:0000001300000000
#07212:00000013
#07215:0013001300000000
#0721a:0013
#0011c:12
#0011a:0000001200000000
#00117:00001212
#0021c:12
#02312:13
#02317:0000001300000000
#0231b:00000013
#02316:13
#06216:00140000
#0621b:13
#06218:0013000012000000
#06212:00000013000000000000120000000000
#06215:00130000000000000000000012000000
#0621a:0000000000120000
#0621c:00000012
#06213:0012
#06214:0000000000000012
#12016:0000000000000014
#12012:00000013
#12012:00000013
#12012:00000013
#12012:00000013
#1201b:00000013
#12112:13
#1211b:13
#0421b:1313000000001300
#04212:00130013000000000000000013000000
#04219:0000131300000000
#04214:00000000001300130000000000000000
#04218:0000000013130000
#04215:00000000000000000013001300000000
#0201b:13
#02012:00001313
#02017:00130013
#02015:0000000000000033
#0201a:0000000000000033
#0271b:00130000
#02719:0000001300000000
#02717:00001313
#02716:00130000
#02712:0013
#02714:0000001300000000
#02812:13
#0281b:00001313
#02816:00130013
#02818:0000000000000033
#02813:0000000000000033
#02810:41
#08717:1200001212001200
#0871f:11
#08817:12
#08917:1200001212001200
#09017:12
#09114:1212
#0911a:0000001200001200
#09117:1200001212001200
#09212:1212
#0921c:00120000
#09219:00000012
#09217:12121200
#09215:00000012
#09213:0000000000000013
#0921a:0000000000000013
#09312:14
#0931a:14
#09416:141400000000000000000000000000000000000000000000000000000000000000000000000000000000000000000000000000000000000000000000000000000000000000000000000000000000000000000000000000000000000000000000000000000000000000000000000000000000000000000000000000000000000000000000000000000000000000000000000000000000000000000000000000000000000000000000000000000000000000000000000000000000000000000000000000000000000000000000000000000000000000000000000000000000000000000000000000000000000000000000000000000000000000000000000000000000000000000000000000000000000000000000000000000000000000000000000000000000000000000000000000000000000000000000000000000000000000000000000000000000000000000000000000000000000000000000000000000000000000000000000000000000000000000000000000000000000000000000000000000000000000000000000000000000000000000000000000000000000000000000000000000000000000000000000000000000000000000000000000000000000000000000000000000000000000000000000000000000000000000000000000000000000000000000000000000000000000000000000000000000000000000000000000000000000000000000000000000000000000000000000000000000000000000000000000000000000000000000000000000000000000000000000000000000000000000000000000000000000000000000000000000000000000000000000000000000000000000000000000000000000000000000000000000000000000000000000000000000000000000000000000000000000000000000000000000000000000000000000000000000000000000000000000000000000000000000000000000000000000000000000000000000000000000000000000000000000000000000000000000000000000000000000000000000000000000000000000000000000000000000000000000000000000000000000000000000000000000000000000000000000000000000000000000000000000000000000000000000000000000000000000000000000000000000000000000000000000000000000000000000000000000000000000000000000000000000000000000000000000000000000000000000000000000000000000000000000000000000000000000000000000000000000000000000000000000000000000000000000000000000000000000000000000000000000000000000000000000000000000000000000000000000000000000000000000000000000000000000000000000000000000000000000000000000000000000000000000000000000000000000000000000000000000000000000000000000000000000000000000000000000000000000000000000000000000000000000000000000000000000000000000000000000000000000000000000000000000000000000000000000000000000000000000000000000000000000000000000000000000000000000000000000000000000000000000000000000000000000000000000000000000000000000000000000000000000000000000000000000000000000000000000000000000000000000000000000000000000000000000000000000000000000000000000000000000000000000000000000000000000000000000000000000000000000000000000000000000000000000000000000000000000000000000000000000000000000000000000000000000000000000000000000000000000000000000000000000000000000000000000000000000000000000000000000000000000000000000000000000000000000000000000000000000000000000000000000000000000000000000000000000000000000000000000000000000000000000000000000000000000000000000000000000000000000000000000000000000000000000000000000000000000000000000000000000000000000000000000000000000000000000000000000000000000000000000000000000000000000000000000000000000000000000000000000000000000000000000000000000000000000000000000000000000000000000000000000000000000000000000000000000000000000000000000000000000000000000000000000000000000000000000000000000000000000000000000000000000000000000000000000000000000000000000000000000000000000000000000000000000000000000000000000000000000000000000000000000000000000000000000000000000000000000000000000000000000000000000000000000000000000000000000000000000000000000000000000000000000000000000000000000000000000000000000000000000000000000000000000000000000000000000000000000000000000000000000000000000000000000000000000000000000000000000000000000000000000000000000000000000000000000000000000000000000000000000000000000000000000000000000000
#08015:0000001300000013
#08017:0013000000000000
#0801b:0013000000000013
#08012:0013
#08013:0000000000130000
#08014:00000013
#0801a:00000013
#08019:0000000000130000
#08018:0013
#07117:0000000000131300
#07116:2300131300000000
#07112:0000001300000000
#0711b:23000013
#07312:1323
#07315:0013000000130000
#07318:23131313
#0731b:0000001300000013
#12312:00140000
#1231a:00140000
#04812:1300001300001300
#04817:13000013
#02215:0000000000000013
#02216:00130000
#0221b:00130000
#02219:0000003300000013
#02214:0000003300000000
#02116:00130000
#02112:00000013
#02117:00000013
#0211b:00130000
#02115:0000000000000033
#02119:0000003300000033
#02114:0000003300000000
#00316:12
#00314:0000001200000000
#00312:00001212
#00414:12
#0151b:13130000
#01517:0013001300000000
#01512:00001313
#01516:0000000000130013
#0251b:0000001300000013
#02517:00130013
#02516:0013
#02512:2c00000000130000
#02617:13130000
#0261b:0013000000000000
#02612:00130000
#0311b:13
#03116:0000001300000000
#03112:00000013
#03117:13
#03018:0000000000000013
#03014:0000003300000013
#03017:00130000
#03012:00130000
#03019:0000003300000000
#0321b:1313
#03216:1313
#03217:00130000
#03214:0000001300000000
#03219:0013000000000000
#03212:0000130000000013
#03215:00000013
#03218:0000000000000013
#03517:13
#03516:0013
#04112:1300000000130000
#04115:0013000013000000
#0411b:0000130000000013
#04118:0000001300001300
#0401b:0013000013000000
#04012:0000001300001300
#04018:1300000000130000
#04015:0000130000000013
#06715:13
#06712:0013000000000000
#06718:0013
#0671b:0000000000130000
#06815:1313
#06812:0013000000000000
#06818:1313
#0681b:0000000000130000
#06914:0000000000001818
#06917:2212000000000000
#06916:0000141400000000
#06915:0000000026160000
#06910:41
#0491b:1300000000130000
#04917:0013000013001300
#04916:1300130000130000
#04912:0013000013000000
#05612:00000013
#0561b:1300001300001300
#05616:13
#09516:00000014000000140000000000000000
#09512:0000002424001300
#0951f:21
#0951a:2424
#09514:24
#1101b:00131313
#11012:13131300
#11015:00001300000000130000000000000000
#11018:00000013000013000000000000000000
#11016:0000000000130000
#1101a:24
#10012:2313000000000000
#10016:13
#10019:00000013
#10014:00000013
#1001b:0000001300000000
#10212:13131313
#1021b:00000013000000130013000013000000
#10218:00130000000013000000001300000000
#10215:00001300001300000000130000000000
#11215:0000000000000013
#11218:00000013
#11217:2300001300000000
#11216:0013
#1121b:00231300
#12516:14141414141414141414141414141414
#11116:2300001300000000
#11112:00231313
#11117:0013
#0161b:13131313
#01615:00130000001300000013000000130000
#01618:0013001300130013
#01612:00000013000000130000001300000013
#02412:13131313
#02418:00130000001300000013000000130000
#02415:0013001300130013
#0241b:00000013000000130000001300000013
#03717:13
#03715:0013130000130013
#0371b:0000130013000013
#03712:2300001300001300
#03718:0000001300001300
#03716:0023
#03316:13
#03318:0013000000130013
#03312:0000130013000013
#03315:0000001300001300
#0331b:2300001300000000
#03317:0023
#05012:1313000000001300
#0501b:00130013000000000000000013000000
#05014:0000131300000000
#05019:00000000001300130000000000000000
#05015:0000000013130000
#05018:00000000000000000013001300000000
#05719:2313231300000000
#0571b:0000000023132313
#05714:1323132300000000
#05712:0000000013231323
#07512:2525000000000013
#07517:0000000000000013
#07519:2525000000000000
#0761b:1313
#07616:1313
#07618:0013000000130000
#07615:00130013
#07612:0000001300000013
#07719:1313
#07714:1313
#0771b:00130000
#07712:00000013
#07814:13
#07819:13
#0781b:00130013
#07812:00000000000000000013000000000000
#07816:0013
#07817:00000013000000000000001300000000
#07815:0000001600000000
#07913:00130013
#0791a:0013000000000000
#07919:0000130000130000
#07918:0000001300001300
#07914:0013000000130000
#07912:0000001300000013
#07917:0000000000000013
#07915:23
#0791b:23
#0811b:1313
#08115:0013000000130000
#08118:00130013
#08112:0000001300000013
#08217:13
#08216:0013
#08212:0023
#0821b:23
#0831b:1313000000130000
#08318:0000130000001313
#08312:0000130000130000
#08315:0000001313000000
#0841b:1300001300130013
#08415:1300001300000000
#08412:0013130013001300
#08417:00001313
#08416:0000000000130013
#09717:1300001300000000
#09716:00130013
#0971b:00130013
#09712:0000001300000000
#09710:41
#09817:00131300
#09812:00131300
#0981b:0000001300001300
#09814:0000000000130000
#09816:00000013
#09819:0000000000000013
#09917:13
#09912:2300001300000000
#09916:0000131300001300
#09919:0000000000000013
#0991b:00000013
#09914:0013000000000000
#10112:1300000000130000
#10116:0013000013000000
#10117:1300000000130000
#1011b:0013000013000000
#10818:00000013
#10815:0000000000000013
#1081b:2313000000000000
#10817:13
#10812:0000001300000000
#10912:1313000024001313
#10918:0014000000000014
#10914:0000001400140000
#1091b:0000001313130000
#10916:00240024
#1091a:24
#11416:00142222
#11412:13
#11412:13
#11415:0013000000000000
#1141b:00000013000000000000000000000000
#11418:00130000000022000000220000000000
#11517:13
#11518:0000001300001300
#11516:0013
#1151b:2313
#11512:00000013
#11514:0000000000130000
#11515:0000000000000013
#11616:0000000000131300
#1161b:00000013
#11619:00000000000000000000001200000000
#01117:13
#01118:0000001300001300
#01116:0013
#0111b:2313
#01112:00000013
#01114:0000000000130000
#01115:0000000000000013
#01316:13
#01315:0000001300001300
#01317:0013
#01312:2313
#0131b:00000013
#01319:0000000000130000
#01318:0000000000000013
#02917:00130000
#0291b:00000013
#02916:00000013
#02912:00130000
#02918:0000000000000033
#02914:0000003300000033
#02919:0000003300000000
#05116:00000014000024000000000000000000
#0511b:00000013
#05112:2424
#05118:24000000000000340000000000000000
#05110:41
#05317:00130013
#05312:00130013
#0531b:0000001300000000
#05315:1313
#05416:13131300
#0541b:00131300
#05412:0000001300001300
#05419:0000000000130000
#05417:00000013
#05414:0000000000000013
#0551b:2300001313000000
#05517:00130013
#05516:1300001313000000
#05514:0000000000000013
#05512:00000013
#10316:00000014000000140000000000000000
#1031b:00000013
#10312:2424
#10318:24
#1031a:0000002424000000
#10516:1300001300000000
#10517:00130013
#10512:00130013
#1051b:0000001300000000
#10616:00131300
#1061b:00131300
#10612:0000001300001300
#10619:0000000000130000
#10617:00000013
#10614:0000000000000013
#10716:13
#1071b:2300001300000000
#10717:0000131300001300
#10714:0000000000000013
#10712:00000013
#10719:0013000000000000
#11716:13
#11715:0000001300001300
#11717:0013
#11712:2313
#1171b:00000013
#11719:0000000000130000
#11718:0000000000000013
#11917:13
#11918:0000001300001300
#11916:0013
#1191b:2313
#11912:00000013
#11914:0000000000130000
#11915:0000000000000013
#01016:00000014
#01216:00000014
#01415:00000014
#01417:0000000000000014
#11817:0000000000131300
#11812:00000013
#11815:00000000000000000000001200000000
#03917:000000000000000000000000000000000000000000000000000000000000000000000000000000000000000000000000000000000000000000000000000000000000000000000000000000000000000000000000000000000000000000000000000000000000000000000000000000000000000000000000000000000000000000000000000000000000000000000000000000000000000000000000000000000000000000000000000000000000000000000000000000000000000000000000000000000000000000000000000000000000000000000000000000000000000000000000000000000000000000000000000000000000000000000000000000000000000000000000000000000000000000000000000000000000000000000000000000000000000000000000000000000000000000000000000000000000000000000000000000000000000000000000000000000000000000000000000000000000000000000000000000000000000000000000000000000000000000000000000000000000000000000000000000000000000000000000000000000000000000000000000000000000000000000000000000000000000000000000000000000000000000000000000000000000000000000000000000000000000000000000000000000000000000000000000000000000000000000000000000000000000000000000000000000000000000000000000000000000000000000000000000000000000000000000000000000000000000000000000000000000000000000000000000000000000000000000000000000000000000000000000000000000000000000000000000000000000000000000000000000000000000000000000000000000000000000000000000000000000000000000000000000000000000000000000000000000000000000000000000000000000000000000000000000000000000000000000000000000000000000013000000000000000000000000000000000000000000000000000000000000000000000000000000000000000000000000000000000000000000000000000000000000000000000000000000000000000000000000000000000000000000000000000000000000000000000000000000000000000000000000000000000000000000000000000000000000000000000000000000000000000000000000000000000000000000000000000000000000000000000000000000000000000000000000000000000000000000000000000000000000000000000000000000000000000000000000000000000000000000000000000000000000000000000000000000000000000000000000000000000000000000000000000000000000000000000000000000000000000000000000000000000000000000000000000000000000000000000000000000000000000000000000000000000000000000000000000000000000000000000000000000000000000000000000000000000000000000000000000000000000000000000000000000000000000000000000000000000000000000000000000000000000000000000000000000000000000000000000000000000000000000000000000000000000000000000000000000000000000000000000000000000000000000000000000000000000000000000000000000000000000000000000000000000000000000000000000000000000000000000000000000000000000000000000000000000000000000000000000000000000000000000000000000000000000000000000000000000000000000000000000000000000000000000000000000000000000000000000000000000000000000000000000000000000000000000000000000000000000000000000000000000000000000000000000000000000000000000000000000000000000000000000000000000000000000000000000000000000000000000000000000000000000000000000000000000000000000000000000000000000000000000000000000000000000000000000000000000000000000000000000000000000000000000000000000000000000000000000000000000000000000000000000000000000000000000000000000000000000000000000000000000000000000000000000000000000000000000000000000000000000000000000000000000000000000000000000000000000000000000000000000000000000000000000000000000000000000000000000000000000000000000000000000000000000000000000000000000000000000000000000000000000000000000000000000000000000000000000000000000000000000000000000000000000000000000000000000000000000000000000000000000000000000000000000000000000000000000000000000000000000000000000000000000000000000000000000000000000000000000000000000000000000000000000000000000000000000000000000000000000000000000000000000000000000000000000000000000000000000000000000000000000000000000000000000000000000000000000000000000000000000000000000000000000000000000000000000000000000000000000
#0391b:13
#03916:0000001300000000
#03912:13
#06116:1300001300000000
#06112:0000001300000000
#0611b:13
#11317:1300001300000000
#1131b:0000131300000000
#11312:13
#00956:53
#0435a:6444
#04356:00000024000024000000000000000000
#04354:14
#04352:0034
#04552:0000005300000000
#04556:00000023
#04757:63
#07052:0033
#0705b:0000000000430000
#08556:4400003400003400
#02352:63
#02357:0000002300000000
#03655:6300003300000000
#0365b:6343
#03652:0023000000000000
#03658:0023000000000000
#05952:00230000
#05957:00230000
#05956:00000053
#12152:63
#1215b:53
#04252:00000033
#0425b:00000043
#01856:00530000
#0185b:00530000
#01852:00000053
#01857:00000053
#09456:242400000000000000000000000000000000000000000000000000000000000000000000000000000000000000000000000000000000000000000000000000000000000000000000000000000000000000000000000000000000000000000000000000000000000000000000000000000000000000000000000000000000000000000000000000000000000000000000000000000000000000000000000000000000000000000000000000000000000000000000000000000000000000000000000000000000000000000000000000000000000000000000000000000000000000000000000000000000000000000000000000000000000000000000000000000000000000000000000000000000000000000000000000000000000000000000000000000000000000000000000000000000000000000000000000000000000000000000000000000000000000000000000000000000000000000000000000000000000000000000000000000000000000000000000000000000000000000000000000000000000000000000000000000000000000000000000000000000000000000000000000000000000000000000000000000000000000000000000000000000000000000000000000000000000000000000000000000000000000000000000000000000000000000000000000000000000000000000000000000000000000000000000000000000000000000000000000000000000000000000000000000000000000000000000000000000000000000000000000000000000000000000000000000000000000000000000000000000000000000000000000000000000000000000000000000000000000000000000000000000000000000000000000000000000000000000000000000000000000000000000000000000000000000000000000000000000000000000000000000000000000000000000000000000000000000000000000000000000000000000000000000000000000000000000000000000000000000000000000000000000000000000000000000000000000000000000000000000000000000000000000000000000000000000000000000000000000000000000000000000000000000000000000000000000000000000000000000000000000000000000000000000000000000000000000000000000000000000000000000000000000000000000000000000000000000000000000000000000000000000000000000000000000000000000000000000000000000000000000000000000000000000000000000000000000000000000000000000000000000000000000000000000000000000000000000000000000000000000000000000000000000000000000000000000000000000000000000000000000000000000000000000000000000000000000000000000000000000000000000000000000000000000000000000000000000000000000000000000000000000000000000000000000000000000000000000000000000000000000000000000000000000000000000000000000000000000000000000000000000000000000000000000000000000000000000000000000000000000000000000000000000000000000000000000000000000000000000000000000000000000000000000000000000000000000000000000000000000000000000000000000000000000000000000000000000000000000000000000000000000000000000000000000000000000000000000000000000000000000000000000000000000000000000000000000000000000000000000000000000000000000000000000000000000000000000000000000000000000000000000000000000000000000000000000000000000000000000000000000000000000000000000000000000000000000000000000000000000000000000000000000000000000000000000000000000000000000000000000000000000000000000000000000000000000000000000000000000000000000000000000000000000000000000000000000000000000000000000000000000000000000000000000000000000000000000000000000000000000000000000000000000000000000000000000000000000000000000000000000000000000000000000000000000000000000000000000000000000000000000000000000000000000000000000000000000000000000000000000000000000000000000000000000000000000000000000000000000000000000000000000000000000000000000000000000000000000000000000000000000000000000000000000000000000000000000000000000000000000000000000000000000000000000000000000000000000000000000000000000000000000000000000000000000000000000000000000000000000000000000000000000000000000000000000000000000000000000000000000000000000000000000000000000000000000000000000000000000000000000000000000000000000000000000000000000000000000000000000000000000000000000000000000000000000000000000000000000000000000000000000000000000000000000000000000000000000000000000000000000000000
#09352:64
#0935a:64
#12352:00240000
#1235a:00240000
#04852:63
#04857:63
#0605b:00230000
#06056:00230000
#05857:00000063
#05852:00330000
#0585b:0043
#02156:00630000
#0215b:13630000
#02157:00000063
#02152:00001363
#02256:00630000
#0225b:43630000
#02252:0033
#02052:00000063
#02057:00000063
#08656:0044001400000000
#08652:0033
#0865b:0043
#01752:1c
#02657:00630000
#02652:00630000
#0315b:53
#03156:0000002300000000
#06752:0023000000000000
#06755:63
#06758:0053
#0675b:0000000000230000
#06855:6353
#06852:0023000000000000
#06858:6353
#0685b:0000000000230000
#0495b:63
#04957:0023000000000000
#04952:0053
#04956:0000000000230000
#09556:00000024000000000000000000000000
#0955a:6444
#09554:14
#09552:0034
#10052:0063000000000000
#10056:6300001300000000
#1005b:00130000
#10252:00000033
#1025b:00000043
#11152:13
#12452:0036
#12458:0046
#03757:43
#0375b:0043
#03857:43
#0385b:0043
#03356:33
#03352:0033
#03456:33
#03452:0033
#05052:00000033
#0505b:00000043
#09757:0000005300000000
#09752:0000005300000000
#09756:00000023
#0975b:00000023
#09857:33
#09852:33
#09957:63
#10152:5300000000230000
#10157:5300000000230000
#10156:0023000063000000
#1015b:0023000063000000
#11557:63
#01157:63
#01356:53
#02552:1c
#02957:00530000
#0295b:00001353
#02956:00000053
#02952:13530000
#03057:00530000
#03052:33530000
#0305b:0043
#0285b:00000053
#02856:00000053
#04058:13
#0405b:0013
#04152:13
#04155:0013
#05156:00000024000024000000000000000000
#05152:5434
#05158:14
#0515a:0044
#0535b:0000006300000000
#05357:00000023
#05556:53
#0565b:53
#05656:53
#10356:00000024000000000000000000000000
#10352:5434
#10358:14
#1035a:0044
#1085b:0053000000000000
#10857:5300001300000000
#10852:00130000
#10556:0000006300000000
#1055b:0000006300000000
#10557:00000023
#10552:00000023
#10756:53
#10656:43
#1065b:43
#1105b:00430000
#11052:0033
#1125b:13
#11756:53
#11957:63
#0105b:0013
#01252:0013
#0145b:0013
#11652:0013
#11657:0013
#12052:0013
#12057:0013
#11856:0013
#1185b:0013
#0395b:63
#03957:000000000000000000000000000000000000000000000000000000000000000000000000000000000000000000000000000000000000000000000000000000000000000000000000000000000000000000000000000000000000000000000000000000000000000000000000000000000000000000000000000000000000000000000000000000000000000000000000000000000000000000000000000000000000000000000000000000000000000000000000000000000000000000000000000000000000000000000000000000000000000000000000000000000000000000000000000000000000000000000000000000000000000000000000000000000000000000000000000000000000000000000000000000000000000000000000000000000000000000000000000000000000000000000000000000000000000000000000000000000000000000000000000000000000000000000000000000000000000000000000000000000000000000000000000000000000000000000000000000000000000000000000000000000000000000000000000000000000000000000000000000000000000000000000000000000000000000000000000000000000000000000000000000000000000000000000000000000000000000000000000000000000000000000000000000000000000000000000000000000000000000000000000000000000000000000000000000000000000000000000000000000000000000000000000000000000000000000000000000000000000000000000000000000000000000000000000000000000000000000000000000000000000000000000000000000000000000000000000000000000000000000000000000000000000000000000000000000000000000000000000000000000000000000000000000000000000000000000000000000000000000000000000000000000000000000000000000000000000000000023000000000000000000000000000000000000000000000000000000000000000000000000000000000000000000000000000000000000000000000000000000000000000000000000000000000000000000000000000000000000000000000000000000000000000000000000000000000000000000000000000000000000000000000000000000000000000000000000000000000000000000000000000000000000000000000000000000000000000000000000000000000000000000000000000000000000000000000000000000000000000000000000000000000000000000000000000000000000000000000000000000000000000000000000000000000000000000000000000000000000000000000000000000000000000000000000000000000000000000000000000000000000000000000000000000000000000000000000000000000000000000000000000000000000000000000000000000000000000000000000000000000000000000000000000000000000000000000000000000000000000000000000000000000000000000000000000000000000000000000000000000000000000000000000000000000000000000000000000000000000000000000000000000000000000000000000000000000000000000000000000000000000000000000000000000000000000000000000000000000000000000000000000000000000000000000000000000000000000000000000000000000000000000000000000000000000000000000000000000000000000000000000000000000000000000000000000000000000000000000000000000000000000000000000000000000000000000000000000000000000000000000000000000000000000000000000000000000000000000000000000000000000000000000000000000000000000000000000000000000000000000000000000000000000000000000000000000000000000000000000000000000000000000000000000000000000000000000000000000000000000000000000000000000000000000000000000000000000000000000000000000000000000000000000000000000000000000000000000000000000000000000000000000000000000000000000000000000000000000000000000000000000000000000000000000000000000000000000000000000000000000000000000000000000000000000000000000000000000000000000000000000000000000000000000000000000000000000000000000000000000000000000000000000000000000000000000000000000000000000000000000000000000000000000000000000000000000000000000000000000000000000000000000000000000000000000000000000000000000000000000000000000000000000000000000000000000000000000000000000000000000000000000000000000000000000000000000000000000000000000000000000000000000000000000000000000000000000000000000000000000000000000000000000000000000000000000000000000000000000000000000000000000000000000000000000000000000000000000000000000000000000000000000000000000000000000000000000000000000000000
#03956:0000002300000000
#03952:53
#06152:0000006300000000
#06156:0000006300000000
#0615b:63
#1135b:0000005300000000
#11357:0000005300000000
#11352:53
#001330:120000000000000000000000000000000052005200000052005200000000000000000052005200000000000000000052
#001320:0000003434003400
#002320:34340000
#002330:005200000000000000000052005200000000000000000000220000000000000000000000000000000000000000000000
#002381:00122200
#0033b1:120000000000000000000000000000000052005200000052005200000000000000000052005200000000000000000052
#0033a1:0000003434003400
#0043a1:34340000
#0043b1:005200000000000000000052005200000000000000000000220000000000000000000000000000000000000000000000
#004360:00122200
#005330:120000000000000000000000000000000052005200000052005200000000000000000000220000000000000000000000
#005320:0000003434000000
#0063b0:120000000000000000000052005200000000000000000000220000000000000000000000000000000000000000000000
#0063a0:00340000
#007320:12000022
#0073c1:12000022
#0083c1:12
#008321:00000026
#008320:12
#008380:00000026
#009360:13
#0093b0:0000532300000000
#010360:1300005323000000
#010320:0053330000000000
#0103b1:1300005323000000
#010371:0053330000000000
#011371:13
#011321:0000532300000000
#012371:1300005323000000
#0123b1:0053330000000000
#012320:1300005323000000
#012360:0053330000000000
#013360:13
#0133b0:0000532300000000
#014360:1300005323000000
#014320:0053330000000000
#0143b1:1300005323000000
#014371:0053330000000000
#015321:13330000
#015331:0033002300000000
#0153b1:00001333
#0153a1:0000000000330023
#017371:00130000
#0173b1:0000002300000000
#017361:0013
#017321:0000000000230000
#0173b1:00000013
#017371:0000000000000033
#0183b1:33330000
#018371:0033000023000000
#018360:00130000
#018320:0023
#018320:00000013
#018340:0000000000000033
#019360:23
#018371:00000013
#018391:0000000000000033
#0193b1:23
#0193b1:00000013
#019371:0000000000000023
#019320:0000000000000013
#020320:23
#020320:00130000
#020360:0000002300000000
#0203b1:0000001323000000
#020321:00000013
#020351:0000000000000033
#021361:33530000
#021341:0000003300000000
#021321:0023
#020370:00000013
#0203a0:0000000000000033
#0213b0:23
#0213b0:00130000
#021390:0000003300000033
#021370:00003353
#0223b0:23
#021321:00000013
#021351:0000000000000033
#022361:33530000
#022341:0000003300000000
#022321:0023
#0223b0:00130000
#022390:0000003300000000
#022370:0023
#023320:13000023
#023370:0000005300000000
#025320:00130000
#025360:0000002300000000
#0253b0:0013
#025370:0000000000230000
#025320:00000013
#025360:0000000000000033
#026320:33330000
#026360:0033000023000000
#026371:00130000
#0263b1:0023
#0263b1:0000000000000013
#027371:23
#026360:0000000000000013
#027320:23
#027320:00000013
#027360:0000000000000023
#0273b1:0000000000000013
#028371:23
#0283b1:00130000
#028371:0000002300000000
#028320:0000001300000000
#028360:0023
#0283b0:00000013
#028380:0000000000000033
#029370:33530000
#029390:0000003300000000
#0293b0:0023
#028361:00000013
#028331:0000000000000033
#029321:23
#029321:00130000
#029341:0000003300000033
#029361:00003353
#030321:23
#0293b0:00000013
#029380:0000000000000033
#030370:33530000
#030390:0000003300000000
#0303b0:0023
#030321:00130000
#030341:0000003300000000
#030361:0023
#0313b1:13000023
#031361:0000005300000000
#035321:13
#035361:0033230000000000
#0353b0:0013230000000000
#0353b0:0013
#035370:0000000000332300
#035321:0000000000132300
#036351:1300532300000000
#036321:0053000000000000
#0363b0:1300533323000000
#036380:0053000000000000
#0393b0:13000023
#039370:000000000000000000000000000000000000000000000000000000000000000000000000000000000000000000000000000000000000000000000000000000000000000000000000000000000000000000000000000000000000000000000000000000000000000000000000000000000000000000000000000000000000000000000000000000000000000000000000000000000000000000000000000000000000000000000000000000000000000000000000000000000000000000000000000000000000000000000000000000000000000000000000000000000000000000000000000000000000000000000000000000000000000000000000000000000000000000000000000000000000000000000000000000000000000000000000000000000000000000000000000000000000000000000000000000000000000000000000000000000000000000000000000000000000000000000000000000000000000000000000000000000000000000000000000000000000000000000000000000000000000000000000000000000000000000000000000000000000000000000000000000000000000000000000000000000000000000000000000000000000000000000000000000000000000000000000000000000000000000000000000000000000000000000000000000000000000000000000000000000000000000000000000000000000000000000000000000000000000000000000000000000000000000000000000000000000000000000000000000000000000000000000000000000000000000000000000000000000000000000000000000000000000000000000000000000000000000000000000000000000000000000000000000000000000000000000000000000000000000000000000000000000000000000000000000000000000000000000000000000000000000000000000000000000000000000000000000000000000000000053000000000000000000000000000000000000000000000000000000000000000000000000000000000000000000000000000000000000000000000000000000000000000000000000000000000000000000000000000000000000000000000000000000000000000000000000000000000000000000000000000000000000000000000000000000000000000000000000000000000000000000000000000000000000000000000000000000000000000000000000000000000000000000000000000000000000000000000000000000000000000000000000000000000000000000000000000000000000000000000000000000000000000000000000000000000000000000000000000000000000000000000000000000000000000000000000000000000000000000000000000000000000000000000000000000000000000000000000000000000000000000000000000000000000000000000000000000000000000000000000000000000000000000000000000000000000000000000000000000000000000000000000000000000000000000000000000000000000000000000000000000000000000000000000000000000000000000000000000000000000000000000000000000000000000000000000000000000000000000000000000000000000000000000000000000000000000000000000000000000000000000000000000000000000000000000000000000000000000000000000000000000000000000000000000000000000000000000000000000000000000000000000000000000000000000000000000000000000000000000000000000000000000000000000000000000000000000000000000000000000000000000000000000000000000000000000000000000000000000000000000000000000000000000000000000000000000000000000000000000000000000000000000000000000000000000000000000000000000000000000000000000000000000000000000000000000000000000000000000000000000000000000000000000000000000000000000000000000000000000000000000000000000000000000000000000000000000000000000000000000000000000000000000000000000000000000000000000000000000000000000000000000000000000000000000000000000000000000000000000000000000000000000000000000000000000000000000000000000000000000000000000000000000000000000000000000000000000000000000000000000000000000000000000000000000000000000000000000000000000000000000000000000000000000000000000000000000000000000000000000000000000000000000000000000000000000000000000000000000000000000000000000000000000000000000000000000000000000000000000000000000000000000000000000000000000000000000000000000000000000000000000000000000000000000000000000000000000000000000000000000000000000000000000000000000000000000000000000000000000000000000000000000000000000000000000000000000000000000000000000000000000000000000000000000000000000000000000000000000000000
#039321:13000023
#039361:0000005300000000
#040321:1323000000000000
#040381:0000132300000000
#040351:0000000013230000
#0403b1:0000000000001323
#0413b1:1323000000000000
#041351:0000132300000000
#041381:0000000013230000
#041321:0000000000001323
#0433a1:1400002400000000
#043361:00000054000000000000000000000000
#043360:0000001400000000
#043340:00000000000000340000000000000000
#043320:0024
#0433b0:0000000000001323
#043351:0000000000000013
#044351:23
#044380:1323000000000000
#044321:0013230000000000
#044380:0000132300000000
#044351:0000001323000000
#0443b0:0000000013230000
#044321:0000000000132300
#0443b0:0000000000001323
#044351:0000000000000013
#045351:23
#045321:0000001300000000
#045361:00000053
#046321:23
#047371:13
#0473b1:0053230000000000
#048321:13
#048361:0053230000000000
#048370:13
#0483b0:0053332300000000
#0493b0:13230000
#049370:0053000000000000
#049320:00001323
#049360:0000000000530000
#051320:1400002400000000
#051360:00000054000000000000000000000000
#051361:0000001400000000
#051381:00000000000000340000000000000000
#0513a1:0024
#051321:0000000000001323
#051380:0000000000000013
#052380:23
#052351:1323000000000000
#0523b0:0013230000000000
#052351:0000132300000000
#052380:0000001323000000
#052321:0000000013230000
#0523b0:0000000000132300
#052321:0000000000001323
#052380:0000000000000013
#053380:23
#0533b0:0000001300000000
#053370:00000053
#0543b0:23
#055360:13
#055320:0053230000000000
#0563b0:13
#056370:0053230000000000
#056361:13
#056321:0053332300000000
#058371:00000013
#059321:23
#059370:13330000
#0593b0:0000002300000000
#059321:00130000
#059361:0000002300000000
#059361:00000013
#0603b1:23
#060360:13330000
#060320:0000002300000000
#0603b1:00130000
#060371:0000002300000000
#0613b1:13000023
#061361:0000003300000000
#061320:0000001300000000
#061370:00000023
#063370:12
#065370:22
#067350:13533300
#067320:0053000000000000
#068350:33533323
#068320:0053000000000000
#067381:13003353
#0673b1:0000000000530000
#068381:33533323
#0683b1:0000000000530000
#070321:13230000000000000000000000000000
#070380:00132300000000000000000000000000
#070351:00001323000000000000000000000000
#0703b0:00000013230000000000000000000000
#070321:00000000132300000000000000000000
#070380:00000000001323000000000000000000
#070351:00000000000013230000000000000000
#0703b0:00000000000000132300000000000000
#087330:1200000000000000000000520052005200520000000000520052000000000052
#087320:0000003434003400
#088320:34340000
#088330:0052000000000052005200000000000022000000000000000000000000000000
#088371:00122200
#0893b1:1200000000000000000000520052005200520000000000520052000000000052
#0893a1:0000003434003400
#0903a1:34340000
#0903b1:0052000000000052005200000000000022000000000000000000000000000000
#090370:00122200
#093320:14
#094360:54
#094320:00000026
#0933a1:14
#094361:005400000000000000000000000000000000000000000000000000000000000000000000000000000000000000000000000000000000000000000000000000000000000000000000000000000000000000000000000000000000000000000000000000000000000000000000000000000000000000000000000000000000000000000000000000000000000000000000000000000000000000000000000000000000000000000000000000000000000000000000000000000000000000000000000000000000000000000000000000000000000000000000000000000000000000000000000000000000000000000000000000000000000000000000000000000000000000000000000000000000000000000000000000000000000000000000000000000000000000000000000000000000000000000000000000000000000000000000000000000000000000000000000000000000000000000000000000000000000000000000000000000000000000000000000000000000000000000000000000000000000000000000000000000000000000000000000000000000000000000000000000000000000000000000000000000000000000000000000000000000000000000000000000000000000000000000000000000000000000000000000000000000000000000000000000000000000000000000000000000000000000000000000000000000000000000000000000000000000000000000000000000000000000000000000000000000000000000000000000000000000000000000000000000000000000000000000000000000000000000000000000000000000000000000000000000000000000000000000000000000000000000000000000000000000000000000000000000000000000000000000000000000000000000000000000000000000000000000000000000000000000000000000000000000000000000000000000000000000000000000000000000000000000000000000000000000000000000000000000000000000000000000000000000000000000000000000000000000000000000000000000000000000000000000000000000000000000000000000000000000000000000000000000000000000000000000000000000000000000000000000000000000000000000000000000000000000000000000000000000000000000000000000000000000000000000000000000000000000000000000000000000000000000000000000000000000000000000000000000000000000000000000000000000000000000000000000000000000000000000000000000000000000000000000000000000000000000000000000000000000000000000000000000000000000000000000000000000000000000000000000000000000000000000000000000000000000000000000000000000000000000000000000000000000000000000000000000000000000000000000000000000000000000000000000000000000000000000000000000000000000000000000000000000000000000000000000000000000000000000000000000000000000000000000000000000000000000000000000000000000000000000000000000000000000000000000000000000000000000000000000000000000000000000000000000000000000000000000000000000000000000000000000000000000000000000000000000000000000000000000000000000000000000000000000000000000000000000000000000000000000000000000000000000000000000000000000000000000000000000000000000000000000000000000000000000000000000000000000000000000000000000000000000000000000000000000000000000000000000000000000000000000000000000000000000000000000000000000000000000000000000000000000000000000000000000000000000000000000000000000000000000000000000000000000000000000000000000000000000000000000000000000000000000000000000000000000000000000000000000000000000000000000000000000000000000000000000000000000000000000000000000000000000000000000000000000000000000000000000000000000000000000000000000000000000000000000000000000000000000000000000000000000000000000000000000000000000000000000000000000000000000000000000000000000000000000000000000000000000000000000000000000000000000000000000000000000000000000000000000000000000000000000000000000000000000000000000000000000000000000000000000000000000000000000000000000000000000000000000000000000000000000000000000000000000000000000000000000000000000000000000000000000000000000000000000000000000000000000000000000000000000000000000000000000000000000000000000000000000000000000000000000000000000000000000000000000000000000000000000000000000000000000000000000000000000000000000000000000000000000000000000000000000000000000000000000000000000000000000000000
#094381:00000026
#0953a1:1400002400000000
#095361:00000054000000000000000000000000
#0953b1:00000013
#095381:0000000000000023
#095350:0000000000000013
#096320:23
#096371:13
#0963b1:0023000000000000
#096320:0013000000000000
#096350:00230000
#096381:00130000
#0963b1:0000002300000000
#096360:0000001300000000
#096320:0023
#0963b1:0013
#096371:0000000000230000
#096320:0000000000130000
#096360:00000023
#0963b1:00000013
#096381:0000000000000023
#096350:0000000000000013
#097320:23
#097370:0000001300000000
#0973b0:00000053
#098370:23
#097321:0000001300000000
#097361:00000053
#098321:23
#099371:13
#0993b1:0033230000000000
#100361:13
#1003b1:0053230000000000
#100320:0013000000000000
#100360:0000332300000000
#101320:13230000
#101360:0033000000000000
#101371:13230000
#1013b1:0033000000000000
#1013b1:00001323
#101371:0000000000330000
#101360:00001323
#101320:0000000000330000
#103320:1400002400000000
#103360:00000054000000000000000000000000
#103320:00000013
#103350:0000000000000023
#103381:0000000000000013
#1043b1:23
#104360:13
#104320:0023000000000000
#1043b1:0013000000000000
#104381:00230000
#104350:00130000
#104320:0000002300000000
#104371:0000001300000000
#1043b1:0023
#104320:0013
#104360:0000000000230000
#1043b1:0000000000130000
#104371:00000023
#104320:00000013
#104350:0000000000000023
#104381:0000000000000013
#1053b1:23
#105361:0000001300000000
#105321:00000053
#106361:23
#1053b0:0000001300000000
#105370:00000053
#1063b0:23
#107360:13
#107320:0033230000000000
#108370:13
#108320:0053230000000000
#1083b1:0013000000000000
#108371:0000332300000000
#110361:00000013
#110321:0000000000000053
#111321:23
#111371:00130000
#1113b1:0000002300000000
#111371:00000013
#1113b1:0000000000000053
#1123b1:23
#112361:00130000
#112321:0000002300000000
#113321:13000023
#113371:0000003300000000
#1133b0:0000001300000000
#113360:00000023
#115370:13
#115320:0000532300000000
#116370:1300005323000000
#1163b0:0053330000000000
#116321:1300005323000000
#116361:0053330000000000
#117361:13
#1173b1:0000532300000000
#118361:1300005323000000
#118321:0053330000000000
#1183b0:1300005323000000
#118370:0053330000000000
#119370:13
#119320:0000532300000000
#120370:1300005323000000
#1203b0:0053330000000000
#120321:1300005323000000
#120361:0053330000000000
#121321:13
#122361:0034000000000000
#1233a1:00540000
#124321:0026
#1213b0:13
#122360:000000000000000000000000000000000000000000000000000000000000000000000000000000000000000000000000000000000000000000000000000000000000000000000000000000000000000000000000000000000000000000000000000000000000000000000000000000000000000000000000000000000000000000000000000000000000000000000000000000000000000000000000000000000000000000000000000000000000000000000000000000000000000000000000000000000000000000000000000000000000000000000000000000000000000000000000000000000000000000000000005400000000000000000000000000000000000000000000000000000000000000000000000000000000000000000000000000000000000000000000000000000000000000000000000000000000000000000000000000000000000000000000000000000000000000000000000000000000000000000000000000000000000000000000000000000000000000000000000000000000000000000000000000000000000000000000000000000000000000000000000000000000000000000000000000000000000000000000000000000000000000000000000000000000000000000000000000000000000000000000000000000000000000000000000000000000000000000000000000000000000000000000000000000000000000000000000000000000000000000000000000000000000000000000000000000000000000000000000000000000000000000000000000000000000000000000000000000000000000000000000000000000000000000000000000000000000000000000000000000000000000000000000000000000000000000000000000000000000000000000000000000000000000000000000000000000000000000000000000000000000000000000000000000000000000000000000000000000000000000000000000000000000000000000000000000000000000000000000000000000000000000000000000000000000000000000000000000000000000000000000000000000000000000000000000000000000000000000000000000000000000000000000000000000000000000000000000000000000000000000000000000000000000000000000000000000000000000000000000000000000000000000000000000000000000000000000000000000000000000000000000000000000000000000000000000000000000000000000000000000000000000000000000000000000000000000000000000000000000000000000000000000000000000000000000000000000000000000000000000000000000000000000000000000000000000000000000000000000000000000000000000000000000000000000000000000000000000000000000000000000000000000000000000000000000000000000000000000000000000000000000000000000000000000000000000000000000000000000000000000000000000000000000000000000000000000000000000000000000000000000000000000000000000000000000000000000000000000000000000000000000000000000000000000000000000000000000000000000000000000000000000000000000000000000000000000000000000000000000000000000000000000000000000000000000000000000000000000000000000000000000000000000000000000000000000000000000000000000000000000000000000000000000000000000000000000000000000000000000000000000000000000000000000000000000000000000000000000000000000000000000000000000000000000000000000000000000000000000000000000000000000000000000000000000000000000000000000000000000000000000000000000000000000000000000000000000000000000000000000000000000000000000000000000000000000000000000000000000000000000000000000000000000000000000000000000000000000000000000000000000000000000000000000000000000000000000000000000000000000000000000000000000000000000000000000000000000000000000000000000000000000000000000000000000000000000000000000000000000000000000000000000000000000000000000000000000000000000000000000000000000000000000000000000000000000000000000000000000000000000000000000000000000000000000000000000000000000000000000000000000000000000000000000000000000000000000000000000000000000000000000000000000000000000000000000000000000000000000000000000000000000000000000000000000000000000000000000000000000000000000000000000000000000000000000000000000000000000000000000000000000000000000000000000000000000000000000000000000000000000000000000000000000000000000000000000000000000000000000000000000000000000000000000000000000000000000000000000000000000000000000000000000000000000000000000000000000000000000000000000
#123320:00540000
#124380:0026
