This file was generated by Ched 2.6.2.0.
#TITLE ""
#ARTIST ""
#DESIGNER ""
#DIFFICULTY 0
#PLAYLEVEL
#SONGID ""
#WAVE ""
#WAVEOFFSET 0
#JACKET ""
#REQUEST "ticks_per_beat 480"
#00002: 4
#BPM01: 170
#00008: 01
#TIL00: ""
#HISPEED 00
#MEASUREHS 00
#0011a:14141414
#0091a:1414
#00914:00140014
#00910:41
#01018:16161600
#01418:1616
#01412:00160000
#00312:14141414
#00519:14140000
#00513:00001414
#0171a:14140000
#01714:00001414
#0401a:14
#04014:00140000
#04018:0014
#04012:00000014
#0441a:14
#04414:00140000
#04419:0014
#04413:00000014
#0471a:1414
#04714:00140014
#04818:1414
#04812:00140014
#04618:0014
#04612:00140014
#07013:0014
#07019:0014
#0711a:1414
#07114:00140000
#07112:00000014
#07218:1414
#07214:00140000
#07212:00000014
#0731a:14
#07319:0014
#07314:14
#07313:0014
#07514:14
#07712:14
#07713:0014
#07718:14
#07719:0014
#11414:0000001300130000
#11419:00001313
#12612:0000000000140000
#1261a:0000000000140000
#00619:1414
#00613:00140000
#01512:14
#01614:14
#02318:16
#02315:0016
#04312:00000014
#04318:26
#04310:41
#04518:1400001400000000
#04512:00140000
#06112:14
#0611a:14
#06218:0014
#11514:14140000
#1151a:14140000
#11518:0014
#11512:00000014
#11612:0016
#11618:16
#11615:00160000
#0871f:11
#0131a:14
#01314:00140000
#01318:0014
#01312:00000014
#02413:0014
#02419:0014
#03213:0014
#03219:0014
#04114:14
#0411a:14
#04118:0014
#04112:0014
#04219:14141415
#04213:14141400
#04212:00000015
#07418:1400001400000000
#07412:1414
#07419:0000000000140000
#07413:00000014
#0741a:0000000000000014
#07814:14
#0781a:14
#07813:0014
#07819:0014
#08412:0014
#08418:0000000000140000
#08413:00000014
#08419:0000000000000014
#08416:0014000000000000
#09612:14
#09618:00140000
#09613:0014
#09619:00000014
#0991a:14
#09914:00140014
#09918:0014
#09912:14
#1001a:14
#10018:00140014
#10014:0014
#10012:14
#09814:0014
#09818:00140014
#0951a:00000014
#0951f:21
#09516:26
#09714:1400001400000000
#0971a:00140000
#09710:41
#11718:14140000
#11712:14140000
#11714:0014
#1171a:00000014
#11818:0016
#11812:16
#11815:00160000
#11914:14140000
#1191a:14140000
#11918:00001414
#11912:00001414
#12012:0016
#12018:16
#12015:00160000
#01912:14140000
#01918:00001414
#01112:1414
#01118:00140014
#01212:16161600
#02514:14140000
#0251a:00001414
#03112:16
#03115:0016
#02718:14140000
#02712:00001414
#02612:14
#0281a:14
#02810:41
#0331a:1414
#03314:00140014
#03418:1414
#03412:00140014
#03912:14
#0391a:14
#05212:14
#05218:00140000
#05213:0014
#05219:00000014
#05514:1414
#0551a:00140014
#05612:1414
#05618:00140014
#05412:0014
#05418:00140014
#0511a:00000014
#05112:26
#05110:41
#05314:1400001400000000
#0531a:00140000
#05712:14
#0571a:0014
#05812:14
#0581a:0014
#05918:00000014
#06012:00000014
#08514:14000014
#08518:0000001400000000
#08512:0000001400000000
#0851a:00000014
#08612:0014000000000000
#08618:0014000000000000
#0861a:0014
#08614:0014
#09416:14
#1041a:14
#10414:00140000
#10419:0014
#10413:00000014
#10712:14
#10718:00140014
#10714:0014
#1071a:14
#10812:14
#10814:00140014
#10818:0014
#1081a:14
#10618:0014
#10614:00140014
#10312:00000014
#10314:26
#10518:1400001400000000
#10512:00140000
#07612:14
#07618:00140000
#07614:0014
#0761a:00000014
#07912:14
#07914:00140000
#07916:0014
#07918:00000014
#08014:14
#08016:00140000
#08018:0014
#0801a:00000014
#08112:14
#08115:00140014
#08118:0014
#0821a:14
#08217:00140014
#08214:0014
#08312:14
#08316:0000001400000000
#0831a:00000014
#06910:41
#01552:64
#01654:64
#02358:56
#02355:0026
#04558:0000005400000000
#06152:64
#0615a:64
#04154:54
#0415a:54
#04158:0064
#04152:0064
#04358:56
#07853:0014
#07859:0014
#09754:0000006400000000
#09556:56
#03152:66
#03155:0026
#02652:54
#0285a:54
#03952:64
#0395a:54
#05354:0000006400000000
#05752:64
#0575a:0054
#05852:64
#0585a:0054
#05152:66
#09456:24
#10558:0000005400000000
#10354:66
#002340:14342400
#004380:14342400
#007320:14
#007340:0024
#0073a1:14
#007381:0024
#008331:14
#008321:0024
#008390:14
#0083a0:0024
#015320:14
#016340:34
#016320:00000024
#0183a0:14
#018380:0024
#020320:14
#020340:0024
#0213a0:14240000
#021340:00001424
#022380:14240000
#022320:00001424
#023380:16
#023350:0056
#024380:26
#026320:14
#026340:0024
#0283a0:14
#028380:0024
#029320:14240000
#029380:00001424
#030340:14240000
#0303a0:00001424
#031320:16
#031350:0056
#032320:26
#0353a0:14
#035380:00240000
#035320:0014
#035340:00000024
#036390:1400003424000000
#037320:14
#037340:00240000
#0373a0:0014
#037380:00000024
#038330:1400003424000000
#039320:14
#039340:00000024
#0393a1:14
#039381:00000024
#041341:14
#041321:00240000
#0413a0:14
#041380:00240000
#041380:0014
#0413a0:00000024
#041321:0014
#041341:00000024
#043381:16
#043361:0000003626000000
#045381:0000001400000000
#0463a1:24
#0493a1:14
#049381:00240000
#049321:0014
#049341:00000024
#0503a1:14
#050381:00240000
#050321:0014
#050341:00000024
#051321:16
#051341:0000003626000000
#053341:0000001400000000
#054321:24
#057321:14
#057341:00240000
#0573a1:0014
#057381:00000024
#058321:14
#058341:00240000
#0583a1:0014
#058381:00000024
#059341:14
#059321:0024
#060381:14
#0603a1:0024
#061321:14
#062341:24
#0613a0:14
#062380:24
#063350:13
#065350:23
#067390:1323
#068340:1323
#069390:13333333
#070390:23
#087340:13
#088340:0023
#089390:13
#090390:0023
#091340:13
#092340:0023
#093360:14
#094360:34
#094330:0000002a
#095360:16
#095380:0000003626000000
#097340:0000001400000000
#098320:24
#101340:14
#101320:00240000
#101380:0014
#1013a0:00000024
#102340:14
#102320:00240000
#102380:0014
#1023a0:00000024
#103340:16
#103320:0000003626000000
#105380:0000001400000000
#1063a0:24
#109380:14
#1093a0:00240000
#109340:0014
#109320:00000024
#110380:14
#1103a0:00240000
#110340:0014
#110320:00000024
#1113a0:1424
#112320:1424
#113380:14
#114380:24
#121360:18
#122380:0034000000000000
#124360:0028
