This file was generated by Ched 2.6.1.0.
#TITLE ""
#ARTIST ""
#DESIGNER ""
#DIFFICULTY 0
#PLAYLEVEL
#SONGID ""
#WAVE ""
#WAVEOFFSET 0
#JACKET ""
#REQUEST "ticks_per_beat 480"
#00002: 4
#BPM01: 165
#BPM02: 150
#BPM03: 145
#BPM04: 140
#BPM05: 120
#BPM06: 100
#BPM07: 110
#BPM08: 144
#BPM09: 137
#00008: 01
#01208: 01
#00908: 02000304
#10708: 0208
#01008: 0506
#11208: 0005
#01108: 0007
#10808: 0907
#TIL00: ""
#HISPEED 00
#MEASUREHS 00
#00212:1414
#0011a:1414
#01319:1414
#01310:41
#01513:1414
#01716:1414
#01912:14
#01916:0014
#0201a:14
#02016:0014
#02112:1414
#0221a:1414
#02312:1414
#0291a:1414
#03012:1414
#0311a:1414
#02619:14
#02613:0014
#02719:14
#02713:0014
#02819:14
#0331a:0014
#03416:14
#03412:0014
#03512:14
#03516:0014
#0361a:14
#03615:0016
#03712:16
#03710:41
#03918:16
#04112:16
#04115:0016
#04318:16
#04315:0016
#04519:1414
#04513:1414
#04614:18181800
#04715:0016
#04718:26
#04710:41
#04913:1414
#04919:00140014
#05013:14
#05018:0016
#05112:16
#05115:0016
#05212:0016
#05312:1414
#05318:1414
#05414:1414
#0541a:1414
#05515:0016
#05512:26
#05612:0016
#05719:1414
#05713:00140014
#05819:14
#05812:0016
#05918:16
#05915:0016
#06018:0016
#0611a:1414
#06114:1414
#06218:14
#06212:14
#04818:0016
#07712:14140000
#07718:0014
#0771f:11
#08018:1414
#08014:00140014
#08313:14141414
#08319:14141414
#08412:15151500
#08419:15151500
#06912:14
#0691a:0014
#07012:1616
#07018:00160000
#07010:41
#0711a:14
#07112:0014
#07218:1616
#07212:00160000
#07414:1414
#0741a:1414
#07612:1414
#07618:1414
#0781a:14140000
#07814:0014
#07912:14140000
#07916:0014
#08515:0016
#08512:26
#0851f:21
#08918:16
#08915:0016
#0901a:0014
#09012:0014
#09315:0016
#09318:26
#0941a:0014
#09412:0014
#09712:16
#09715:0016
#09812:0014
#0981a:0014
#08612:0014
#0861a:0014
#08610:0041
#09912:14
#09918:14
#1001a:14
#10014:14
#10118:1616
#10112:00160016
#10218:16
#10212:00001414
#1021a:00001414
#10312:14
#1031a:1414
#10314:0014
#10412:16
#10415:00160000
#1051a:14
#10512:1414
#10518:0014
#10618:16
#10615:00160000
#11312:00140000
#1121a:0000000000000000000000000000000000140000000000000000000000000000
#08718:1616
#08712:00160016
#08818:16
#08812:0016
#09512:1616
#09518:00160016
#09612:16
#09618:0016
#02510:41
#03752:66
#03958:56
#04152:66
#04155:0026
#04358:56
#04355:0026
#04755:0026
#04758:66
#05152:66
#05155:0026
#05555:0026
#05552:56
#05958:56
#05955:0026
#08555:0026
#08552:56
#08958:56
#08955:0026
#09355:0026
#09358:66
#09752:66
#09755:0026
#09952:64
#09958:64
#1005a:54
#10054:54
#10452:66
#10455:00260000
#10658:56
#10655:00260000
#1125a:0000000000000000000000000000000000640000000000000000000000000000
#0033a0:14
#0043a0:24
#005320:14
#006320:24
#007360:14
#008360:24
#009330:1434
#010330:3434
#012330:0000002400000000
#009391:1434
#010391:3434
#012391:0000002400000000
#014391:1424
#016331:1424
#018361:1424
#024381:16
#025351:26
#032321:16
#033351:26
#037321:16
#038351:26
#039381:16
#040351:26
#041321:16
#041351:0056
#042321:26
#043381:16
#043351:0056
#044381:26
#047381:16
#047351:0056
#048381:26
#051321:16
#051351:0056
#052321:26
#055321:16
#055351:0056
#056321:26
#059381:16
#059351:0056
#060381:26
#062321:0014
#063321:34343434
#064321:24
#062380:0014
#063380:34343434
#064380:24
#064350:0016
#065330:2a
#0733a0:1424
#073341:1424
#075321:1424
#075380:1424
#081380:14
#0813a0:0024
#082340:14
#082320:0024
#085320:16
#085350:0056
#086320:26
#089380:16
#089350:0056
#090380:26
#0913a0:14
#091380:0024
#091341:14
#091321:0024
#092321:14
#092341:0024
#092380:14
#0923a0:0024
#093380:16
#093350:0056
#094380:26
#097320:16
#097350:0056
#098320:26
#099320:14
#099340:0024
#099381:14
#0993a1:0024
#1003a1:14
#100381:0024
#100340:14
#100320:0024
#104320:1626
#104350:00560000
#106380:1626
#106350:00560000
#107320:14
#109340:34
#110320:24
#1073a1:14
#109381:34
#1103a1:24
#1123a1:0000000000000000000000000000000000140000000000000000000000000000
#113381:24
