This file was generated by Ched 2.6.2.0.
#TITLE "easy"
#ARTIST ""
#DESIGNER ""
#DIFFICULTY 0
#PLAYLEVEL
#SONGID ""
#WAVE ""
#WAVEOFFSET 0
#JACKET ""
#REQUEST "ticks_per_beat 480"
#00002: 4
#BPM01: 165
#BPM02: 150
#BPM03: 145
#BPM04: 120
#BPM05: 100
#BPM06: 110
#BPM07: 144
#BPM08: 137
#00008: 01
#01108: 01
#00808: 02000303
#10608: 0207
#00908: 0405
#11108: 0004
#01008: 0006
#10708: 0806
#TIL00: ""
#HISPEED 00
#MEASUREHS 00
#11214:00140000
#00019:14
#00113:14
#0061a:14
#00712:14
#0121a:14
#01210:41
#0131a:14
#01414:14
#01514:14
#02019:14
#01618:14
#01718:14
#01812:14
#01912:14
#02113:14
#06018:16
#06012:0016
#06118:16
#06112:0016
#06319:0014
#06313:0014
#02812:14
#02810:41
#0291a:14
#03012:14
#02219:14
#02518:14
#02614:14
#02718:14
#03319:14
#03719:14
#03813:14
#04113:14
#04218:14
#04314:14
#04418:14
#04514:14
#0701a:14
#07114:14
#06914:14
#06910:41
#0681a:14
#09818:16
#09812:0016
#09918:16
#09912:0016
#10114:14
#10118:0014
#10214:14
#10210:41
#10715:16
#08518:0016
#08510:41
#08612:1616
#08712:16
#08718:0016
#08912:0016
#09018:1616
#09318:0016
#09412:16
#09418:0016
#09512:16
#09518:0016
#09712:0016
#07418:14
#07512:14
#07312:14
#07218:14
#0801a:14
#08014:0014
#08118:14
#08112:0014
#05718:16
#05712:0016
#05612:1616
#05518:0016
#05312:16
#05318:0016
#05218:0016
#05212:16
#05118:0016
#04918:16
#04912:0016
#04812:0016
#04818:16
#04712:0016
#0311a:14
#03212:14
#05912:0016
#06218:16
#06413:14
#06419:14
#09118:16
#09112:0016
#10018:16
#0761f:11
#10815:26
#08412:26
#0841f:21
#04618:26
#04610:41
#002380:14
#003380:24
#004340:14
#005340:24
#008350:1636
#009350:3636
#011350:26
#023330:14
#024330:24
#034330:14
#035330:34
#036330:24
#039390:14
#040390:24
#046380:16
#047380:26
#050320:16
#051320:26
#054380:16
#055380:26
#058320:16
#059320:26
#076380:14
#077380:24
#078340:14
#079340:24
#082380:14
#083380:24
#084320:16
#085320:26
#088380:16
#089380:26
#092320:16
#093320:26
#096380:16
#097380:26
#1033a0:14
#1043a0:24
#105320:14
#106320:24
#108350:16
#109350:26
#111380:0014
#112380:24
