This file was generated by Ched 2.6.2.0.
#TITLE "ex"
#ARTIST ""
#DESIGNER ""
#DIFFICULTY 0
#PLAYLEVEL
#SONGID ""
#WAVE ""
#WAVEOFFSET 0
#JACKET ""
#REQUEST "ticks_per_beat 480"
#00002: 4
#BPM01: 165
#BPM02: 120
#BPM03: 150
#BPM04: 110
#BPM05: 145
#BPM06: 100
#BPM07: 144
#BPM08: 137
#00008: 01
#01108: 0101
#00908: 0206
#11108: 0002
#10608: 0307
#00808: 03000505
#10708: 08080404
#01008: 0004
#TIL00: ""
#HISPEED 00
#MEASUREHS 00
#01219:0013000000000000
#0121b:00130000
#01212:2300000000000013
#01217:2300000000000013
#01216:00130000
#01210:41
#0131b:0013130000000000
#01312:0013
#01317:0013
#01316:0013130000000000
#03812:1300000000130000
#03818:0000130000130013
#0381b:0000001300000000
#03815:0013001300000013
#04414:13
#04413:0013000000000000
#04412:0000130000001414
#0441a:0013000000001414
#04419:13
#0441b:00130000
#04812:13130013
#0481b:1313
#00318:0000000013000013
#0031b:13
#00312:1313
#00315:0000001300001300
#00515:0013
#00512:13
#00518:00001313
#00612:13
#0061b:0013
#00618:00000013
#00712:0000000000000013
#0071b:0000000013000013
#00817:0013
#00812:0013
#0081b:13
#00916:13
#0091b:0013
#00912:0013
#01119:00000013
#01114:0000000000000013
#02012:0000001300000000
#02015:0000000000000013
#0201a:0000001313000000
#02118:00130000
#0211b:0013
#02112:00000013
#02117:00000013
#02212:1300001300000000
#02215:0013000000000000
#02218:00130000
#0221b:0000001300001300
#02216:00000013
#02314:0000000000130000
#02312:0000001300000013
#0231b:1300001300000013
#02318:0013000000000000
#02315:00130000
#02319:0000000000130000
#02512:0000000000000013
#02516:0013000000130000
#02517:0000001300000000
#0251b:0013000000000000
#02617:00130000
#02818:00000013
#02815:0000000000130013
#02814:00140014000000000000000000000000
#02812:2414000000000000
#02810:41
#02918:0013001300001300
#02915:0000130000130000
#0291b:1313
#02912:1313
#03015:00001313
#03018:0000001300130013
#03012:0013000000000013
#0301b:0013000013000000
#03115:1300000033133300
#0311b:0000000033133300
#03118:00130000
#03112:00130000
#0311a:0000003300000033
#03114:0000003300000033
#03312:0013000013000013
#03316:00130000
#03314:0000001300000000
#03412:0013001300130013
#03414:23132313
#03916:00000013
#03914:0000003300000013
#03919:0000003300000013
#0391b:0013000000001300
#03912:0013000000000000
#03913:00330000
#0391a:00330000
#04612:2400000000001414
#04616:00000000000000000014000000000000
#0461a:24
#04610:41
#04712:2400001300000000
#04716:0000001414001400
#04719:0000000000000013
#04714:0000000000000013
#0471b:0013
#05016:14140013
#0501b:00000013
#05012:14
#0501a:0014
#05117:00130000
#05112:0000130000000013
#0511b:0000000000000013
#04518:0013130016000000
#04512:0016
#04515:00000013000000000000000000000000
#01614:0013000000000013
#01612:00130000
#01619:0000000000000013
#01617:00130000
#0161b:23
#01616:23
#01712:0013130000000000
#0171b:0013
#01716:0013
#01717:0013130000000000
#01812:1300000013000013
#01815:0013001300001300
#01818:0000130000130013
#0181b:0000001313000000
#0191b:1313
#01915:0013001300002300
#01918:00130000
#01912:1313
#01416:1300000000000013
#0141b:1300000000000013
#01414:0013000000000000
#01412:00130000
#01417:00130000
#01512:0013000000000000
#0151b:0013000000000000
#01516:00140000
#01515:0013
#01518:0000000000130000
#0241b:13
#02412:1300000000000013
#02417:0000000000000013
#02419:0000002500000000
#0241a:0033
#0321b:0000000013130000
#03217:00000013
#03219:0000000000000013
#04914:00130000
#04919:00130000
#04915:0013
#04918:0013
#0491b:23
#04916:23
#05312:13000013
#05317:00000013
#05318:13
#06214:1300131313001313
#06219:1313130013131300
#06312:14
#0631a:14
#0041b:13
#04216:13
#04216:13
#04217:00000013
#04317:13
#04317:13
#04316:00000013
#0681b:0013130000001300
#06818:0000001313000000
#0691b:0000001300000000
#06917:0000000000130000
#06918:13
#06912:0000000000000013
#06910:41
#07015:0000131300001313
#07012:0013000013130000
#07312:1313000000000000
#07315:00130000
#07318:0000000000130000
#0751b:13
#07519:0013000000000000
#07517:0000131300000000
#08016:0000001313000000
#08019:00000000000000130000000000000000
#08017:1300000000000013
#08014:13000000000000000000000000000013
#08116:0000001313000014
#08119:00000000000000130000000000000000
#08117:13
#09316:0000000000000014
#0931b:00130013
#09312:1313000013001300
#09318:1300001313000000
#09315:00130000
#09812:0000001313000000
#09816:0000000000001313
#09817:0013
#09815:13130000
#09818:0013000000000000
#0981b:00130000
#09916:13000013
#09917:0000131313000000
#09912:0013
#0991b:13
#1061b:0000130000000013
#1061b:00130000
#10612:2313
#10616:0000130000000013
#10619:0013000000000000
#10617:23
#10012:13000013
#1001b:13131300
#10018:0000001300001300
#10015:0000130013130013
#10517:0013000000000000
#10512:0013000000001300
#00016:1414
#00116:1414
#00112:00000013
#00215:00000013
#00218:0000000000000013
#00212:13
#05218:0013000000001300
#05215:1300130000000013
#0521b:0000131300130000
#05216:0000001300000000
#07612:00130000
#07618:0000000013000013
#0761f:11
#0761f:11
#0761b:13
#07619:0013000000000000
#07617:00130000
#07615:00000013
#07616:23
#07715:1313
#07712:0013001300000000
#07714:00130000
#07718:0000000013000016
#07719:00130000
#0771b:0000001300000000
#08512:2400001313001300
#08516:0000000000000014
#0851b:00000013
#08517:0000001313000000
#08510:41
#08714:00130000
#08719:00130000
#08712:2313
#0871b:23000013
#08717:0013
#0841a:00140014
#08418:0014001400140014
#08416:2414
#08412:2400000000001414
#0841f:21
#0841f:21
#08812:14
#08816:00140000
#0881a:0014
#08815:00000013
#08818:00000013
#0891b:13
#08918:0000130000000013
#08912:0000001313000013
#08915:00130000
#0911b:13000013
#09116:00000013
#09115:13
#0921b:0000000000001313
#09215:0000001400001300
#09213:0014000000000000
#09214:00140000
#09216:24
#0921a:2424
#10712:0013130000000000
#10717:0013130000000000
#10716:00000013
#10714:0013
#10719:0013
#1081b:13
#10812:23
#06412:0000130000130000
#06415:0000001300000013
#06418:00001313
#0641b:0000000000130000
#06512:13
#06518:0013000000000000
#06515:0000130000130000
#0651b:0000001300130000
#06615:0013000000000000
#06618:00130000
#0661b:0000001313000013
#06617:00000013
#06616:0013
#06718:1300000000000023
#06715:0013000000000000
#06712:00130000
#07818:0016000000000000
#07812:1600000000000013
#0781b:0000000000000013
#07915:13
#07918:13
#0791b:0000001300000000
#07912:0000001300000000
#0901b:00000013000000001300000000000000
#09018:13000013
#09015:1300001313000000
#09012:00000013
#02715:0013000013000000
#02718:0000001300000000
#02712:0000000000130000
#0271b:0000000000130000
#03614:00000013
#03619:00000013
#03617:1313
#03612:2313
#0361b:00130000
#03616:00230000
#04012:13000013
#04017:13000013
#0401b:00131300
#04016:0013
#0411b:13000013
#04116:13000013
#04112:00131300
#04117:0013
#08612:13130013
#0861b:1313
#08618:0013000000130000
#08615:0000001300000013
#09519:00130000
#09514:00130000
#0951b:2313
#09512:23000013
#09516:0013
#10118:1300131300001313
#10115:0013
#10112:0000000000130000
#1011b:0013000000000000
#11218:00120000
#03517:00130000
#03519:0000001300000000
#03514:2300000000130000
#03512:00000013
#03716:1313
#0371b:2313
#03712:00130000
#03717:00230000
#0371a:000000000000000000000000000000000000003300000000
#03719:000000000000000000000000000000000000000033330000
#03718:000000000000000000000000000000000000000000003333
#0561b:13130013
#05612:1313
#0541a:2400000000001414
#05416:00000000000000000014000000000000
#05412:24
#05515:0000001300000013
#0551b:00001313
#05512:00001313
#05518:0000000000130000
#0551a:24
#05817:00000013
#05812:00001413
#0581a:14
#05816:14140000
#05814:0000000000000033
#05819:0000000000000033
#05916:00130000
#0591b:0000130000000013
#05912:0000000000000013
#05719:00130000
#05714:00130000
#05718:0013
#05715:0013
#05712:23
#05717:23
#06018:13130000
#06012:0000130013000013
#06015:0013000000000000
#0601b:0000001300000000
#0611b:1300001300000000
#06117:0013
#06112:0013
#07112:13001313
#07115:0000131300000000
#0711b:00130013
#07118:0013000013130000
#08312:13130000
#0831b:13130000
#08316:0014000000000000
#0941b:13130013
#09412:1313
#09415:0013000000130000
#09418:0000001300000013
#0961a:14
#09616:00140000
#09612:0000000014000013
#09618:00000013
#09615:00000013
#09712:1300000000000013
#09715:00130000
#09718:00130000
#0971b:0000000013000013
#10219:0013000000000000
#1021b:00130000
#10216:00130000
#10217:2300000000000013
#10212:2300000000000013
#10210:41
#1031b:0013130000000000
#10312:0013
#10317:0013
#10316:0013130000000000
#10417:00130000
#10412:00130000
#10414:0013000000000000
#10416:1300000000000013
#1041b:1300000000000013
#08212:0000000000130000
#08217:0000000000130000
#10912:000000130000000000001300
#1091b:00000000000000000000000000000000000000000000000000000000000000000000001333000000000000000000000000000000000000000000000000000000
#10915:000000000000000000000013000000000000000000000013
#10918:00000000000013000000003300000000
#1091a:0000000000330000
#10917:00000000000000000000000000000000000000000000000000000000000000000000000000000000000000000000003300330000000000000000000000000000
#1101b:00000013
#11017:00000000000000000013000000000000
#11012:0000000000130000
#1101a:00003300000000130000000000000000
#11016:00000000000000000000000000130000
#11013:00000000001300000000000000000000
#11018:00330000
#11019:00000033000000000000000000000000
#1111a:0000000000000000000000000000000000330000000000000000000000000000
#11119:00000000000000000033000000000000
#11118:0000000000000000000000000000000000000033000000000000000000000000
#11117:0000000000000000000000000000000000000000333333000000000000000000
#11116:0000000000000000000000000000000000000000000000333300000000000000
#11115:0000000000000000000000000000000000000000000000000033000000000000
#11114:0000000000000000000000000000000000000000000000000000333333000000
#11113:0000000000000000000000000000000000000000000000000000000000333333
#0485b:5353
#04852:00630063
#00555:0063
#00552:13
#00558:00000063
#00652:63
#00857:0063
#00852:0063
#0085b:63
#00956:63
#0095b:0063
#00952:0063
#01159:00000043
#01154:0000000000000033
#05056:00240053
#0505b:00000053
#05052:64
#05157:00630000
#05152:00630000
#0075b:0013
#01357:0063
#0135b:00000013
#01756:0053
#01752:00000013
#0195b:0043
#01952:0033
#0245b:13
#02452:1300000000000063
#0445b:00630000
#04452:00630000
#04552:0036
#04558:0046
#04656:00000000000000000024000000000000
#0465a:64
#04256:63
#04357:53
#07557:0000006300000000
#07552:0000000000130000
#08057:63
#08056:0053
#08157:63
#08156:0000000063000014
#09852:0013
#09857:0053
#09956:53
#09957:0053
#09952:0013
#0995b:13
#1065b:00630000
#00358:0063
#0845a:00240024
#08458:0054006400540064
#08456:2424
#08852:64
#08856:00240000
#08855:00000053
#08857:13
#09253:0024000000000000
#09255:0000002400000000
#09254:00640000
#09256:64
#09352:0013
#05256:0000006300000000
#05352:63
#05358:63
#0535b:0013
#05355:0000001300000000
#0915b:53
#09155:53
#09152:0013
#09158:0000001300000000
#10756:00000013
#10752:00130000
#10759:0013
#1085b:63
#10852:53
#0645b:0000000000630000
#06458:16000023
#06656:0063
#07858:0046000000000000
#07955:53
#07958:53
#0795b:0000005300000000
#07952:0000006300000000
#06958:53
#07752:0000005300000000
#07755:0023
#0775b:0000006300000000
#07758:0023
#02854:00240024000000000000000000000000
#02852:6464000000000000
#04052:53
#04057:43
#0405b:00430000
#0415b:63
#04156:33
#04152:00330000
#08652:33633353
#0865b:53435343
#08658:0023000000230000
#08655:0000002300000023
#09058:53
#0905b:00000023000000000000000000000000
#10552:00000013
#11258:00420000
#02556:0023000000000000
#0315b:0000000000230000
#03158:00630000
#03155:0000000000230000
#03152:00630000
#03657:43
#0365b:00430000
#03756:33
#03752:00330000
#04955:0053
#04958:0053
#0495b:43
#04956:33
#05652:6363
#0565b:00530053
#05857:00000063
#05852:00000063
#0585a:54
#05856:00240000
#05956:00530000
#0595b:00530000
#05456:00000000000000000024000000000000
#05452:54
#06052:0013
#05758:0063
#05755:0063
#05752:33
#05757:43
#0615b:13
#06152:0013
#08352:00630000
#08355:0013
#0835b:00530000
#08358:0013
#08752:3363
#0875b:43000063
#08958:00630000
#0945b:43534363
#09452:63336333
#09455:0023000000230000
#09458:0000002300000023
#0965a:54
#09656:13240000
#09658:00000063
#0955b:4353
#09552:33000053
#09755:00530000
#10357:0063
#1035b:00000013
#04752:34
#0475a:44
#08552:34
#08556:44
#0555a:44
#05552:34
#10955:130000000000000000000000000000000000000000000023
#10958:13
#10952:000000000053
#1095b:00000000000000000000000000000000000000000000000000000000000000000000005300000000000000000000000000000000000000000000000000000000
#03258:33
#03252:33
#03958:0043
#03955:0033
#0395b:0053000000000000
#03952:0053000000000000
#03855:0000000000000053
#03858:0000000000000053
#01555:0033
#01558:0000000000430000
#07652:00530000
#07658:0053
#07152:13001333
#0715b:00130043
#08252:0000000000530000
#08257:0000000000530000
#11056:00000000000000000000000000630000
#0635a:14
#06352:14
#0023b0:13000023
#003380:0013
#0033b0:00000023
#004320:13230000
#004381:00132300
#004350:00001323
#0043b1:00000013
#0053b1:23
#005351:0013
#005321:00000023
#005380:00000013
#0063b0:23
#006321:13
#006361:0023
#006351:00000013
#007351:23
#007380:13230000
#007321:00132300
#0083b1:13
#008371:0033
#0093b1:3333
#011381:23
#008320:1333
#009360:33
#009320:0033
#011350:23
#0123b0:00001323
#012361:00001323
#013371:0013
#0133b1:00000023
#014371:00001323
#014320:00001323
#016320:0013
#016360:00000023
#016371:0013
#0163b1:00000023
#017361:0013
#017321:00000023
#019351:0000000000001333
#020351:3323000000000000
#020331:005500000000000000000000000000000000000000000000000000000000000000000000000000000000000000000000000000000000000000000000000000000000000000000000000000000000000000000000000000000000000000000000000000000000000000000000000000000000000000000000000000000000000000000000000000000000000000000000000000000000000000000000000000000000000000000000000000000000000000000000000000000000000000000000000000000000000000000000000000000000000000000000000000000000000000000000000000000000000000000000000000000000000000000000000000000000000000000000000000000000000000000000000000000000000000000000000000000000000000000000000000000000000000000000000000000000000000000000000000000000000000000000000000000000000000000000000000000000000000000000000000000000000000000000000000000000000000000000000000000000000000000000000000000000000000000000000000000000000000000000000000000000000000000000000000000000000000000000000000000000000000000000000000000000000000000000000000000000000000000000000000000000000000000000000000000000000000000000000000000000000000000000000000000000000000000000000000000000000000000000000000000000000000000000000000000000000000000000000000000000000000000000000000000000000000000000000000000000000000000000000000000000000000000000000000000000000000000000000000000000000000000000000000000000000000000000000000000000000000000000000000000000000000000000000000000000000000000000000000000000000000000000000000000000000000000000000000000000000000000000000000000000000000000000000000000000000000000000000000000000000000000000000000000000000000000000000000000000000000000000000000000000000000000000000000000000000000000000000000000000000000000000000000000000000000000000000000000000000000000000000000000000000000000000000000000000000000000000000000000000000000000000000000000000000000000000000000000000000000000000000000000000000000000000000000000000000000000000000000000000000000000000000000000000000000000000000000000000000000000000
#020351:00001323
#0203b1:0000000000000013
#0213b1:0023000000000000
#021321:00132300
#024391:000000000000000000000000000000000000000000000000000000000000000000000000000000000000000000000000000000000000000000000000000000000000000000000000000000000000000000000000000000000000000000000000000000000000000000000000000000000000000000000000000000000000000000000000000000000000000000000000000000000000000000000000000000000000000000000000000000000000000000000000000000000000000000000000000000000000000000000000000000000000000000000000000000000000000000000000000000000000000000000000000000000000000000000000000000000000000000000000000000000000000000000000000000000000000000000000000000000000000000000000000000000000000000000000000000000000000000000000000000000000000000000000000000000000000000000000000000000000000000000000150000000000000000000000000000000000000000000000000000000000000000000000000000000000000000000000000000000000000000000000555300000000000000000000000000000000000000000000000000000000000000000000000000000000000000000000000000000000000000000000000000000000000000000000000000000000000000000000000000000000000000000000000000000000000000000000000000000000000000000000550000000000000000000000000000000000000000000000000000000000000000000000000000000000000000000000000000000000000000000000000000000000000000000000000000000000000000000000000000000000000000000000000000000000000000000000000000000000000000000000000000000000000000000000000000000000000000000000000000000000000000000000000000000000000000000000000000000000000000000000000000000000000000000000000000000000000000000000000000000000000000000000000000000000000000000000000000000000000000000000000000000000000000000000000000000000000000000000000000000000000000000000000000000000000000000000000000000000000000000000000000000000000000000000000000000000000000000000000000000000000000000000000000000000000000000000000000000000000000000000000000000000000000000000000000000000000000000000000000000000000000000000000000000000000000000000000000000000000000000000
#0243a1:0000000033230000
#0243b1:000000000000000000000000000000000000000000000000000000000000000000000000000000000000000000000000000000000000000000000000000000000000000000000000000000000000000000000000000000000000000000000000000000000000000000000000000000000000000000000000000000000000000000000000000000000000000000000000000000000000000000000000000000000000000000000000000000000000000000000000000000000000000000000000000000000000000000000000000000000000000000000000000000000000000000000000000000000000000000000000000000000000000000000000000000000000000000000000000000000000000000000000000000000000000000000000000000000000000000000000000000000000000000000000000000000000000000000000000000000000000000000000000000000000000000000000000000000000000000000000000000000000000000000000000000000000000000000000000000000000000000000000000000000000000000000000000000000000000000000000000000000000000000000000000000000000000000000000000000000000000000000000000000000000000000000000000000000000000000000000000000000000000000000000000000000000000000000000000000000000000000000000000000000000000000000000000000000000000000000053000000000000000000000000000000000000000000000000000000000000000000000000000000000000000000000000000000000000000000000000000000000000000000000000000000000000000000000000000000000000000000000000000000000000000000000000000000000000000000000000000000000000000000000000000000000000000000000000000000000000000000000000000000000000000000000000000000000000000000000000000000000000000000000000000000000000000000000000000000000000000000000000000000000000000000000000000000000000000000000000000000000000000000000000000000000000000000000000000000000000000000000000000000000000000000000000000000000000000000000000000000000000000000000000000000000000000000000000000000000000000000000000000000000000000000000000000000000000000000000000000000000000000000000000000000000000000000000000000000000000000000000000000000000000000000000000000000000000000000000000
#024321:0000000000000013
#025361:0053000000000000
#025321:0000002300000000
#0253b1:0000000000130000
#0263b1:23
#026320:1300002300000000
#026371:0000001300000000
#0263b1:0000000000230000
#026360:0000000000130000
#026320:0000000000000023
#026371:0000000000000013
#0273b1:0023000000000000
#028321:1434240000000000
#028341:00540054000000000000000000000000
#031381:00130000
#0313a1:0000003300000033
#0313b1:0000000033333300
#032381:23
#031320:00130000
#031340:0000003300000033
#031350:0000000033333300
#032320:23
#032320:0013
#033320:23
#0333b1:1323
#035321:00130000
#035361:0023
#0353b0:0013
#035370:00000023
#0373b0:00000013
#0373a0:000000000000000000000000000000000000003300000000
#037390:000000000000000000000000000000000000000033330000
#037380:000000000000000000000000000000000000000000003333
#038370:23
#038350:0000000000000013
#039320:0033000000000000
#039330:00330000
#039340:0000003300000000
#039350:0023
#038381:0000000000000013
#0393b1:0033000000000000
#0393a1:00330000
#039391:0000003300000000
#039381:0023
#040321:13
#040361:00230000
#0413b1:13
#041371:00230000
#042361:13
#042321:00530023
#0423b0:1323000000000000
#042370:0000132300000000
#0423b0:0000000013230000
#043371:13
#0433b1:00530023
#043320:1323000000000000
#043360:0000132300000000
#043320:0000000013230000
#044321:00130000
#044351:0023
#0443b0:00130000
#044380:0023
#0463a0:14
#046360:00000000000000000054000000000000
#0473a0:24
#0483b0:13
#048370:00230000
#048321:00130000
#048361:0023
#0483b0:0013
#048370:00000023
#048321:00000013
#049361:23
#049351:0013
#049321:00000023
#049380:0013
#0493b0:00000023
#050320:1424
#050360:00540000
#0503b0:00000013
#051370:23
#050361:00000013
#051321:23
#051321:00130000
#051361:0023
#051370:00130000
#0513b0:0023
#052360:0000001300000000
#052320:0000000000230000
#053380:13
#0533b0:0000005323000000
#053321:13
#053351:0000002300000000
#054320:14
#054360:00000000000000000054000000000000
#055320:24
#056320:13
#056360:00230000
#0563b1:00130000
#056371:0023
#056320:0013
#056360:00000023
#0563b1:00000013
#057371:23
#057381:0013
#0573b1:00000023
#057350:0013
#057320:00000023
#0583a0:1424
#058360:00540000
#058320:00000013
#058340:0000000000000033
#059360:23
#058371:00000013
#058391:0000000000000033
#0593b1:23
#0593b1:00130000
#059371:0023
#059360:00130000
#059320:0023
#060370:0000000013000023
#061360:1300002300000000
#063380:0000001222000000
#063361:0000000012220000
#063380:0000000000142400
#063341:0000000000001424
#063380:0000000000000016
#064380:26
#0643b0:0000000000130023
#064380:00000053
#065320:0000000000001323
#065381:0000000000001323
#066361:0013
#066321:00000023
#0673b1:00000000135353000000000000000000
#0673a1:0000000000000000005300530000530053000000000000000000000000000000
#067391:0000000000000000000000000053005300005300530000000000000000000000
#067381:0000000000000000000000000000000000530053000053002300000000000000
#067371:0000000000000000000000000000000000000000005300530000000000000000
#067321:0000000000000013
#069321:0000000000230000
#069380:13
#0693b0:00230000
#0693b1:0000000000000013
#0713b1:23
#072361:13
#072321:00230000
#0723b0:13
#072370:00230000
#0723b0:0013
#072370:00000023
#072361:0013
#072321:00000023
#073381:1323000000000000
#0733b1:0000132300000000
#073350:0000001300230000
#074320:13
#075320:0000000000230000
#0743b1:13333333
#074381:0033003300330023
#075371:0000001300000000
#0753b1:0000000000230000
#076321:00130000
#076351:0023
#076380:0013
#0763b0:00000023
#077320:0000001300230000
#077350:0053
#0773b1:0000001300230000
#077381:0053
#078321:00001323
#0783b0:00001323
#079350:13
#079320:00230000
#079381:13
#0793b1:00230000
#0793b1:0000001300000000
#079381:0000000000230000
#079320:0000001300000000
#079350:0000000000230000
#080370:13
#0803b0:00230000
#080360:0013
#080320:00000023
#081370:13
#0813b0:00230000
#081360:0013
#081320:00000023
#0823b0:0013003300000000
#082370:00332300
#082361:0013003300000000
#082321:00332300
#082321:0000000000130000
#082361:0000000000000023
#082370:0000000000130000
#0823b0:0000000000000023
#083320:00130000
#083350:0023
#0833b1:00130000
#083381:0023
#084361:1454
#084381:0054005400540054
#0843a1:00540054
#085361:24
#0863b1:13230000
#086381:0053000000000000
#086320:00132300
#086350:0000005300000000
#0863b1:00001323
#086381:0000000000530000
#086320:00000013
#086350:0000000000000053
#087320:23
#087320:0013
#087360:00000023
#0873b1:00000013
#088371:23
#088320:1424
#088360:00540000
#088350:00000013
#088320:0000000000000053
#089320:23
#089380:00130000
#0893b0:0000003323000000
#090380:1300002300000000
#0903b0:00000053000000000000000000000000
#091350:13
#091320:0000005323000000
#0913b1:13
#091381:0000002300000000
#092360:14
#092330:0054000000000000
#092340:00540000
#092350:0000005400000000
#092320:0024
#094320:13230000
#094350:0053000000000000
#0943b1:00132300
#094381:0000005300000000
#094320:00001323
#094350:0000000000530000
#0943b1:00000013
#094381:0000000000000053
#0953b1:23
#0953b1:0013
#095371:00000023
#095320:00000013
#096360:23
#0963a1:1424
#096361:00540000
#096381:00000013
#0963b1:0000000000000033
#0973b1:23
#097351:00130000
#097321:0000005323000000
#098371:0013
#0983b1:00000023
#099361:13
#099321:00230000
#099371:0013
#0993b1:00000023
#101321:1323000000000000
#101351:0000132300000000
#1013b1:0000000013230000
#101351:0000000000001323
#102361:00001323
#1023b0:00001323
#103370:0013
#1033b0:00000023
#104370:00001323
#104321:00001323
#105371:0000132300000000
#105320:0000132300000000
#1053b0:0000000013230000
#105361:0000000013230000
#1063b1:00130000
#106371:0023
#1073b1:00000013
#1083b1:53
#108381:00000053
#109381:23
#108320:13
#108350:00000053
#109350:23
#1093b0:00000000000000000000000000000000000000000000000000000000000000000000001333000000000000000000000000000000000000000000000000000000
#1093a0:0000000000330000
#109380:00000000000000000000003300000000
#109370:000000000000000000000000000000000000000000000000000000000000000000000000000000000000000000000000000000000000000000000000000000000000000000000000000000000000000000000000000000000000000000000000000000000000000000000000000000000000000000000000000000000000000000000000000000000000000000330000000000330000000000000000000000002300000000000000000000000000000000000000000000000000000000000000
#109321:000000000013
#109351:000000000000000000000000000000000000000000000053
#110321:00230000000000000000000000000000
#1103b0:00130000000000000000000000000000
#1103a0:0033000000000000
#110390:00000033000000000000000000000000
#110380:00330000
#110370:00000000002300000000000000000000
#110360:00000000000000000000000000130000
#111320:0023
#1113b1:0013
#1113a1:0000000000000000000000000000000000330000000000000000000000000000
#111391:00000000000000000033000000000000
#111381:0000000000000000000000000000000000000033000000000000000000000000
#111371:0000000000000000000000000000000000000000333333000000000000000000
#111361:0000000000000000000000000000000000000000000000333300000000000000
#111351:0000000000000000000000000000000000000000000000000033000000000000
#111341:0000000000000000000000000000000000000000000000000000333333000000
#111331:0000000000000000000000000000000000000000000000000000000000333333
#112361:23
