This file was generated by Ched 2.6.2.0.
#TITLE "hard"
#ARTIST ""
#DESIGNER ""
#DIFFICULTY 0
#PLAYLEVEL
#SONGID ""
#WAVE ""
#WAVEOFFSET 0
#JACKET ""
#REQUEST "ticks_per_beat 480"
#00002: 4
#BPM01: 165
#BPM02: 150
#BPM03: 145
#BPM04: 120
#BPM05: 100
#BPM06: 110
#BPM07: 144
#BPM08: 137
#00008: 01
#01108: 01
#00808: 02000303
#10608: 0207
#00908: 0405
#11108: 0004
#01008: 0006
#10708: 0806
#TIL00: ""
#HISPEED 00
#MEASUREHS 00
#03612:00130000
#03615:23000013
#03618:00130000
#0361b:23000013
#03815:0000130000000013
#03812:0000001300000000
#0381b:1300000000000013
#03818:0013000000130000
#04415:1313130000001616
#0441b:1313130000000000
#00318:0000000000000013
#0031b:0013
#00312:00000013
#00315:1300001300000000
#00512:0013
#00515:13
#0051b:0013
#00612:13
#00615:00130000
#0061b:13
#00618:00130000
#00712:0000000000000013
#0081a:0014
#00818:14
#01212:2313130000000000
#0121b:0000000000000013
#01210:41
#02112:00130000
#0211b:0013000000001300
#02115:00000013
#02212:13000013
#02215:0013000000000000
#02218:00130013
#0221b:0000001300000000
#02312:0000001300130000
#0231b:1300000000130000
#02318:0013000000000000
#02315:00130000
#0251b:0000000000130000
#02515:0033000000000000
#02612:13
#0261b:0000001300000000
#02912:13001313
#0291b:0013000000130000
#02915:00130000
#02918:0000001300000000
#03712:23000013
#0371b:00130000
#03715:00130000
#03718:23000013
#05015:00000013
#0501b:00000013
#05012:13
#05118:00130000
#05112:00130000
#0511b:0000000000000013
#0141b:1313130000000000
#01412:0000000000000013
#01315:0013
#01318:00130000
#01312:0013000000000000
#0131b:0013
#01615:2313130000000000
#0161b:0000000000000013
#01715:0013000013000000
#0171b:0013
#01718:00130000
#01812:13000013
#01818:0013000000130013
#01815:00131300
#0181b:0000001300000000
#01918:0013000000001300
#01915:0000130000000013
#0191b:0000001300000000
#01912:1313
#02018:1300001300000013
#02012:0013
#02015:0013000000001300
#03315:1313
#0331b:1313
#03312:0000000000000013
#0281b:0000000000130000
#02815:0013000000001300
#02818:1300130000000013
#02810:41
#0391b:0013
#03912:0013000000000000
#03915:0000130000000013
#03918:0000001300001300
#04512:0015
#04519:0015
#04514:0018180000000000
#04918:0013
#04915:00000013
#0491b:00000013
#04912:2513
#04919:25
#04616:0000001400000000
#04614:0000000000000014
#0461a:24
#04610:41
#04718:1400001300000013
#04715:0013
#0471b:00000013
#0531a:00000014
#05315:13
#05318:0013
#05912:0000000000000013
#05915:13
#06015:0013001313000000
#0601b:00130000
#06018:1300000000000013
#06118:13
#06115:0000001313000000
#06312:1400001300000000
#06313:0000000000130000
#0631a:14000013
#06314:0000000000000013
#0631b:0013
#06419:13
#06412:00130000
#06418:0000001300000000
#06415:0013
#0641b:0000000000130000
#06215:0013001300001300
#06218:0000130000130013
#0621b:13
#06212:0013
#0681b:00130013
#06818:0013
#06812:0013000000001300
#06815:0000001300000000
#06915:1300001300000013
#0691b:13
#06918:0000000000130000
#06910:41
#07112:00130013
#07115:1313
#07118:0013000000130000
#0711b:0000001300001300
#0741b:0013
#07415:0000130000130013
#07418:0013001300001300
#07412:13
#0751b:13
#07518:0013000013000000
#07515:0000130000130000
#07512:0000001300000000
#08018:1300000000000013
#08015:0000001300000000
#08013:00000000000000330000000000000000
#0801a:00000000000000000000000000000033
#08012:0033
#08318:0013000000000000
#08314:0013
#08315:13130000
#08319:0013
#08215:00130000
#08212:0013
#08218:0000001300000000
#0821b:0013000000130000
#10212:0013000000000000
#10215:0000000000000013
#10218:00130000
#1021b:23
#10210:41
#11218:00130000
#0091a:0014
#00916:14
#10318:0013000013000000
#10312:00130000
#00014:14
#00018:0014
#00118:0014
#00114:14
#00115:00000013
#00215:00000013
#00218:1300000000000013
#03512:00130013
#03518:0000001300000000
#03515:0013
#0351b:0000000000130000
#05212:00130013
#05218:0013000000000013
#05215:13
#0521b:0000001300000000
#07618:2300130000130013
#07615:0013000013001300
#0761f:11
#0761f:11
#07715:1300001300000000
#0771b:0013000000000000
#07712:00130000
#07714:0000000000000013
#07719:0000000000000013
#07718:0000001300000000
#10118:0013000000001300
#10115:0000130000000013
#1011b:0000001300000000
#10112:1313
#10715:0013130000000000
#10718:00130000
#10712:0013
#1071b:0013
#06512:1300000000131313
#06515:00130000
#06518:0013000000131313
#0661b:0013000000000013
#06615:00130000
#06618:0000001300000000
#06612:0013
#07814:1313000000000000
#07819:1313000000000000
#07818:00000013
#0781b:0013
#07815:0000000000130000
#07812:0000000000000013
#08118:0000000000000013
#08112:0000000033000013
#08115:0000001300000000
#08113:00000000000000330000000000000000
#0811b:33
#01115:00000013
#01118:0000000000000013
#01518:0013
#01512:0000000000130000
#01515:00130000
#0151b:0013000000000000
#02418:0000001300130000
#02415:0013
#02412:0000000000000013
#03212:1313
#03218:0013
#0321b:13
#0401b:00130000
#04018:13000013
#04015:00130000
#04012:13000013
#0411b:13000013
#04112:00130000
#04118:00130000
#04115:13000013
#04212:13
#04218:0013
#0431b:13
#04315:0013
#05518:00001313
#05515:0000000000130013
#05512:0000001300000000
#05514:14
#05715:0013
#05718:00000013
#05712:25000013
#0571b:0013
#05719:25
#06715:13
#06718:0013000000000023
#07315:13
#07318:0013000000000000
#07312:00130000
#0731b:0000001300000000
#07913:00140000
#07919:00140000
#0791b:13
#02715:0000001300130000
#0271b:0000001300130000
#02718:0013
#08512:0000001313000000
#08518:0000001313001300
#08515:0000000000000013
#08514:14
#08510:41
#08815:00000013
#0881b:00000013
#08818:13
#08812:13
#08918:00130000
#08912:00130000
#08915:0000003300000013
#0891b:0000003300000000
#08718:0013
#08715:00000013
#08712:25
#08719:25
#09115:13000013
#0911b:00000013
#09015:00000013
#09018:13
#0901b:00000013
#0931b:0013000013000000
#09315:13130013
#09312:0013
#09318:0000001300000013
#09915:13
#09918:0000001313000000
#0971b:1300000000000013
#09718:00130000
#09715:13
#09712:00130000
#09818:1313
#09815:0013001300000013
#09812:00130000
#09615:13000013
#09618:0000000000000013
#0961b:13
#10818:13
#10815:13
#04815:13
#04818:0013
#05618:13
#05615:0013
#0581b:13
#05815:00000013
#05818:0000000000000013
#07015:0000130000130000
#07012:0013
#07018:0013001300001300
#0701b:0000000000000013
#08412:00140000
#08418:0000140000000014
#08414:24000014
#0841f:21
#0841f:21
#0841a:24
#0861b:13
#08612:0013
#0921a:00140000
#09214:00140000
#09212:24000013
#09218:2400000000000013
#09412:13
#0941b:0013
#1001b:00130000
#10018:0013
#10015:00000013
#1041b:0013000000000000
#10418:0000000000000013
#10415:00130000
#10412:13
#10515:0013000000001300
#1051b:00130000
#10512:0013
#10518:0000000000130000
#1111b:0013
#11112:00000000000000000034343434343434
#0301b:0013000000000000
#03018:00001313
#03015:0013000000130013
#03012:0000001300000000
#03112:13130000
#0311b:13
#03115:00001313
#03118:0000130000130013
#09515:0013
#09518:00000013
#09519:25
#09512:25
#10612:0013000000000000
#10618:00130000
#1061b:23
#05416:0000001400000000
#05418:0000000000000014
#05412:24
#03415:00000000000033133300000000000000
#03412:3333000000000000
#03414:0000330000330000
#03413:0000000000003333
#03652:00530000
#03658:00530000
#00552:0063
#00555:13
#0055b:0063
#00652:63
#00655:00230000
#0065b:53
#00658:00230000
#0085a:0064
#00858:64
#02152:00630000
#02352:0000000000530000
#0235b:0000000000530000
#0255b:0000000000630000
#02652:63
#0265b:0000005300000000
#05055:00000053
#0505b:00000053
#05052:53
#05158:00630000
#05152:00630000
#0375b:00630000
#03755:00630000
#01355:0053
#0135b:0053
#0175b:0053
#01755:0053
#0445b:00630000
#04455:00630000
#04552:0035
#04559:0045
#04656:0000002400000000
#0465a:54
#06158:63
#06155:0063
#06459:13
#0645b:0000000000630000
#06055:0063
#07152:00000013
#0715b:00000013
#07555:0000000000130000
#08058:6300000000000063
#08055:0000005300000000
#11258:00130000
#0095a:0064
#00956:54
#00258:63
#0525b:0000006300000000
#05355:63
#05358:0013
#05352:0000001300000000
#06652:0063
#07854:0013000000000000
#07859:0013000000000000
#0695b:53
#06955:53
#07758:0000005300000000
#07755:0000006300000000
#01558:0013
#01552:0000000000130000
#02858:13130000
#02855:0013000000000000
#02055:0013000000000000
#02455:0013
#02458:0000000000130000
#02452:0000000000000053
#03252:0053
#03258:0053
#03355:53
#0335b:53
#03352:0000000000000053
#0405b:00630000
#04055:00630000
#04152:00530000
#04158:00530000
#04252:53
#04258:0053
#0435b:63
#04355:0063
#0735b:0000006300000000
#0825b:0000000000530000
#08855:00000053
#0885b:00000053
#08858:63
#08852:63
#08958:00630000
#08952:00630000
#09058:53
#09155:63
#09152:0013
#09955:53
#09958:0053
#09858:0053
#10755:00630000
#10758:00630000
#10752:0023
#1075b:0023
#10858:63
#10855:63
#04855:53
#04858:0053
#05658:63
#05655:0063
#0585b:63
#05955:53
#08452:00240000
#08458:00240000
#08454:54
#0845a:54
#0865b:53
#08652:0063
#0925a:00240000
#09254:00240000
#09258:64
#09252:64
#09452:63
#0945b:0053
#0975b:53
#09758:00530000
#09755:53
#09752:00530000
#10358:0053
#1035b:00000013
#08155:0000005300000000
#04952:35
#04959:45
#05759:45
#05752:35
#08752:35
#08759:45
#09559:45
#09552:35
#10952:13
#1095b:13
#09655:53
#0965b:53
#08359:0013
#08354:0013
#05456:0000002400000000
#05452:64
#03455:00000000000000230000000000000000
#002380:13
#0023b0:0023
#004320:13
#004350:00230000
#004381:13
#0043b1:00230000
#004351:0013
#004321:00000023
#0043b0:0013
#004380:00000023
#005320:0013
#005350:00000023
#0053b1:0013
#005381:00000023
#006321:1323
#006351:00530000
#0063b0:1323
#006380:00530000
#0063b0:00000013
#0073b0:23
#006351:00000013
#007351:23
#007381:00132300
#007320:00132300
#008380:14
#0083a0:0034
#009360:34
#0093a0:0034
#011350:26
#0123b0:00001323
#012351:00001323
#013351:0013
#013321:00000023
#0133b0:0013
#013380:00000023
#014320:00001323
#014381:00001323
#016321:00001323
#0163b0:00001323
#0173b0:0013
#017380:00000023
#017351:0013
#017321:00000023
#021321:00130000
#021351:0023
#023321:0000000000130000
#023351:0000000000000033
#024351:23
#0233b0:0000000000130000
#023380:0000000000000033
#024380:23
#024320:0000000000000013
#025350:0033002300000000
#0253b0:0000000000130000
#025380:0000000000000023
#026320:13
#026350:00230000
#0263b0:0000001300000000
#026380:0000000000230000
#026320:0000000000000013
#027320:0023000000000000
#026381:0000000000000013
#027381:0023000000000000
#032321:0013
#032351:00000023
#032380:0013
#0323b0:00000023
#033350:13
#033320:00230000
#0333b1:13
#033381:00230000
#033321:0000000000000013
#034321:3333000000000000
#034341:0000330000330000
#034351:00000000000033533300000000000000
#034331:0000000000003333
#035321:23
#036321:00130000
#036351:0023
#036380:00130000
#0363b0:0023
#0373b0:00130000
#037380:0023
#037351:00130000
#037321:0023
#0403b1:00130000
#040381:0023
#040350:00130000
#040320:0023
#041320:00130000
#041350:0023
#041381:00130000
#0413b1:0023
#042321:13
#042351:00230000
#042381:0013
#0423b1:00000023
#0433b1:13
#043381:00230000
#043351:0013
#043321:00000023
#044351:00130000
#044321:0023
#0443b0:00130000
#044380:0023
#0463a0:14000024
#046360:0000005400000000
#048350:13
#048320:00230000
#048380:0013
#0483b0:00000023
#050320:13
#050350:0000003323000000
#0503b0:00000013
#051380:23
#050351:00000013
#051321:23
#051321:00130000
#051351:0023
#051380:00130000
#0513b0:0023
#0523b0:0000001300000000
#052380:0000000000230000
#053350:13
#053320:0000002300000000
#054320:14000024
#054360:0000005400000000
#056380:13
#0563b0:00230000
#056350:0013
#056320:00000023
#0583b0:13
#058380:0023
#059350:13
#059320:0023
#060350:0013
#060320:00000023
#061380:13
#0613b0:00230000
#061350:0013
#061320:00000023
#0643b0:0000000000130000
#064380:0000000000000023
#066320:0013
#066350:00000023
#067320:0000135353532300
#067330:00000000005300530053005300000000
#0693b0:13
#069380:00230000
#069351:13
#069321:00230000
#072351:13230000
#0723b0:13230000
#072380:00001323
#072321:00001323
#0733b1:0000001300000000
#073381:0000000000230000
#077381:0000001300000000
#0773b1:0000000000230000
#077350:0000001300000000
#077320:0000000000230000
#079330:0000001400000000
#079320:0000000000260000
#079391:0000001400000000
#079381:0000000000260000
#080381:13
#0803b1:00230000
#080351:0000001300000000
#080331:00000000000000330000000000000000
#080321:0000000033532300
#080381:0000000000000013
#0803a1:00000000000000000000000000000033
#0813b1:3353230000000000
#081351:0000001300000000
#081331:00000000000000330000000000000000
#081321:0000000033532300
#0823b1:0000000000130000
#082381:0000000000000023
#084341:1424
#084321:00540000
#0843a0:1424
#084380:00540000
#0863b0:13
#086380:00230000
#086320:0013
#086350:00000023
#088380:13
#0883b0:0023
#088321:13
#088351:0023
#0883b1:00000013
#089381:23
#088350:00000013
#089320:23
#089320:00130000
#089350:0000003323000000
#089381:00130000
#0893b1:0000003323000000
#090381:13
#0903b1:0000003323000000
#091351:13
#091321:0000003323000000
#092381:1424
#0923a1:00540000
#092320:1424
#092340:00540000
#094320:13
#094350:00230000
#0943b0:0013
#094380:00000023
#096350:13
#096320:0023
#0963b1:13
#096381:0023
#0973b1:1323
#097381:00330000
#097350:1323
#097320:00330000
#098380:0013
#0983b0:00000023
#099350:13
#099320:00230000
#099380:0013
#1003b0:23
#102320:00001323
#102381:00001323
#103381:0013
#1033b1:00000023
#1043b1:00001323
#104350:00001323
#1063b0:00001323
#106351:00001323
#106381:0000000000000013
#107381:00330033
#1073b1:0033
#108381:33
#1093b1:23
#107350:00130033
#107320:0033
#108350:33
#109320:23
#111360:0014
#111320:00000000000000000034343434343434
#112320:24
