This file was generated by Ched 2.6.2.0.
#TITLE "mas"
#ARTIST ""
#DESIGNER ""
#DIFFICULTY 0
#PLAYLEVEL
#SONGID ""
#WAVE ""
#WAVEOFFSET 0
#JACKET ""
#REQUEST "ticks_per_beat 480"
#00002: 4
#BPM01: 165
#BPM02: 150
#BPM03: 120
#BPM04: 110
#BPM05: 145
#BPM06: 100
#BPM07: 144
#BPM08: 137
#00008: 01
#01108: 0101
#00808: 02000505
#10608: 0207
#00908: 0306
#11108: 0003
#10708: 08080404
#01008: 0004
#TIL00: ""
#HISPEED 00
#MEASUREHS 00
#0121b:00131300
#01214:0000000000000013
#01219:0000000000000013
#01212:23130000
#01215:0013000000000000
#01218:23000013000000000000000000000000
#01217:0013
#01210:41
#0131b:0013000013000000
#01317:00131300
#01316:0013000000001300
#01312:00130000
#03815:1313
#03812:0000001300000000
#0381a:0013000000000000
#0381b:1313
#03814:0013000000000000
#03813:00130000
#03817:0000000000000014
#03819:00130000
#03818:0000001300000000
#04412:13
#04414:0013000000001313
#04419:0013000000001313
#04417:13
#04416:00130000
#0441b:00130000
#04812:1414140000141400
#0481a:1400001414000014
#04816:0014001400140014
#00314:0000000000000013
#0031b:13130000
#00312:00001313
#00317:0013
#00319:0000001300000000
#00316:13
#00512:1313
#00517:0013
#0051b:00000013
#00612:13
#00618:0013
#00617:00130013
#0061b:00000013
#00715:0000000000000013
#0071b:0000000013000013
#00716:13
#00717:00130000
#01112:00000013
#0111b:0000000000000013
#01117:00000013
#01116:0000000000000013
#02016:0000001300000013
#02012:0013
#0201b:0000001300001313
#02017:0013
#02015:001600000000000000000000000000000000000000000000000000000000000000000000000000000000000000000000000000000000000000000000000000000000000000000000000000000000000000000000000000000000000000000000000000000000000000000000000000000000000000000000000000000000000000000000000000000000000000000000000000000000000000000000000000000000000000000000000000000000000000000000000000000000000000000000000000000000000000000000000000000000000000000000000000000000000000000000000000000000000000000000000000000000000000000000000000000000000000000000000000000000000000000000000000000000000000000000000000000000000000000000000000000000000000000000000000000000000000000000000000000000000000000000000000000000000000000000000000000000000000000000000000000000000000000000000000000000000000000000000000000000000000000000000000000000000000000000000000000000000000000000000000000000000000000000000000000000000000000000000000000000000000000000000000000000000000000000000000000000000000000000000000000000000000000000000000000000000000000000000000000000000000000000000000000000000000000000000000000000000000000000000000000000000000000000000000000000000000000000000000000000000000000000000000000000000000000000000000000000000000000000000000000000000000000000000000000000000000000000000000000000000000000000000000000000000000000000000000000000000000000000000000000000000000000000000000000000000000000000000000000000000000000000000000000000000000000000000000000000000000000000000000000000000000000000000000000000000000000000000000000000000000000000000000000000000000000000000000000000000000000000000000000000000000000000000000000000000000000000000000000000000000000000000000000000000000000000000000000000000000000000000000000000000000000000000000000000000000000000000000000000000000000000000000000000000000000000000000000000000000000000000000000000000000000000000000000000000000000000000000000000000000000000000000000000000000000000000000000000000000000000000000000000000000000000000000000000000000000000000000000000000000000000000000000000000000000000000000000000000000000000000000000000000000000000000000000000000000000000000000000000000000000000000000000000000000000000000000000000000000000000000000000000000000000000000000000000000000000000000000000000000000000000000000000000000000000000000000000000000000000000000000000000000000000000000000000000000000000000000000000000000000000000000000000000000000000000000000000000000000000000000000000000000000000000000000000000000000000000000000000000000000000000000000000000000000000000000000000000000000000000000000000000000000000000000000000000000000000000000000000000000000000000000000000000000000000000000000000000000000000000000000000000000000000000000000000000000000000000000000000000000000000000000000000000000000000000000000000000000000000000000000000000000000000000000000000000000000000000000000000000000000000000000000000000000000000000000000000000000000000000000000000000000000000000000000000000000000000000000000000000000000000000000000000000000000000000000000000000000000000000000000000000000000000000000000000000000000000000000000000000000000000000000000000000000000000000000000000000000000000000000000000000000000000000000000000000000000000000000000000000000000000000000000000000000000000000000000000000000000000000000000000000000000000000000000000000000000000000000000000000000000000000000000000000000000000000000000000000000000000000000000000000000000000000000000000000000000000000000000000000000000000000000000000000000000000000000000000000000000000000000000000000000000000000000000000000000000000000000000000000000000000000000000000000000000000000000000000000000000000000000000000000000000000000000000000000000000000000000000000000000000000000000000000000000000000000000000000000000000000000000000000000000000000000000000000000000000000000000000000000000000000000000000000000000000000000000000000000000000000000
#02112:0013130000001300
#0211b:0013
#02116:00000013
#02117:00130000
#02216:0013001300000000
#0221b:00130013
#02217:00000013
#02316:0000000000130013
#0231b:0000000000130013
#02317:0013001300001300
#02312:00130013
#02512:1313000000130000
#02519:0000000000000013
#02517:1300001300130000
#02516:00000000130000000000000000130000
#0251b:00130000
#0261b:13
#02614:00130000
#02612:0000000000000013
#02617:00000013000000000000000000000000
#02618:0013
#02615:00000013
#02918:0000000000131600
#02912:0000000013160000
#02915:00000013
#02916:0013000000000000
#02917:0000001300000000
#03018:0012000000000000
#03012:0013000000000000
#03017:0000000000000013
#03016:0000001300130000
#0301b:0013
#03112:13130013
#03117:00130013
#03119:0000001300000013
#0311b:0013
#03116:0013
#03114:0000000000130000
#03617:00000013
#03616:00130000
#03614:0000000000000013
#03615:00130000000000000000000000000000
#03618:0013000000000000
#03612:00000013000000000000000000000000
#0361b:23130000
#0361c:0000000012120012
#04615:00000014
#04612:0000000024000014
#04614:00140000
#0461a:24000014
#04617:0000000000000014
#04616:24
#04610:41
#04719:0000000000000013
#0471b:00000013
#04714:0000000000000013
#04716:24000013
#04712:00161300
#04717:0000001300000000
#04718:0016000000000000
#0471a:24
#05016:00000013
#0501b:00000013
#05012:1400000000130013
#05018:00140000
#0501a:0014
#05017:0000000000000013
#01415:13000013000000000000000000000000
#01418:0013000000000000
#01412:00131300
#0141b:00130000
#01416:0013
#01419:0000000000000013
#01414:0000000000000013
#01912:0013001300000000
#01915:13131300
#0191b:00130000001300001300000000000000
#01918:00000013000000130000000023000000
#02417:13
#02412:13
#02416:0000000000000013
#0241b:0000000000000013
#02415:0000002600000000
#02418:0023
#03215:0000000000130000
#03218:0000000000000013
#03212:0013
#0321b:13
#03216:13
#03315:0013000000000000
#03318:0000001300000000
#03316:0013
#03312:0000000000000013
#0331b:0000000000000013
#04916:0014
#04914:00130000
#04919:00130000
#04912:2414
#0491a:24000014
#05314:00000013
#05319:00000013
#05312:13
#05316:13
#05912:13000000001300000000000000001300
#05917:13000000001300000000000000001300
#0591b:00000013000000000000000000000000
#05919:00130000
#05916:00000013000000000000000000000000
#05914:00130000
#06017:1300000013000013
#06019:0013000000000000
#06016:00130000
#06014:0000001300000000
#06012:0000000013000013
#0601b:00000013
#06412:1c00000000000013
#0641b:0000130000130000
#06417:00000013
#00416:1313
#0041b:13
#00417:00130013
#06716:0000000000000013
#06712:1300000000000023
#06812:0013001300001300
#06816:00131300
#0681b:0013
#06912:1300001300000000
#06916:1300000000130000
#0691b:0000000000000013
#06917:0000000000000013
#06910:41
#0701b:0013000000001313
#07019:0000130013130000
#07017:0000001300000000
#07012:0013
#0711b:13131313
#07117:0013000000130000
#07112:00131313
#07116:0000001300000000
#07115:00000012000000000000001200000000
#07119:00000000000000120000000000000000
#07312:0000130000130000
#07314:0000001300000000
#0731b:13
#07319:0013000000000000
#07317:00130000
#07315:13
#07316:0013
#07417:13000013
#0741b:1313000013000000
#07419:0000000000130013
#07418:0000131300000000
#0751b:1300130013130000
#07518:0013001300000000
#07512:00130000
#08012:00000000000013000000001300000000
#08019:00000000000000130000000000000000
#08017:13
#0801b:00000013000000001300000000001300
#08016:0013
#08014:00000000000000000000000000000013
#08212:00131313
#08216:0013001300130000
#08217:00131300
#0821b:0013001300130013
#10718:0013130000000000
#10716:00001414
#10712:0013
#10719:0000000000130000
#10714:0000001300000013
#04116:0000001300001300
#0411b:1300001300001300
#04112:00130000130000000000000000000000
#04118:0013130000000000
#04115:00000013000000000000000000000000
#04117:0013
#1051b:0013
#10517:00001313
#10516:0013130000000000
#10512:0013130000001300
#1061b:0000130000000013
#10617:0000000000000013
#10612:24131300
#10618:0013000000000000
#10615:00000013000000000000000000000000
#10616:0013
#1061a:24
#00016:1414
#00116:1414
#0011b:00000013
#00112:00000013
#00212:13000013
#00214:0000000000000013
#00217:13
#05212:13000013
#05217:0013131300000000
#05216:0000000000000013
#0521a:0000000000000013
#0521b:0000001300000000
#05112:0000130000000013
#05117:00130000
#0511b:0013001300000000
#05116:0000001300000000
#07614:0013000000130000
#07612:00130013
#07617:00000013000000000000001300000000
#0761b:1313
#07619:0000001300000013
#0761f:11
#07616:23000000000000130000000000000013
#07714:0013001300000013
#07719:0000001300000013
#0771b:13
#07712:00130000
#07717:00000013000000000000000000000000
#07715:0013
#07718:0013
#01512:0013000000130000
#01516:0000130014140000
#01517:0013000000000000
#0151b:00131300
#01612:00131300
#01619:0000000000000013
#01614:0000000000000013
#0161b:23130000
#01618:0013000000000000
#01615:23000013000000000000000000000000
#01616:0013
#01712:0013000013000000
#01716:00131300
#01717:0013000000001300
#0171b:00130000
#03512:00000013
#0351b:00130000
#03514:23
#0371b:00000013000000000000000013000000
#03717:00130000
#03718:00130000000000000000000000000000
#03715:00001300000000000000000000330000
#03712:23130000
#03716:0000000000000000000000000000000013000000000000000033000000000000
#03713:0000000000000000000000000000000000000000000000000000003300000000
#03917:0016000000001300
#0391b:00000013
#03914:0000000000000013
#03918:0000000000000013
#03915:14
#03913:00160000
#03916:0000001800000000
#03912:0018
#0401b:00130000130000000000000000000000
#04016:00000013
#04019:0000000000000013
#04012:1300001312120012
#04015:0013130000000000
#04018:00000013000000000000000000000000
#04017:0000001300000000
#0581b:00000013
#05819:0000000000000013
#05816:00000013
#05814:0000000000000013
#0581a:14
#05815:00140000
#05812:0014
#07217:1313
#0721b:1313
#07216:00130013
#07212:00130013
#0841a:00000014000000140000000000001400
#08416:00140000001400000000000014001400
#08412:24242414
#08418:2414141400000000
#0841f:21
#08816:0000000000001313
#08812:1400000000130013
#08818:00140000
#0881a:0014
#0881b:00000013
#08817:0000000000130000
#0871b:2300000013000013
#08714:00130000
#08719:00130000
#08716:0000000013000013
#08712:2300000000130000
#08718:00000013
#08717:0000000000130000
#09116:00000013
#0911b:13000013
#09117:13
#09816:1300000013000013
#0981b:0013
#09812:0000000000131300
#09817:0000130000130000
#09814:0013000000000000
#09819:0000001300000000
#08916:0000000000000013
#0891b:1300001300000000
#08917:0000131300000000
#08912:00131300
#08919:0013000000000000
#08914:0013000000000000
#09312:14141413
#09316:0016000000000014
#0931a:14141400
#09314:0000001600000000
#0931b:00000013
#0921a:24242414
#09212:00000014000000140000000014000000
#09214:2414141400000016
#09216:00140000001400000000000000000000
#09519:00130000
#09514:00130000
#09512:2300000013000013
#09517:0000000013000013
#0951b:2300000000130000
#09515:00000013
#09516:0000000000130000
#00818:13
#0081b:0000001313000000
#00812:13
#0091b:0000001300000000
#00912:1314
#0091a:0014
#08517:0000001313000000
#08519:0000000000000013
#08512:2416001313000000
#0851b:00000013
#08514:0000000000000013
#08516:24000013
#08518:00160000
#08510:41
#09016:13
#09012:13
#09017:0000001313000000
#0901b:0013
#03416:0013000000130000
#03414:23132313
#03412:0000001300000013
#0101a:00000000001400000000000000000000
#01012:00000000001400000000000000000000
#0661b:0013000000130000
#06619:00130000
#06618:0000001313000000
#06612:0000001313000000
#06615:0000000000130013
#06614:00130000
#06616:0013000000000000
#06517:0000131300130000
#06512:0013001300130000
#06516:1313000000000013
#0651b:1300130000000013
#06514:00000013
#06519:00000013
#11219:00120000
#11215:00120000
#02812:00000013
#02817:0000000000000013
#02814:0000000000130000
#02819:0000000000130000
#02815:27
#02810:41
#01817:13000013
#01814:0013000000130000
#0181b:00131300
#01816:00131300
#01812:0000001c0000131c
#01819:0013000000130000
#04218:1313
#0421b:0013000000130000
#04216:0013000000130000
#04215:00130013
#04212:2300001300000013
#04217:0000001300000013
#0431b:1313
#04318:0013001300130000
#04315:0013001300130000
#04312:00130013
#04518:0013001300000000
#04515:00000013000013000000000000000000
#04512:00130000
#0451b:00130000
#0561a:1414140000141400
#05612:1400001414000014
#05616:0014001400140014
#05417:00140014
#0541a:0000000024000014
#05412:24000014
#05415:0000000000000014
#05416:24
#05514:0000000000130013
#05512:2416000000001300
#05519:0000000000130013
#05517:00000013
#0551b:0013
#05516:2400001300000000
#05518:00160000
#05716:0014
#05719:00130000
#05714:00130000
#0571a:2414
#05712:24000014
#06116:1300001300000000
#0611b:1300001300001300
#06112:00131300
#06117:0013
#06218:1313000013130000
#06215:00130013000000000013001300000000
#0621b:0000131300001313
#06212:00000000001300130000000000130013
#06315:16
#06312:0000001c00000000
#06314:0000000018000018
#06316:0000000000141400
#07819:1315000000000000
#07814:1300000013000013
#07812:0015000000000000
#08112:13000000000013000000001300000000
#08117:13
#0811b:00000013000000001300000000001300
#08119:00000000000000130000000000000000
#08116:0013
#09617:0000000000001313
#0961a:14
#09614:00140000
#09612:00001413
#0961b:0000000000000013
#09712:1300001300000000
#09716:0000131300000013
#0971b:0000130013000013
#09714:0013000000000000
#09719:0013000000000000
#09917:1300001300130000
#09912:1300000000131300
#0991b:0013130013000000
#09916:0013000013000013
#10012:1300000000120000
#1001b:13
#1001c:0000120000000012
#10019:0000001200001200
#10015:0012
#10115:12
#10112:0012000000120000
#1011c:0000120000000012
#10118:0000001200001200
#10116:0012
#1021b:00131300
#10214:0000000000000013
#10219:0000000000000013
#10212:24130000
#10215:0013000000000000
#10218:00000013000000000000000000000000
#10217:0013
#1021a:24
#10210:41
#1031b:0013000013000000
#10317:00131300
#10316:0013000000001300
#10312:00130000
#10415:13000013000000000000000000000000
#10418:0013000000000000
#10412:00131300
#1041b:00130000
#10416:0013
#10419:0000000000000013
#10414:0000000000000013
#0791b:1300130000130013
#07915:00130000000000130000001300130000
#07918:0013001313001300
#07912:00000013001300000013000000000013
#08318:00120000
#0831c:12
#08316:00120000
#08312:12
#08319:0032000000000000
#08315:0032000000000000
#08612:13130000
#08618:00130000001300000013000000130000
#08615:0000001313001300
#0861b:00000000000000130000000000000000
#0941b:13130000
#09415:00130000001300000013000000130000
#09418:0000001313001300
#09412:00000000000000130000000000000000
#10914:00000000000000000000001200000000
#10912:00000000000000000000000000000000000000000000000000000000000000000000000000000000000000000000000000120000000000000000000000000000
#10918:000000000000000000000000000000000000000000000000000000000000000000000000000000000000000000000000000000000000000000000000000000000000000000000000000000000000000000000000000000000000120000000000000000000000000000000000000000000000000000000000000000000000000000000000000000000000000000120000000000000000000000000000000000001200000000000000000000000000000000000000000000000000000000000000
#10919:0000000000120000
#10916:00000000000000000012000000000000
#1091a:00000000000000000000000000000000000000000000000000000000000000000000001200000000000000000000000000000000000000000000000000000000
#10913:00120000
#10917:00000000000000000000000000000012000000000000000000000000000000000000000000000000000000000000000000000000000000000000000000000000
#10915:0000001200000000
#1101a:0012000000001200
#1101c:00000000000000120000000000120000
#11018:00000000120000000012000000000000
#11013:0000000000120000
#11014:00000012000000000000000000000000
#11012:00000000001200000000000000000000
#11016:00120000000000120000000012000000
#10812:23
#11117:0000000000000000000000000000000000000000000000000000000032323232
#11118:0000000000000000000000000000000000000000000000000032323200000000
#11119:0000000000000000000000000000000000000000000000323200000000000000
#1111a:0000000000000000000000000000000000000000323232000000000000000000
#1111b:0000000000000000000000000000000000003232000000000000000000000000
#1111c:0000000000000000000000000000000000320000000000000000000000000000
#0135b:0013
#01356:00000053
#01357:0053
#01352:00000013
#0485a:5454
#04856:0024002400240024
#04852:00540054
#00552:0063
#0055b:13000063
#00652:63
#00657:00230063
#02052:0063
#0205b:0000000000000053
#02058:0013000000000000
#02055:005600000000000000000000000000000000000000000000000000000000000000000000000000000000000000000000000000000000000000000000000000000000000000000000000000000000000000000000000000000000000000000000000000000000000000000000000000000000000000000000000000000000000000000000000000000000000000000000000000000000000000000000000000000000000000000000000000000000000000000000000000000000000000000000000000000000000000000000000000000000000000000000000000000000000000000000000000000000000000000000000000000000000000000000000000000000000000000000000000000000000000000000000000000000000000000000000000000000000000000000000000000000000000000000000000000000000000000000000000000000000000000000000000000000000000000000000000000000000000000000000000000000000000000000000000000000000000000000000000000000000000000000000000000000000000000000000000000000000000000000000000000000000000000000000000000000000000000000000000000000000000000000000000000000000000000000000000000000000000000000000000000000000000000000000000000000000000000000000000000000000000000000000000000000000000000000000000000000000000000000000000000000000000000000000000000000000000000000000000000000000000000000000000000000000000000000000000000000000000000000000000000000000000000000000000000000000000000000000000000000000000000000000000000000000000000000000000000000000000000000000000000000000000000000000000000000000000000000000000000000000000000000000000000000000000000000000000000000000000000000000000000000000000000000000000000000000000000000000000000000000000000000000000000000000000000000000000000000000000000000000000000000000000000000000000000000000000000000000000000000000000000000000000000000000000000000000000000000000000000000000000000000000000000000000000000000000000000000000000000000000000000000000000000000000000000000000000000000000000000000000000000000000000000000000000000000000000000000000000000000000000000000000000000000000000000000000000000000000000000000000000000000000000000000000000000000000000000000000000000000000000000000000000000000000000000000000000000000000000000000000000000000000000000000000000000000000000000000000000000000000000000000000000000000000000000000000000000000000000000000000000000000000000000000000000000000000000000000000000000000000000000000000000000000000000000000000000000000000000000000000000000000000000000000000000000000000000000000000000000000000000000000000000000000000000000000000000000000000000000000000000000000000000000000000000000000000000000000000000000000000000000000000000000000000000000000000000000000000000000000000000000000000000000000000000000000000000000000000000000000000000000000000000000000000000000000000000000000000000000000000000000000000000000000000000000000000000000000000000000000000000000000000000000000000000000000000000000000000000000000000000000000000000000000000000000000000000000000000000000000000000000000000000000000000000000000000000000000000000000000000000000000000000000000000000000000000000000000000000000000000000000000000000000000000000000000000000000000000000000000000000000000000000000000000000000000000000000000000000000000000000000000000000000000000000000000000000000000000000000000000000000000000000000000000000000000000000000000000000000000000000000000000000000000000000000000000000000000000000000000000000000000000000000000000000000000000000000000000000000000000000000000000000000000000000000000000000000000000000000000000000000000000000000000000000000000000000000000000000000000000000000000000000000000000000000000000000000000000000000000000000000000000000000000000000000000000000000000000000000000000000000000000000000000000000000000000000000000000000000000000000000000000000000000000000000000000000000000000000000000000000000000000000000000000000000000000000000000000000000000000000000000000000000000000000000000000000000000000000000000000000000000000000000000000000000000000000000000000000000000
#02152:00630000
#02156:00000063
#02157:0013
#02552:0063000000530000
#02556:00000000230000000000000000230000
#02557:23
#0265b:5300004300000000
#02657:00000023000000000000000000000000
#02652:3300000000000033
#03058:0052000000000000
#05056:44000053
#0505b:00000053
#05052:6400000000000023
#05058:00240000
#05057:0000000000000023
#03656:00630000
#0365b:00130000
#02457:1300000000140000
#02452:13
#0245b:0000000000000053
#04654:00240000
#0465a:64
#06452:1c
#0645b:0000000000630000
#06457:00000023
#06052:0063
#06057:4343
#00456:6363
#00457:00530053
#06756:0000000000000063
#06956:5300000000130000
#06957:0000000000000053
#06952:53
#07457:63
#0755b:0000000000130000
#07552:00230000
#08057:63
#0805b:00000023000000000000000000000000
#08056:0053
#08052:00000000000000000000002300000000
#08256:0000000000530000
#08252:00000023
#1055b:0053
#10557:00005313
#10556:00630000
#10552:00630013
#00357:0063
#00356:63
#00257:63
#0765b:1313
#07652:00130013
#05257:0000006300000000
#05352:63
#05356:63
#0535b:0013
#05357:0000001300000000
#00756:53
#00757:00630000
#00752:0013
#01257:0063
#0125b:0063
#01456:0053
#01452:0053
#01656:0053
#01652:0053
#0405b:00534300
#04057:0000002300000000
#04952:3464
#0495a:44000064
#05157:00630000
#05152:00633300
#0515b:4300002300000000
#05156:0000002300000000
#0685b:0053
#07052:0053
#07257:5353
#0725b:5353
#07256:00630063
#07252:00630063
#08856:00000053
#08852:6400000000000023
#08858:00240000
#08857:33
#08456:00240000002400000000000054002400
#08458:6464646400000000
#0845a:00000024000000240000000000002400
#0985b:0053
#09857:0000000000230000
#09856:3333
#0915b:53
#09157:53
#09152:0013
#09156:0000001300000000
#08756:0063
#08752:3300000000230000
#0875b:4300000000000023
#08758:00000053
#09252:00000024000000240000000034000000
#09256:00240000002400000000000000000000
#09254:5454545400000000
#0935a:4444
#09352:00340000
#10756:00001414
#10752:00130000
#0085b:0053
#00852:53
#00952:5354
#0095a:0064
#08557:0063
#08552:3463
#08556:34
#09056:63000043
#09052:63000043
#09057:0053
#0905b:0053
#0105a:00000000002400000000000000000000
#01052:00000000002400000000000000000000
#10657:0000000000000053
#10656:0053
#10652:0053
#06652:0063
#06655:0000000000230000
#06658:0063
#0665b:0000000000230000
#1095b:13
#10952:13
#10958:000000000052
#02855:00160000
#01152:00000033
#0115b:0000000000000043
#0155b:0043
#01552:0000000000330000
#01752:0013
#01757:00000063
#01756:0063
#0175b:00000013
#0195b:0043
#01955:0033
#02952:0000000000360000
#02958:00000046
#03256:13
#0325b:13
#03857:0000000000000044
#03852:0000006300000000
#03858:0000006300000000
#03855:0023
#0385b:0023
#03957:0046000000000000
#03956:0000004800000000
#03952:0038
#03953:00360000
#03955:34
#0425b:0023000000230000
#04258:5353
#04255:00630063
#04252:0000002300000023
#0435b:6363
#04358:0023000000230000
#04352:00530000
#04355:0000002300000000
#04456:00230000
#0445b:00230000
#04552:00633500
#04555:0000002300000000
#0455b:00530000
#04558:0000002300000000
#04559:0045
#0475a:44
#04756:34
#05652:6464
#05656:0024002400240024
#0565a:00640064
#05457:00240000
#05452:54
#0585a:54
#05855:00240000
#05856:34
#0575a:4454
#05752:34000054
#05552:34
#05556:44
#05957:63000000002300000000000000000000
#05959:00630000
#0595b:00000023000000000000000000000000
#05952:63000000002300000000000000000000
#05956:00000023000000000000000000000000
#05954:00630000
#06156:33
#0615b:53
#06157:0043
#06152:0063
#02257:00000053
#02256:0000004300000000
#03757:00530000
#03752:00130000
#04152:00633300
#04156:0000002300000000
#06355:16
#0655b:0000000000000043
#0715b:43004343
#07152:00330033
#07357:00630000
#07352:0000000000130000
#0775b:13
#07752:00130000
#07755:0023
#07754:0000005300000000
#07759:0000006300000000
#07758:0023
#07852:0035000000000000
#07859:0045000000000000
#08157:63
#0815b:00000023000000000000000000001300
#08156:0053
#08152:00000000000000000000002300000000
#0895b:4300002300000000
#08957:00630000
#08952:0033
#09657:00000063
#0965a:54
#09654:00240000
#0965b:0000000000000023
#09656:43
#09557:0053
#0955b:4300000000230000
#09555:00000063
#09552:3300000000000023
#09752:3300002300000000
#09756:00530000
#0975b:0043
#09957:4300000000230000
#09952:63
#09956:0023000033000000
#0995b:0053
#1035b:0013
#10356:00000053
#10357:0053
#10352:00000013
#10257:0063
#1025b:0063
#10456:0053
#10452:0053
#11255:00320000
#11259:00420000
#0835c:5242
#08358:00220000
#08356:00220000
#08352:6232
#02357:0000003300000000
#002370:13
#0023b0:00000023
#003360:13
#003320:00230000
#003370:0013
#0033b0:00000023
#004360:13
#004320:0053230000000000
#004371:00130000
#0043b1:0000005323000000
#004360:0013
#004320:0000000000532300
#004371:00000013
#0043b1:0000000000000053
#0053b1:23
#005321:0013
#005361:00000023
#0053b0:00000013
#006370:23
#006321:1323
#006371:00530000
#006371:00000013
#006321:0000000000000053
#007321:23
#007360:13
#0073b0:0053230000000000
#007371:00130000
#007321:0000005323000000
#008321:13
#008371:0000002300000000
#0083b1:0013
#009361:23
#009320:13
#009370:0000002300000000
#009320:0014
#0103a0:00000000005400000000000000000000
#011320:24
#0093a1:0014
#010321:00000000005400000000000000000000
#0113a1:24
#0123b1:0013
#012361:00000023
#012370:0013
#012320:00000023
#013370:0013
#013320:00000023
#013361:00000013
#0143b1:23
#014321:0013
#014371:00000023
#014360:0013
#0143b0:00000023
#016320:0013
#016370:00000023
#016361:0013
#0163b1:00000023
#017361:0013
#0173b1:00000023
#017370:00000013
#018320:23
#019380:0000000000001333
#020380:3323000000000000
#020350:005600000000000000000000000000000000000000000000000000000000000000000000000000000000000000000000000000000000000000000000000000000000000000000000000000000000000000000000000000000000000000000000000000000000000000000000000000000000000000000000000000000000000000000000000000000000000000000000000000000000000000000000000000000000000000000000000000000000000000000000000000000000000000000000000000000000000000000000000000000000000000000000000000000000000000000000000000000000000000000000000000000000000000000000000000000000000000000000000000000000000000000000000000000000000000000000000000000000000000000000000000000000000000000000000000000000000000000000000000000000000000000000000000000000000000000000000000000000000000000000000000000000000000000000000000000000000000000000000000000000000000000000000000000000000000000000000000000000000000000000000000000000000000000000000000000000000000000000000000000000000000000000000000000000000000000000000000000000000000000000000000000000000000000000000000000000000000000000000000000000000000000000000000000000000000000000000000000000000000000000000000000000000000000000000000000000000000000000000000000000000000000000000000000000000000000000000000000000000000000000000000000000000000000000000000000000000000000000000000000000000000000000000000000000000000000000000000000000000000000000000000000000000000000000000000000000000000000000000000000000000000000000000000000000000000000000000000000000000000000000000000000000000000000000000000000000000000000000000000000000000000000000000000000000000000000000000000000000000000000000000000000000000000000000000000000000000000000000000000000000000000000000000000000000000000000000000000000000000000000000000000000000000000000000000000000000000000000000000000000000000000000000000000000000000000000000000000000000000000000000000000000000000000000000000000000000000000000000000000000000000000000000000000000000000000000000000000000000000000000000000000000000000000000000000000000000000000000000000000000000000000000000000000000000000000000000000000000000000000000000000000000000000000000000000000000000000000000000000000000000000000000000000000000000000000000000000000000000000000000000000000000000000000000000000000000000000000000000000000000000000000000000000000000000000000000000000000000000000000000000000000000000000000000000000000000000000000000000000000000000000000000000000000000000000000000000000000000000000000000000000000000000000000000000000000000000000000000000000000000000000000000000000000000000000000000000000000000000000000000000000000000000000000000000000000000000000000000000000000000000000000000000000000000000000000000000000000000000000000000000000000000000000000000000000000000000000000000000000000000000000000000000000000000000000000000000000000000000000000000000000000000000000000000000000000000000000000000000000000000000000000000000000000000000000000000000000000000000000000000000000000000000000000000000000000000000000000000000000000000000000000000000000000000000000000000000000000000000000000000000000000000000000000000000000000000000000000000000000000000000000000000000000000000000000000000000000000000000000000000000000000000000000000000000000000000000000000000000000000000000000000000000000000000000000000000000000000000000000000000000000000000000000000000000000000000000000000000000000000000000000000000000000000000000000000000000000000000000000000000000000000000000000000000000000000000000000000000000000000000000000000000000000000000000000000000000000000000000000000000000000000000000000000000000000000000000000000000000000000000000000000000000000000000000000000000000000000000000000000000000000000000000000000000000000000000000000000000000000000000000000000000000000000000000000000000000000000000000000000000000000000000000000000000000000000000000000000000000000000000000000000000000000000000000000000000000000000000000000000000000
#020320:0013
#020370:00000023
#0203b0:0000000000000013
#021360:0023000000000000
#021320:00130000
#021370:0023
#021360:00000013
#0223b0:23
#022361:13330000
#022321:0033002300000000
#022371:00000013
#023321:23
#023370:13330000
#0233b0:0033002300000000
#024350:000000000000000000000000000000000000000000000000000000000000000000000000000000000000000000000000000000000000000000000000000000000000000000000000000000000000000000000000000000000000000000000000000000000000000000000000000000000000000000000000000000000000000000000000000000000000000000000000000000000000000000000000000000000000000000000000000000000000000000000000000000000000000000000000000000000000000000000000000000000000000000000000000000000000000000000000000000000000000000000000000000000000000000000000000000000000000000000000000000000000000000000000000000000000000000000000000000000000000000000000000000000000000000000000000000000000000000000000000000000000000000000000000000000000000000000000000000000000000000000000160000000000000000000000000000000000000000000000000000000000000000000000000000000000000000555300000000000000000000000000000000000000000000000000000000000000000000000000000000000000000000000000000000000000000000000000000000000000000000000000230000000000000000000000000000000000000000000000000000000000000000000000000000000000000000000000000000000000000000000000000000000000000000000000000000000000000000000000000000000000000000000000000000000000000000000000000000000000000000000000000000000000000000000000000000000000000000000000000000000000000000000000000000000000000000000000000000000000000000000000000000000000000000000000000000000000000000000000000000000000000000000000000000000000000000000000000000000000000000000000000000000000000000000000000000000000000000000000000000000000000000000000000000000000000000000000000000000000000000000000000000000000000000000000000000000000000000000000000000000000000000000000000000000000000000000000000000000000000000000000000000000000000000000000000000000000000000000000000000000000000000000000000000000000000000000000000000000000000000000000000000000000000000000000000000000000000000000000000000000000000000000000000000000000000000000000000000000000000000000000
#024381:000000000000000000000000000000000000000000000000000000000000000000000000000000000000000000000000000000000000000000000000000000000000000000000000000000000000000000000000000000000000000000000000000000000000000000000000000000000000000000000000000000000000000000000000000000000000000000000000000000000000000000000000000000000000000000000000000000000000000000000000000000000000000000000000000000000000000000000000000000000000000000000000000000000000000000000000000000000000000000000000130000000000000000000000000000000000000000000000000000000000000000000000005300000000000000000000000000000000000000000000000000000000000000000000000000000000000000000000000000000000000000000000000000000000000000000000000000000000000000000000000000000000000000000000000000000000000000000000000000000000000000000000000000000000000000000000000000000000000000000000000000000000000000000000000000000000000000000000000000000000000000000000000000000000000000000000000000000000000000000000
#024351:00000000000000000000000000000000000000000000000000000000000000000000000000560000000000000000000000000000000000000000000000000000
#024371:0000000000240000
#0243b1:0000000000000013
#025371:53
#0253b1:0023000000000000
#025320:0013002300000000
#025360:00530000
#025320:0000000000130000
#025360:00000000000000000000000000530000
#026320:23
#0263b1:1300002300000000
#026371:00000053000000000000000000000000
#026320:0000001300000000
#026350:0000000053230000
#026381:0000000000130000
#0263b1:0000000000005323
#027371:00001353230000000000000000000000
#027371:000000000000000000000000000000000000000000000000000000000000000000000000000000000000000000000000000000000000000000000000000000000000000000000000000000000000000000000000000000000000000000000000000000000000000000000000000000000000000000000000000000000000000000000000000000000000000000000000000000000000000000000000000000000000000000000000000000000000000000000000130000000000000000000000000000000000000000000000000000000000530000000000000000000000000000000000000000000000000000000000000000000000000000000000000000000000000000000000000000000000000000000000005500000000000000000000000000000000000000000000250000000000000000000000000000000000000000000000000000000000000000000000000000000000000000000000000000000000000000000000000000000000000000000000000000000000000000000000000000000000000000000000000000000000000000000000000000000000000000000000000000000000000000000000000000000000000000000000000000000000000000000000000000000000000000000000000000000000000000000000
#027391:00000000000000000000000000000000000000005300005300000000000000000000000000000000
#027340:0000000013230000
#028350:170000000000000000005600360056000000000000570000260000000000000000000000000000000000000000000000000000000000000000000000000000000000000000000000000000000000000000000000000000000000000000000000
#028360:0056000000000000000000000000000000000000000000000000000000000000
#028380:000000000000000000000000000000000000000000000000000000000000000000000000000000000000000000000000000000000000000000000000005400000000000000000000000000000000000000000000000000000000000000000000000000000000000000000000000000000000000000000000000000000000000000000000000000000000000000000000000000000000000000000000000000000000000000000000000000000000000000005400000000000000000000000000000000000000000000000000000000000000000000000000000000000000000000000000000000000000000000000000000000000000000000000000000000000000000000000000000000000000000000000000000000000000000000000000000000000000000000000000000054000000000000000000000000000000000000000000000000000000000000000000000000000000000000000000000000000000000000000000000000000000000000000000000000000000000000000000000000000000000000000000000000000000000000000000000000000000000000000054000000000000000000000000000000000000000000000000000000000000000000000000000000000000000000000000000000000000000000000000000000000000000000000000000000000000000000000000000000000000000000000000000000000000000000000000000000000000000000000000000000000000000000000000000000000000000000000000000000000000000000000000000000000000000000000000000000000000000000000000000000000000000000000000000000000000000000000000000000000000000000000000000000000000000000000000000000000000000000000000000000000000000000000000000000000000000000000000000000000000000000000000000000000000000000000000000000000000000000000000000000000000000000000000000000000000000000000000000000000000000000000000000000000000000000000000000000000000000000000000000000000000000000000000000000000000000000000000000000000000000000000000000000000000000000000000000000000000000000000000000000000000000000000000000000000000000000000000000000000000000000000000000000000000000000000000000000000000000000000000000000000000000000000000000000000000000000000000000000000000000000000000000000000000000000000000000000000000000000000000000000000000000000000000000000000000000000000000000000000000000000000000000000000000000000000000000000000000000000000000000000000000000000000000000000000000000000000000000000000000000000000000000000000000000000000000000000000000000000000000000000000000000000000000000000000000000000000000000000000000000000000000000000000000000000000000000000000000000000000000000000000000000000000000000000000000000000000000000000000000000000000000000000000000000000000000000000000000000000000000000000000000000000000000000000000000000000000000000000000000000000000000000000000000000000000000000000000000000000000000000000000000000000000000000000000000000000000000000000000000000000000000000000000000000000000000000000000000000000000000000000000000000000000000000000000000000000000000000000000000000000000000000000000000000000000000000000000000000000000000000000000000000000000000000000000000000000000000000000000000000000000000000000000000000000000000000000000000000000000000000000000000000000000000000000000000000000000000000000000000000000000000000000000000000000000000000000000000000000000000000000000000000000000000000000000000000000000000000000000000000000000000000000000000000000000000000000000000000000000000000000000000000000000000000000000000000000000000000000000000000000000000000000000000000000000000000000000000000000000000000000000000000000000000000000000000000000000000000000000000000000000000000000000000000000000000000000000000000000000000000000000000000000000000000000000000000000000000000000000000000000000000000000000000000000000000000000000000000000000000000000000000000000000000000000000000000000000000000000000000000000000000000000000000000000000000000000000000000000000000000000000000000000000000000000000000000000000000000000000000000000000000000000000000000000000000000000000000000000000000000000000000000000000000000000000000000000000000000000000000000000000000000000000000000000000000000000000000000000000000
#0283c0:00000012
#0283a0:0000000000000052
#0293c0:22
#029321:12220000
#029341:0052000000000000
#0293c0:00122200
#0293a0:0000005200000000
#030380:0012000000000000
#0303c0:0000002200000000
#030350:00001222
#030320:0000000000520000
#030391:00000012
#0303c1:0000000000000052
#031391:22
#032361:0013
#0323b1:0000000000532300
#032370:00000013
#032320:0000000000000053
#033320:23
#033361:13
#0333b1:0053230000000000
#033370:00130000
#033320:0000005323000000
#0343b0:13
#0353b0:23
#035320:00130000
#035350:0000002300000000
#035381:0000001300000000
#0353b1:0023
#035350:0013
#035320:0000000000230000
#035381:0000000000130000
#0353b1:00000023
#036361:00130000
#036321:0000005323000000
#037371:00130000
#0373b1:0000005323000000
#037381:00000013
#037361:0000000000000000000000000000000000000000000000000033000000000000
#037351:00000000000000000000000000330000
#037331:0000000000000000000000000000000000000000000000000000003300000000
#037321:0000000000000023
#038321:0000001300230000
#038351:0053
#038380:0000001300230000
#0383b0:0053
#0403b0:00132300
#040370:0000005300000000
#041320:00132300
#041360:0000005300000000
#042380:13230000
#0423b0:0053000000000000
#042351:00132300
#042321:0000005300000000
#042380:00001323
#0423b0:0000000000530000
#042351:00000013
#042321:0000000000000053
#043351:23
#0433b0:13230000
#043380:0053000000000000
#043321:00132300
#043351:0000005300000000
#0433b0:00001323
#043380:0000000000530000
#044360:00130000
#044320:0023
#0443b1:00130000
#044371:0023
#045321:00132500
#045351:0000005300000000
#0453b0:00130000
#045380:0000005300000000
#045390:0025
#0463a0:1424
#046340:00540000
#0473b0:0000001300000000
#047360:0023
#0483a0:14240000
#048360:0054000000000000
#048321:00142400
#048361:0000005400000000
#0483a0:00001424
#048360:0000000000540000
#048321:00000014
#048361:0000000000000054
#049321:24
#049321:0014
#049361:00000024
#0493a0:00000014
#050360:24
#050321:1424
#050381:00540000
#0503b1:00000013
#050371:0000000000000053
#0513b1:23
#050360:00000013
#050320:0000000000000053
#051360:23
#051320:00132300
#051360:0000005300000000
#051371:00132300
#0513b1:0000005300000000
#051371:0000000000000013
#052371:23
#0523b1:0013230000000000
#052371:0000001300000000
#052321:0000000000230000
#052370:0000000000132300
#053360:13
#0533b0:00532300
#053321:13
#053371:0000532300000000
#054320:1424
#054370:00540000
#055320:0000001300000000
#055370:0023
#056320:14240000
#056360:0054000000000000
#0563a1:00142400
#056361:0000005400000000
#056320:00001424
#056360:0000000000540000
#0563a1:00000014
#056361:0000000000000054
#0573a1:24
#0573a1:0014
#057361:00000024
#057320:00000014
#058360:24
#0583a1:1424
#058351:00540000
#059371:13000000005300000000000000000000
#0593b1:00000053000000002300000000000000
#059391:00530000
#059320:13000000005300000000000000000000
#059360:00000053000000002300000000000000
#059340:00530000
#060320:1323000000000000
#0603b0:0000132300000000
#060320:0013
#060370:00000023
#0613b0:13
#061360:00230000
#061320:0013
#061370:00000023
#064320:0000132300000000
#064381:0000001323000000
#064350:0000000013230000
#0643b1:0000000000130023
#064371:00000053
#066321:00001323
#066351:0000000000530000
#066380:00001323
#0663b0:0000000000530000
#067380:1323000000000000
#067321:0013230000000000
#0673b0:00130000
#067390:00000000005300005300000000000000
#0673a0:0000005300000000
#067380:00000000000000530000530000000000
#067370:00000000000000000053000023000000
#067360:00000000000000000000005300000000
#067351:0013
#067331:00000000000000000053000023000000
#067341:0000000000530000
#067321:00000000000000000000005300000000
#067361:0000000000000013
#0683b1:0053
#069361:53
#0693b1:0000000000230000
#069320:13
#069350:00230000
#069371:0000000000000013
#070321:0053
#071371:23
#072371:13
#072331:0023000000000000
#0723b0:13
#072370:0023000000000000
#072360:00130000
#0723a0:0000002300000000
#072321:00130000
#072361:0000002300000000
#072371:0013
#072331:0000000000230000
#0723b0:0013
#072370:0000000000230000
#072360:00000013
#0723a0:0000000000000023
#072321:00000013
#072361:0000000000000023
#073371:00130000
#0733b1:00000000000000530000230000000000
#074371:13
#074321:0053
#075321:00530000
#075371:0000000000230000
#077341:0000001300000000
#077351:0053
#077321:0000000000230000
#077390:0000001300000000
#077380:0053
#0773b0:0000000000230000
#078380:0000000013230000
#078341:0000000000132300
#078380:0000000000001323
#080370:1300002300000000
#0803b0:00000053000000000000000000000000
#080360:0000000013000023
#080320:00000000000000000000005300000000
#081370:1300002300000000
#0813b0:00000053000000000000000000000000
#081360:0000000013000023
#081320:00000000000000000000005300000000
#082360:0000000000130023
#082320:00000053
#0833c0:1222
#083390:0032000000000000
#083380:00320000
#083321:1222
#083351:0032000000000000
#083361:00320000
#084381:1454545424000000
#084361:00540000005400000000000000000000
#0843a1:00000054000000540000000000000000
#084361:00000014
#0843a1:0000000000000054
#085361:24
#084360:0000000000000014
#085320:24
#085320:0013
#085360:0000000000230000
#085371:0013
#0853b1:0000000000230000
#086351:00001323000000000000000000000000
#0863b0:00000013230000000000000000000000
#086320:00000000000000000000132300000000
#0863b1:00000000000000000000001323000000
#086321:0000000000000013
#087321:23
#0863b0:00000000000000000000000000000013
#0873b0:23
#087360:0013
#087320:0000000000530000
#087350:00000023
#087381:00000013
#0873b1:0000000000000053
#088371:23
#088320:1424
#088380:00540000
#088360:00000013
#088320:0000000000000053
#089360:23
#089370:00132300
#0893b0:0000005300000000
#089320:0000000000000013
#090320:53
#090370:00230000
#090361:13
#0903b1:00230000
#0903b1:0000001353000000
#090361:00000023
#090370:0013
#090320:00000023
#091370:13
#091320:00532300
#0913b1:13
#091361:0000532300000000
#092340:1454545424000000
#092360:00540000005400000000000000000000
#092320:00000054000000540000000000000000
#094380:00001323000000000000000000000000
#094321:00000013230000000000000000000000
#0943b1:00000000000000000000132300000000
#094320:00000000000000000000001323000000
#0943b0:0000000000000013
#0953b0:23
#094321:00000000000000000000000000000013
#095321:23
#095371:0013
#0953b1:0000000000530000
#095381:00000023
#095350:00000013
#095320:0000000000000053
#096360:23
#0963a1:1424
#096341:00540000
#096371:00000013
#0963b1:0000000000000053
#097371:23
#097361:00132300
#097321:0000005300000000
#0983b1:1323000000000000
#098321:0000132300000000
#0983b1:00001323
#098371:0000000000530000
#099321:13230000
#099361:0053000000000000
#0993b1:00001323
#099371:0000000000530000
#100361:0000122200000000
#1003c1:0000000012220000
#100321:0000000000001222
#101381:1222000000000000
#101361:00120000
#101321:0000002200000000
#1013c1:0012
#101381:0000000000220000
#101321:00000012
#101361:0000000000000022
#1023b1:0013
#102361:00000023
#102370:0013
#102320:00000023
#103370:0013
#103320:00000023
#103361:00000013
#1043b1:23
#104321:0013
#104371:00000023
#104360:0013
#1043b0:00000023
#105360:00130000
#1053a0:0000002300000000
#105321:00130000
#105361:0000002300000000
#1053b1:0013
#105371:0000000000230000
#105370:0013
#105330:0000000000230000
#106320:0013
#106370:00000023
#106361:0013
#1063b1:00000023
#106371:0000000000000013
#107321:0053230000000000
#1073b1:00000013
#1083b1:53
#109321:23
#108320:13
#1093b0:23
#109380:000000000012
#1103c0:00220000000000000000000000000000
#110380:00000000000000000000000000120000
#111320:0022
#1113c1:0000000000000000000000000000000012320000000000000000000000000000
#1113b1:0000000000000000000000000000000000003232000000000000000000000000
#1113a1:0000000000000000000000000000000000000000323232000000000000000000
#111391:0000000000000000000000000000000000000000000000323200000000000000
#111381:0000000000000000000000000000000000000000000000000032323200000000
#111371:0000000000000000000000000000000000000000000000000000000032323232
#112321:22
