This file was generated by Ched 2.6.2.0.
#TITLE "normal"
#ARTIST ""
#DESIGNER ""
#DIFFICULTY 0
#PLAYLEVEL
#SONGID ""
#WAVE ""
#WAVEOFFSET 0
#JACKET ""
#REQUEST "ticks_per_beat 480"
#00002: 4
#BPM01: 165
#BPM02: 150
#BPM03: 145
#BPM04: 120
#BPM05: 100
#BPM06: 110
#BPM07: 144
#BPM08: 137
#00008: 01
#01108: 01
#00808: 02000303
#10608: 0207
#00908: 0405
#11108: 0004
#01008: 0006
#10708: 0806
#TIL00: ""
#HISPEED 00
#MEASUREHS 00
#00118:14
#00114:0014
#00018:14
#00014:0014
#0121a:14140000
#01212:00001414
#01210:41
#0191a:1414
#01916:00140014
#01912:14
#0201a:0014
#02012:14000014
#02114:00140000
#0211a:0014
#02112:00000014
#02118:14
#02218:1414
#02214:00140014
#02819:14140000
#0281a:00000014
#02813:14140000
#02810:41
#0321a:14000014
#03214:0014
#03212:14
#03319:00140000
#03312:0014
#03313:14
#03318:00000014
#03412:14141414
#0441a:1414
#04414:1414
#04412:00140000
#04418:00140000
#04516:1818
#04512:00180000
#04615:0016
#04618:26
#04610:41
#0481a:14
#04814:00140000
#04819:0014
#04813:00000014
#05012:14
#0501a:00000014
#05212:1414
#05218:00140014
#05314:1414
#0531a:00140000
#05415:0016
#05412:26
#0471a:0014
#04712:00000014
#07612:1414
#07618:00140014
#0761f:11
#0761f:11
#07912:14
#07916:00140014
#0791a:0014
#06818:14
#06914:1414
#06918:00140014
#06910:41
#07312:0014
#07318:0014
#07514:0014
#0751a:0014
#07714:1414
#0771a:00140014
#07812:14
#07816:00140014
#0781a:0014
#08415:0016
#08412:26
#0841f:21
#0841f:21
#08616:16
#08612:00160000
#08617:0016
#08613:00000016
#08815:0016
#08818:26
#0891a:00141400
#08912:00141400
#09215:0016
#09218:26
#08512:0014
#0851a:0014
#08510:41
#00313:0014
#00319:0014
#00513:0014
#00519:0014
#00713:0014
#00719:0014
#00812:14
#0081a:0014
#00912:1414
#0091a:0014
#01412:14140000
#0141a:00001414
#02412:1414
#0241a:14000014
#02512:00141400
#0251a:14000014
#0261a:14
#02712:14
#02914:14
#02918:00140000
#0291a:00000014
#02912:0014
#03012:00140000
#0301a:00000014
#03016:0014
#03612:14140000
#03913:14141400
#03919:14141400
#04014:14140000
#0491a:0014
#04914:0014
#04918:24
#05612:14
#05618:00140000
#05613:0014
#05619:00000014
#0601a:1414
#06014:00140014
#06118:1414
#06112:00140000
#05512:0014
#0551a:00000014
#05712:0014
#05718:0014
#05714:24
#05112:00140000
#0711a:14141414
#07114:14141414
#08012:14
#0811a:14
#08214:14141400
#08218:0014001400000000
#08212:00000014
#0821a:00000014
#08314:18181800
#08713:0014
#08719:0014
#08718:26
#09414:16
#09418:00160000
#09413:0016
#09417:00000016
#09615:0016
#09612:26
#09712:00141400
#0971a:00141400
#0931a:00141400
#09312:00141400
#09519:0014
#09513:0014
#09512:26
#09812:14
#09818:14
#0981a:00000014
#09814:00000014
#10018:14
#10012:14140000
#10016:0014
#1001a:00000014
#1021a:14
#10214:0014000000000000
#10218:00140000
#10212:0016
#10210:41
#10318:16160000
#10512:16160000
#10412:14
#10418:0014000016000000
#10414:00140000
#0131a:1414
#01314:00140000
#01512:1414
#01518:00140000
#0161a:14140000
#01612:00001414
#0171a:14
#01714:00140000
#01718:0014
#01712:00000014
#02318:1414
#02314:00140014
#0311a:14140000
#03116:0014
#03112:14000014
#0371a:14140000
#03812:1414
#03818:00140014
#04118:14140000
#0421a:1414
#04214:00140014
#04318:1414
#04312:00140014
#09014:00000014
#0901a:00000014
#09118:00000014
#09112:00000014
#0991a:14
#09914:14
#09912:00000014
#09918:00000014
#1011a:14
#10112:14
#10818:14
#10814:14
#1121a:00140000
#01816:00140014
#01812:0014
#0181a:14
#0581a:14
#05812:00000014
#0591a:00140000
#06718:0014
#06714:00000014
#07014:14
#04556:0018
#04655:0026
#04658:66
#05052:64
#0505a:00000064
#05455:0026
#05452:56
#06858:64
#08455:0026
#08452:56
#08855:0026
#08858:56
#09255:0026
#09258:66
#0265a:64
#02752:54
#03652:00640000
#04054:00540000
#05152:00640000
#08052:64
#0815a:64
#08354:0018
#09655:0026
#09652:56
#09852:64
#09858:64
#0375a:00540000
#04158:00640000
#06158:0054
#0995a:54
#09954:54
#10858:54
#10854:54
#1125a:00140000
#00952:0054
#0095a:0054
#04958:14
#05754:14
#08758:16
#09552:16
#10358:00000016
#10552:00000016
#0585a:54
#05852:00000054
#0595a:00540000
#07054:54
#0023a0:14
#003380:24
#004320:14
#005340:24
#0063a0:14
#007380:24
#0093a0:0014
#011380:0000002400000000
#009321:0014
#011341:0000002400000000
#0263a1:14
#026381:0024
#027321:14
#027341:0024
#035321:14000024
#036321:00140000
#036341:0024
#0373a1:00140000
#037381:0024
#040341:00140000
#040321:0024
#041381:00140000
#0413a1:0024
#046381:16
#046351:0056
#047381:26
#050321:14
#050341:0024
#0503a1:00000014
#051381:24
#051321:00140000
#051341:0024
#054321:16
#054351:0056
#055321:26
#0583a1:14
#058381:0024
#058321:00000014
#059341:24
#0593a1:00140000
#059381:0024
#061381:0014
#0623a1:24
#063331:1400003400340034
#063341:00003434
#064341:24
#063390:1400003400340034
#0633a0:00003434
#0643a0:24
#068380:14
#0683a0:0024
#070340:14
#070320:0024
#0723a0:14
#072380:0034
#073380:24
#074320:14
#074340:0034
#075340:24
#080320:14
#080340:0024
#0813a0:14
#081380:0024
#084320:16
#084350:0056
#085320:26
#088380:16
#088350:0056
#089380:26
#0903a0:1424
#090341:1424
#091321:1424
#091380:1424
#092380:16
#092350:0056
#093380:26
#096320:16
#096350:0056
#097320:26
#098320:14
#098340:0024
#098381:14
#0983a1:0024
#0993a1:14
#099381:0024
#099340:14
#099320:0024
#103380:00001626
#105320:00001626
#106320:1434340034000000
#106340:0000000000000034
#107340:0034340034000000
#107320:00000034
#108340:34
#109320:24
#1063a1:1434340034000000
#106381:0000000000000034
#107381:0034340034000000
#1073a1:00000034
#108381:34
#1093a1:24
#111341:0014
#112321:24
