This file was generated by Ched 2.6.2.0.
#TITLE ""
#ARTIST ""
#DESIGNER ""
#DIFFICULTY 0
#PLAYLEVEL
#SONGID ""
#WAVE ""
#WAVEOFFSET 0
#JACKET ""
#REQUEST "ticks_per_beat 480"
#00002: 4
#BPM01: 240
#00008: 01
#TIL00: ""
#HISPEED 00
#MEASUREHS 00
#00018:16
#00118:16
#00212:16
#00312:16
#00418:16
#00612:16
#00818:16
#00810:41
#00912:16
#01018:16
#01112:16
#01218:16
#01318:16
#01412:16
#01512:16
#01619:14
#01819:14
#01913:14
#0201a:14
#02114:14
#02218:14
#02312:14
#02419:14
#02410:41
#02519:14
#02819:14
#02913:14
#04914:14
#0501a:14
#0561a:14
#05610:41
#05712:14
#05818:14
#0681a:14
#0691a:14
#08012:0016
#08018:26
#0801f:21
#08218:1616
#08210:41
#09619:14
#09613:0014
#09819:14
#09813:0014
#12018:1616
#12118:1616
#12212:1616
#12312:1616
#12418:16
#12412:0016
#12518:16
#12512:0016
#01713:14
#02613:14
#02713:14
#03019:14
#0481a:14
#0511a:14
#05318:14
#05412:14
#05212:14
#05512:14
#05914:14
#06012:14
#0611a:14
#06214:14
#06318:14
#06419:14
#0641f:11
#06519:14
#06613:14
#06713:14
#07612:14
#07712:14
#07213:14
#07313:14
#07419:14
#07519:14
#08118:16
#08112:0016
#08412:0016
#08518:16
#08512:0016
#08618:16
#08612:0016
#08818:0016
#08812:26
#09012:1616
#08912:16
#08918:0016
#09218:0016
#09312:16
#09318:0016
#09412:16
#09418:0016
#09512:16
#08718:16
#09719:14
#09713:0014
#09919:1414
#10013:14
#10019:0014
#10213:14
#10219:0014
#10113:14
#10119:0014
#10313:1414
#1041a:1414
#10514:1414
#10618:1414
#10712:14
#10718:0014
#10812:1414
#10918:1414
#11014:1414
#1111a:14
#11114:0014
#12618:16
#12612:0016
#12718:16
#12712:0016
#04010:41
#11210:41
#005380:1626
#007320:1626
#0323a0:14
#0333a0:24
#034340:14
#035340:24
#036380:14
#037380:24
#038320:14
#039320:24
#0403a0:14
#0413a0:24
#042340:14
#043340:24
#044380:14
#045380:24
#046320:14
#047320:24
#070340:14
#071340:24
#078380:14
#079380:24
#083380:16
#084380:26
#091320:16
#092320:26
#1123a0:1424
#113340:1424
#114380:1424
#115320:1424
#1163a0:1424
#117340:1424
#118380:1424
#119320:1424
#128390:14
#129390:0024
#130330:14
#131330:0024
#132390:14
#133390:0024
#134330:14
#135330:0024
#1363a0:14
#1403a0:0024
