This file was generated by Ched 2.6.2.0.
#TITLE ""
#ARTIST ""
#DESIGNER ""
#DIFFICULTY 0
#PLAYLEVEL
#SONGID ""
#WAVE ""
#WAVEOFFSET 0
#JACKET ""
#REQUEST "ticks_per_beat 480"
#00002: 4
#BPM01: 240
#00008: 01
#TIL00: ""
#HISPEED 00
#MEASUREHS 00
#0161b:00000013000000000000000013000000
#01618:0000000000000013
#01615:00000013
#01612:00000013000000000000000000000000
#01712:00130013
#01715:1300000000000013
#01716:00130000
#01718:00000013
#01717:0013
#0171b:0013
#01818:13
#01812:0000001300130000
#0181b:00130013
#01816:00130013
#01817:0000001300130000
#01917:00130013
#01916:1313
#0191b:1313
#01912:00130013
#02016:13000000000000000013000000000000
#02017:0000001300000000
#0201b:13000013
#02012:0000001300000000
#02112:00000013
#0211b:0013000000000000
#02116:13
#02114:0000001300000000
#02117:0000000000130000
#02119:0000001300000000
#02216:13130000
#0221b:13000013
#02212:00131300
#02217:00000013
#02312:0013000000000000
#0231b:00000013
#02316:0000000000130000
#02317:13
#02319:0000001300000000
#02314:0000001300000000
#02512:0013
#02519:00000013
#02517:0013
#02514:00000013
#02516:14
#02717:00001313
#0271b:00000013
#02712:13
#02716:00130000
#02719:00130000
#02812:14181a1c
#02916:00130000
#02914:0013
#02912:00000013
#0291b:00130000
#02917:00000013
#02919:0013
#03118:12000012
#03116:0012000000120000
#03113:0000001200000000
#0311b:0000001200000000
#03915:0000000000130013
#0391b:1313
#03917:0013000000000000
#03919:0000001300000000
#03918:00000013
#03912:0013000000000000
#05517:1300000000130000
#0551b:0000001313000013
#05516:00130013
#05512:1313
#05412:00000013000000000000000013000000
#05415:13
#05418:0000001300000000
#0541b:00000000000000000013000000000000
#05218:0000000000000013
#05215:00000013
#05212:13
#0521b:13
#0531a:00130000
#0531b:13
#05313:00000013
#05118:00000013
#0511a:00131300
#05113:00131300
#05115:0000000000000013
#05012:0000001300000000
#05016:13
#0501b:13000013
#0481b:23000000000000000000001300000000
#04814:00130000
#04817:0000001300000000
#04812:0000001300000000
#04819:00130000
#04816:23
#06412:00000013
#0641b:0000000000000013
#06418:0013
#06415:0000000000000013
#0641f:11
#06419:00240000
#06413:00240000
#06515:0013000000000000
#0651b:0000001300000000
#06512:0000130000130000
#06517:1313
#06816:0013
#06819:00000013
#06814:00000013
#0681b:0000130000000013
#06817:00130000
#06812:0000000013000013
#07018:16
#07012:16160000
#07614:13
#07619:13
#07612:0000131300000000
#0761b:0000131300130000
#07617:0000000000130013
#07912:1c1c000000002c00
#07917:00000000000000120000000000000000
#07714:0000000000130013
#07719:00000013
#07716:0013001300000000
#07712:0013000000000000
#0801b:13000013
#08016:2300000000000013
#08012:0000001300000000
#0801f:21
#0811a:14
#08114:00140000
#08112:0014
#08118:00140013
#08115:0000000000000013
#08116:1414
#08119:0014000000000000
#08113:0000001400000000
#0821b:1300130000130000
#08216:0000130000130000
#08217:0000001300001300
#08212:1300001300001300
#08210:41
#08318:1313
#0831b:0013000000130000
#08315:00130013
#08312:1300001300000013
#08412:00131300
#08414:00000013
#08419:00000013
#08417:0013
#08517:13000013000000000000000000000000
#0851b:13
#08516:00000000000000000013000013000000
#08512:0000001300000000
#08616:00130000
#08612:1313
#08619:0000000000001313
#08614:0000000000001313
#08617:0013000013000000
#0861b:0000001300000000
#0631b:1313
#06318:00000000130000000000003313333300
#06315:00000000000013000000003313333300
#06312:0013000013000000
#0631a:00000000000000000033000000000033
#06319:0000000000330000
#06313:00000000000000000033000000000033
#06314:0000000000330000
#08718:0013
#0871b:00230000
#08715:0023
#08712:00230000
#11216:00130013
#11212:0013
#11214:0013000000000000
#11210:41
#11612:0013130013000000
#11616:23000013
#11816:0013130000000000
#1181b:0013
#11817:0000000000131300
#11812:23
#1291b:1313000000000000
#12912:0000131300000000
#12918:0000000013130000
#12915:0000000000001313
#13215:0013001300001300
#13212:2313
#1321b:2313
#13218:0000130000130013
#13616:14
#13512:00000014
#1351a:0000000000000014
#13513:1414140000000000
#13519:00140014000000000000000000000000
#13515:0013
#13518:0000001300000000
#07312:0013000000001300
#07317:00000016
#0731b:0013000013000000
#07318:13
#06012:00000013
#06017:00000013
#0611b:1300130000131300
#06112:0013000013000000
#06116:00130013
#05817:0000001300000000
#05812:13
#05816:13000013
#05912:13
#05916:0014
#05914:00000018
#06217:13130013
#06212:00130013
#06216:0013
#06215:0013000000000000
#06218:0000000000130000
#09615:001300000013000000130000
#09618:001300130013
#09612:000000130000001300000013
#0961b:231313
#0971b:131313
#09715:001300000013000000130000
#09718:001300130000
#09712:000000130000001300000000
#04914:00130000
#04912:1314
#04919:00130000
#04916:00000014
#03612:13130013
#03616:0000001300000000
#03614:0000000000130000
#03617:13000013
#0361b:0000001300000000
#03712:1313
#03716:0013000000001300
#03714:0000001300000000
#0371b:0013000000000000
#03717:0013
#0381b:13130013
#03817:0000001300000000
#03819:0000000000130000
#03816:13000013
#03812:0000001300000000
#03212:00130000
#03213:0000001300000000
#03217:0000000000130000
#03216:23000013
#03312:13000013
#03313:0013000000000000
#03317:0000001300000000
#03316:0013
#04112:0013
#04116:0000001300001300
#04118:1300000000130000
#0411b:00000013
#0261b:1313
#02617:00000013
#02616:13130000
#02612:00130000
#02614:00000013
#03018:1212
#03016:0012000000120000
#0301c:00120012
#03012:0000001200000012
#06617:00130000
#06619:0013
#0661b:00000013
#06614:0013
#06612:0000130000000013
#06618:0000000000000013
#03416:1300000000130000
#0341b:00130000
#0341a:0000001300000000
#03417:00000013
#0351b:13000013
#0351a:0013000000000000
#03516:0000001300000000
#03517:0013
#0401b:23130000
#04012:0000000000130000
#04010:41
#0431b:0013
#04317:00000013
#04315:1300000000130000
#04318:0000001300000000
#04312:00000013
#04212:13130000
#0421b:0000000000130000
#04512:0013
#04516:00000013
#04518:0000000000130000
#04517:13
#04515:0000001300000000
#0451b:00000013
#0441b:00130000
#04412:0000000000130000
#04417:13
#04718:0013130000001300
#04715:00000013000000000000130000000000
#0471b:1300001313000000
#04712:0000001300000013
#04616:00130000
#04617:0000000000130000
#0461b:13
#05612:13000000000000000000001300000000
#05619:00130000
#05616:0000001300000000
#0561b:0000001300000000
#05614:00130000
#05617:13
#05610:41
#05719:00130000
#0571b:13
#05714:00130000
#0571a:0014
#05716:00000014
#06916:00000014
#06912:0014
#0691a:0014
#07112:16
#07118:16160000
#07218:16130016
#07215:0014000000130014
#07212:2300001600001300
#07217:0014
#0721b:0000001300000000
#0751b:0013000000001300
#07516:00000013
#07512:0013000013000000
#07515:13
#07413:16000016
#07417:0014001600000014
#07415:00131400
#07418:0000000000130000
#07412:0000001300000000
#0741b:23000013
#06718:0013000000000000
#0671b:0000130000130000
#06716:1313
#06712:0000001300000000
#10415:001300130013000000130013
#1041b:231300000013
#10418:000013131300
#10412:000000000000001300000000
#11317:00130013
#1131b:1313
#11319:0013000000000000
#11412:00130013
#11416:2313
#11414:0013000000000000
#1151b:00130013
#11517:1313
#11519:0013000000000000
#1171b:0013130013000000
#11717:13000013
#11916:0013130000000000
#1191b:0013
#11917:0000000000131300
#11912:13
#12015:001400130013000000000000
#1201b:231300131300
#12018:001400
#12017:000000000014
#12012:000000000000001400130013
#13112:1313000000000000
#1311b:0000131300000000
#13115:0000000013130000
#13118:0000000000001313
#13316:0014001400140014
#1331a:24141400
#13312:24001414
#13412:2c1300001c001600
#13418:0000160000000013
#13415:0000001300000000
#1341b:0000000000130000
#12218:231300131300
#12212:001400000000001400000000
#12215:000000130013000000130013
#1221a:000014000014
#12318:231300131300
#12312:001400000000001400000000
#12315:000000130013000000130013
#1231a:000014000014
#08812:13000013
#08817:2300000000000013
#0881b:0000001300000000
#08912:14
#08918:0000140000000013
#0891a:0014
#08915:00000013
#08916:1414
#08914:00140000
#08913:0014000000000000
#08919:0000001400000000
#09012:1300130000130000
#09017:0000130000130000
#09016:0000001300001300
#0901b:1300001300001300
#09115:1313
#09112:0013000000130000
#09118:00130013
#0911b:1300001300000013
#0921b:00131300
#09219:00000013
#09214:00000013
#09216:0013
#09316:13000013000000000000000000000000
#09312:13
#09317:00000000000000000013000013000000
#0931b:0000001300000000
#09417:00130000
#0941b:1313
#09414:0000000000001313
#09419:0000000000001313
#09416:0013000013000000
#09412:0000001300000000
#09515:0013
#09512:00230000
#09518:0023
#0951b:00230000
#00015:001300000013001300000013
#00018:001313001313
#00012:00130013
#0001b:2313
#10615:001300000000001300000000
#1061b:231313130000
#10612:000000130013000000130013
#10618:000000001313
#12115:001400130013000000000000
#1211b:231300131300
#12118:001400
#12117:000000000014
#12112:000000000000001400130013
#12418:001413000013
#12412:00140014
#12413:000000000014000000000014
#12415:001300000000001300000000
#1241a:2414
#12419:000014
#12519:001400001400
#12512:00140014
#12513:000000000014000000000014
#12515:001300000000001300000000
#12518:000013000013
#1251a:2414
#12615:001400000000001400000000
#1261a:241400141400
#12612:000000140014000000140014
#12617:000014000014
#1271a:241400141400
#12715:001400000000001400000000
#12712:000000140014000000140014
#12717:000014000014
#0011b:1313
#00115:001300000013000000000000
#00118:001313000000
#00112:00130013
#1071b:130013130000
#10715:001300000000001300000000
#10718:001300001313
#10712:000000130013000000130013
#00218:001300000013001300000013
#00215:001313001313
#0021b:00130013
#00212:2313
#00312:1313
#00318:001300000013000000000000
#00315:001313000000
#0031b:00130013
#00516:00000013
#00517:0013
#0051b:001300000000
#00515:001300130000000000000000
#00518:131300
#00512:000000000013000000000000
#00412:000000000013000000000013
#00418:230013130013
#00415:001300130000001300130000
#0041b:001300001300
#00717:00000013
#00716:0013
#00712:001300000000
#00718:001300130000000000000000
#00715:131300
#0071b:000000000013000000000000
#0061b:000000000013000000000013
#00615:230013130013
#00618:001300130000001300130000
#00612:001300001300
#01214:001300000000000000130000
#01218:001300000013
#01213:000000130000000000000013
#01212:000000000013000000000000
#01217:001300
#0121a:0013
#01215:000000000000001300000000
#01219:230013
#0131b:13
#01316:001300000000000000000000
#0131a:001300000000
#01315:0000130000130000
#01314:000000000013000000000000
#01319:001300
#01312:00000013
#01419:001300000000000000130000
#01415:001300000013
#0141a:000000130000000000000013
#0141b:000000000013000000000000
#01416:001300
#01413:0013
#01418:000000000000001300000000
#01414:230013
#01512:13
#01517:001300000000000000000000
#01513:001300000000
#01518:0000130000130000
#01519:000000000013000000000000
#01514:001300
#0151b:00000013
#01118:0000000000130000
#0111b:001300130013000000130000
#01115:131313000000
#01012:231313131313
#01018:001300130013001300130013
#00915:0000000000130000
#00912:001300130013000000130000
#00918:131313000000
#0081b:231313131313
#00815:001300130013001300130013
#00810:41
#09818:001300000013000000130000
#09815:001300130013
#0981b:000000130000001300000013
#09812:231313
#09912:131313
#09918:001300000013000000130000
#09915:001300130000
#0991b:000000130000001300000000
#10012:001300000013001300000013
#1001b:001313001313
#10015:00130013
#10018:2313
#10115:00130013
#10118:1313
#1011b:001313001300
#10112:001300000013001300000000
#1021b:001300000013001300000013
#10212:001313001313
#10218:00130013
#10215:2313
#10318:00130013
#10315:1313
#10312:001313001300
#1031b:001300000013001300000000
#1051b:131300131300
#10518:000013000013
#10515:001300000000001300000000
#10512:000000130013000000130013
#10815:001300000013001300130000
#10818:001313130013
#10812:000000130000000000000013
#1081b:230013
#10915:001300000013001300130000
#10918:001313130013
#10912:000000130000000000000013
#1091b:130013
#11015:001300000000001300000000
#11018:231300131300
#11012:000000130013000000130013
#1101b:000013000013
#11115:001300000000001300000000
#11118:131300131300
#11112:000000130013000000130013
#1111b:000013000013
#02417:24
#02410:41
#07952:005c000000001c00
#07957:00000000000000220000000000000000
#08358:53335333
#0835b:0023000000230000
#08355:00634363
#08352:4300002300000023
#0875b:00630043
#08752:00000033
#08758:0023
#08755:0023
#0855b:5300004300000000
#08557:33000023000000000000000000000000
#08552:0000006300003300
#08556:00000000000000000023000000000000
#0805b:53
#08052:0000005300000000
#11256:00000013
#14057:0012
#13656:64
#08156:14
#08158:00140000
#08152:0014
#07058:6646
#07052:00260000
#04857:0000005300000000
#0485b:00000000000000000000002300000000
#05052:0000005300000000
#05056:00000013
#0505b:63
#05452:00000023000000000000000000000000
#0545b:00000000000000000023000000000000
#05455:63
#05458:0000006300000000
#05557:13
#05857:0000006300000000
#05856:53000063
#0595b:13
#0635b:4363
#06358:00000023
#06352:0053
#06355:00000023
#06552:0000230000130000
#06555:0063000000000000
#0655b:0000006300000000
#06557:2323
#03756:00000013
#0375b:0063000000000000
#03757:0063
#03352:00000013
#04156:00000013
#04152:0013
#0275b:00000023
#02757:0063
#02752:63
#02756:00230000
#0265b:0053
#02657:00000023
#02656:53
#02652:00230000
#02852:0000001c
#0225b:53
#02256:00230000
#02252:0063
#02257:00000023
#0235b:00000013
#02352:0013000000000000
#02152:00000013
#0215b:0013000000000000
#0165b:00000023000000000000000000000000
#01652:00000023000000000000000000000000
#0615b:43
#06152:0033
#06257:43
#06256:0033
#0195b:4343
#01952:00330033
#0205b:43
#02052:0000006300000000
#02056:00000000000000000023000000000000
#0355b:00000013
#03657:63000063
#0365b:0000006300000000
#03856:53000053
#03852:0000005300000000
#03952:0053000000000000
#04357:00000013
#0435b:0013
#04556:00000013
#04552:0013
#05652:00000000000000000000002300000000
#05656:0000006300000000
#0645b:0000000000000063
#0685b:0000000000000053
#06852:0000000000000053
#07152:5636
#07158:00260000
#07352:0053000000000000
#07357:00000046
#0755b:0063000000000000
#07556:00000033
#07453:36000036
#07457:0000004600000000
#07657:0000000000530000
#07756:0063000000000000
#06758:0053000000000000
#0675b:0000230000130000
#06756:2323
#06752:0000005300000000
#08455:43
#11357:00000013
#11452:00000013
#1155b:00000013
#1165b:00000013
#11657:00130000
#11752:00000013
#11756:00130000
#1185b:00130000
#11852:00000013
#1195b:00130000
#11952:00000013
#13258:00130000
#13255:00000013
#1335a:00140000
#13352:00000014
#13458:00160000
#13452:00000016
#07252:0000003600000000
#07258:46000046
#08852:63
#0885b:0000006300000000
#0895a:0014
#08954:00140000
#08956:14
#09155:63436343
#09152:0023000000230000
#09158:00533353
#0915b:3300002300000023
#09356:43000023000000000000000000000000
#09352:6300003300000000
#0935b:0000005300004300
#09357:00000000000000000023000000000000
#09555:0023
#09552:00530033
#09558:0023
#0955b:00000043
#09258:33
#06652:0000000000000053
#0015b:0063
#00352:0053
#00557:0063
#00756:0053
#09755:00000013
#09958:00000013
#10155:00000013
#10358:00000013
#0013b0:0013
#001370:00000023
#003320:0013
#003360:00000023
#005370:0013
#0053b0:00000023
#007360:0013
#007320:00000023
#009380:00001323
#011350:00001323
#0133b0:0013
#013380:0000000000332300
#015320:0013
#015350:0000000000332300
#0163b0:13000053000000000000000000000000
#016380:0000002300000000
#016321:13000053000000000000000000000000
#016351:0000002300000000
#020321:0000001300002300
#020361:00000000000000000053000000000000
#0223b1:1323
#022361:00530000
#022320:0013
#022370:00000053
#023320:23
#024320:13
#024350:00230000
#024381:00130000
#0243b1:0023
#024320:0013
#024350:00000023
#024381:00000013
#0253b1:23
#026361:1323
#026321:00530000
#0263b0:0013
#026370:00000053
#0273b0:23
#027321:1323
#027361:00530000
#027370:0013
#0273b0:00000053
#028370:23
#0323b0:13005353
#032370:0053005300000053
#033370:0053000000532300
#0333b0:00535300
#034320:13005353
#034360:0053005300000053
#035360:0053000000532300
#035320:00535300
#036370:13005353
#0363b0:0053005300000053
#0373b0:0053000000532300
#037370:00535300
#038360:13005353
#038320:0053005300000053
#039320:0053000000000000
#039360:00532300
#040320:1300002300000000
#040381:0000001300002300
#040350:00000013
#041350:0023000000000000
#0413b1:0013000023000000
#0423b1:13
#042381:0000002300000000
#042350:0000001300000000
#042320:00000023
#042381:00000013
#0433b1:0023000000000000
#043320:0013000000000000
#043350:0023
#044320:1300002300000000
#044350:00530000
#044381:0000001300002300
#0443b1:0000000000530000
#044350:00000013
#045320:53
#045350:0023000000000000
#0453b1:0013000023000000
#045381:0000005300000000
#046361:13
#046321:0053002300000000
#046370:0000001300000000
#0463b0:00005323
#046361:00000013
#046321:0000000000000053
#047321:23
#048371:0000001300000000
#0483b1:00000000000000000000005300000000
#049371:23
#0503b1:13
#050371:0000002300000000
#050320:0000001300000000
#050360:00000023
#052320:0013000023000000
#0523b1:0013000023000000
#053321:1323
#053371:00530000
#0533b0:0013
#053360:00000053
#0543b0:23
#054351:1300002300000000
#054321:00000053000000000000000000000000
#054380:0000001300002300
#0543b0:00000000000000000053000000000000
#056360:0000001300000000
#056320:00000000000000000000005300000000
#057360:23
#058360:13
#0583b0:0000532300000000
#058371:0000001300000000
#058321:0000000000532300
#058360:00000013
#0593b0:23
#060320:1626
#060381:1626
#060361:0000000000000013
#061361:23
#061371:0000001323000000
#061321:0000000000000013
#062321:23
#0623b1:0000001323000000
#062361:0000000000000013
#063361:23
#0633b1:0013
#0633a1:00000000000000000033000000000033
#063391:0000000000330000
#063381:00000000000000000000003333333300
#0643b1:23
#063320:0013
#063330:00000000000000000033000000000033
#063340:0000000000330000
#063350:00000000000000000000003333333300
#064320:23
#0643b0:0000000000000013
#065370:53
#0653b0:0023000000000000
#065351:0013002300000000
#065321:00530000
#0653b0:0000001300230000
#065370:0053
#066320:0000000000000013
#067360:53
#067320:0023000000000000
#067381:0013002300000000
#0673b1:00530000
#067320:0000001300230000
#067360:0053
#068320:0000000000000013
#069350:0023000000000000
#0683b1:0000000000000013
#069381:0023000000000000
#070381:1626
#070321:00560000
#071321:1626
#071381:00560000
#073321:0013000000000000
#073361:0023
#0753b1:0013000000000000
#075371:0023
#076371:0000000000130000
#076321:0000000000000023
#077361:0013000000000000
#0773b1:0000002300000000
#078371:1252325232523252325232523252325232523252325232522200000000000000
#078351:00560056005600560056005600560056000000000000000000000000000000000000000000000000000000000000000000000000000000000000000000000000
#078341:00000000000000000000000000000000005800580058005800580058005800580000000000000000000000000000000000000000000000000000000000000000
#078321:0000000000000000000000000000000000000000000000000000000000000000005c005c005c005c005c005c005c005c00000000000000000000000000000000
#079321:001c000000002c00
#079371:00000000000000520000000000000000
#0803b1:13
#080371:0000002300000000
#080320:0000001300000000
#080360:00000023
#083380:13230000
#0833b0:0053000000000000
#083351:00132300
#083321:0000005300000000
#083380:00001323
#0833b0:0000000000530000
#083351:00000013
#083321:0000000000000053
#084351:23
#084380:13
#0843b0:00230000
#0853b0:1300002300000000
#085370:00000053000000000000000000000000
#085321:0000001300002300
#085361:00000000000000000053000000000000
#0873b1:00130023
#087381:0033
#087350:0013
#087320:00000023
#088320:13
#088360:0000002300000000
#0883b1:0000001300000000
#088371:00000023
#091351:13230000
#091321:0053000000000000
#091380:00132300
#0913b0:0000005300000000
#091351:00001323
#091321:0000000000530000
#091380:00000013
#0913b0:0000000000000053
#092380:23
#092351:13
#092321:00230000
#093321:1300002300000000
#093361:00000053000000000000000000000000
#0933b0:0000001300002300
#093370:00000000000000000053000000000000
#095320:00130023
#095350:0033
#095381:0013
#0953b1:00000023
#112371:1333
#1123b1:00330023
#113361:1333
#113321:00330023
#1143b1:1300005333000000
#114371:0053330000532300
#115321:1300005333000000
#115361:0053330000532300
#1163b1:13
#116371:00230000
#116371:0013
#1163b1:00000023
#117321:13
#117361:00230000
#117361:0013
#117321:00000023
#118371:13
#1183b1:0033230000000000
#118361:0013
#118321:0000000000332300
#119371:13
#1193b1:0033230000000000
#119361:0013
#119321:0000000000332300
#1283b1:1323000000000000
#128350:0013230000000000
#128381:0000132300000000
#128320:0000001323000000
#1283b1:0000000013230000
#128350:0000000000132300
#128381:0000000000001323
#128320:0000000000000013
#129320:23
#130320:1323000000000000
#130381:0013230000000000
#130350:0000132300000000
#1303b1:0000001323000000
#130320:0000000013230000
#130381:0000000000132300
#130350:0000000000001323
#1303b1:0000000000000013
#1313b1:23
#136361:14
#140371:0022
