This file was generated by Ched 2.6.2.0.
#TITLE ""
#ARTIST ""
#DESIGNER ""
#DIFFICULTY 0
#PLAYLEVEL
#SONGID ""
#WAVE ""
#WAVEOFFSET 0
#JACKET ""
#REQUEST "ticks_per_beat 480"
#00002: 4
#BPM01: 240
#00008: 01
#TIL00: ""
#HISPEED 00
#MEASUREHS 00
#0161b:13000013
#01619:0000000000000013
#01617:00000013
#01616:00000013000000000000000000000000
#01614:0000000000000013
#01612:0000001300000000
#01615:23
#0171b:00130000
#01712:13001313
#01714:0000000000000013
#01717:00130013
#01716:1313
#01719:0000000000000013
#0181b:1300131300000000
#01817:0000001300000000
#01812:0000000000131300
#01816:13000013
#0201b:1300001300000000
#02016:0000001300000000
#0211b:13000013
#02112:0013001600130000
#02116:13000013
#02117:0013000000130000
#02118:0000001600000000
#0251b:0013
#02512:13000013
#02516:0013
#02517:00000013
#02519:00130000
#02514:00130000
#02917:00130000
#02914:0013
#02912:00000013
#02916:00000013
#02919:0013
#02915:13
#0311c:12000012
#03115:0012000000120000
#03113:0000001200000000
#0311b:0000001200000000
#03112:12000012
#03119:0012000000120000
#0391b:0013001313000000
#03917:0013
#03912:13130000
#03916:0013000000000000
#03918:0000000000140014
#03914:00000014
#05218:00000013
#05213:0000000000000013
#05216:12
#05212:0012000000000000
#0521c:0012000000000000
#05112:00001312
#0511c:00000012
#0511b:00130000
#05118:0000000000000012
#05117:00130000
#05116:0013
#05012:13
#05016:13
#05017:0000001300000000
#0501b:0000001300000000
#0491b:0013
#04917:00131300
#04919:00000013
#04914:00000013
#04816:00140000
#0481b:2300001300000000
#04812:2300001300001313
#04815:00000000000000000000001300000000
#06414:0013
#06416:0000000000001313
#0641b:0000000000001313
#06419:0013
#06412:1c230000
#0641f:11
#06417:00230000
#06519:0013000000000000
#06512:1300001300000000
#06515:0000001700000000
#0651b:0000000000130000
#06514:0000000000170000
#06819:0013
#0681b:1300000000001313
#06816:0000000000001313
#06817:00130000
#06812:00130000
#06814:0013
#06912:13
#06914:00000014
#06917:13
#06918:00001314
#06915:0013
#07612:1300000000130000
#07614:0000131300000000
#0761b:1300000000000013
#07619:0000131300000000
#07615:0000000000130000
#07618:0000000000000013
#07912:1c16000000002600
#07917:00000000000000110000000000000000
#07918:00001600000000110000000026000000
#0801a:14000014
#08016:2400000000000014
#08012:00000014000013000000000000000000
#0801f:21
#08118:1600161316000000
#08117:0000000000001313
#08112:16161613
#08115:0013000000000000
#08212:00131313
#08217:1313000000001300
#0821b:1300001300130000
#08216:0000001300000000
#08210:41
#08415:0000000016001316
#08413:00140000
#0841b:0013
#08412:0000000000000013
#0841a:14
#08419:00140000
#08418:0000000000130000
#08618:13131313
#0861b:0013000000000013
#08612:0000000013000013
#08615:0013001300001300
#08712:00000000240000000014000000000000
#0871a:00000000240000002424000000000000
#07216:1313130000001313
#07217:0000001313130000
#0721b:23130023
#07212:0000002300130000
#05512:00130000
#05515:0000001600000000
#0551b:0013
#05514:0000000000141414
#05518:0000000000141414
#05917:0012
#0591b:0013
#05912:00000013
#05916:00000014
#06015:16
#0601b:13
#06012:0013
#06016:00000013
#06612:1300000000001313
#0661b:00130000
#06619:0013
#06614:0013
#06616:00130000
#06617:0000000000001313
#03217:0000131300000000
#0321b:0000001300000000
#03212:23000013
#03216:1300000000131300
#0301c:1212
#03016:0012001200001200
#03012:1212
#03018:0000120000120012
#0191b:1313
#01916:0013000000130000
#01912:13130013
#01917:0000001300000013
#0331b:0013000000000000
#03317:1313000000001300
#03312:0013
#03316:0000001313000000
#04115:1616001600001600
#04112:0013
#0411b:00130000
#04015:2600161600161600
#04012:0013000000000013
#0401b:0013
#04010:41
#03416:1313000000001313
#0341b:00131300
#03412:1300001300131300
#03417:0000001300000000
#04615:1915190000001915
#04612:0000001900190000
#04616:0015
#04715:19000013000000001300000013000000
#04718:0013001300130013
#04712:00130000
#0471b:00130000
#04516:1414001414001400
#0451b:00130000
#04416:1400141400141400
#04412:0013000000000013
#0441b:0013
#11215:2313131313000000
#11218:0000160013131313
#1121b:13
#11212:00000016
#11210:41
#11315:13001300130013000000000000130013
#11318:1300160013131313
#11312:0013
#11612:0013160013000000
#11615:2300001300001300
#1161b:1300000000130000
#11618:0000130013001613
#1181b:1300000000131313
#11815:2613130016000013
#11818:0000001300001300
#11812:0000131313000000
#0281b:00000013
#02818:13
#08517:13
#0851b:0000131300001300
#08516:0000001300001300
#08512:1300000000130000
#05312:00130000
#05316:13130000
#0531b:00000013
#05317:00001313
#05319:13
#0531a:0000001300000000
#05313:0000000000000013
#05612:1300001300000000
#0561b:1300001300001313
#05616:00140000
#05618:00000000000000000000001300000000
#05610:41
#13512:00001316
#13518:0000000000000016
#1351b:0013
#13517:12121212121212000000000000000000
#03516:0000000013130000
#0351b:13130013
#03512:0013001313000000
#03517:0013000000000000
#06714:0013001700000000
#0671b:1300001300000000
#06712:0000000000130000
#06715:0000000000170000
#07718:0000001300001300
#07715:0013000000130013
#07712:0013000000000000
#0771b:0000001300000000
#07316:13000013
#07312:0013000000000000
#0731b:1313000000001300
#07317:00000000001300001300000000000000
#0751b:0013000000000000
#07517:13000013
#07512:1313000000001300
#07516:00000000001300001300000000000000
#02612:00131300
#02617:13
#0261b:13000013
#02616:0013
#02212:13
#0221b:0013
#02312:1300001600001300
#0231b:0013000000130000
#02317:13000013
#02316:0013000000130000
#02318:0000001600000000
#0241b:00130013
#02416:0000001300000013
#02412:00131300
#02417:0000000000130000
#02413:24
#02419:24
#02410:41
#02712:00131300
#02717:13
#02716:0013
#0271b:13000013
#03612:0000131300000000
#03617:13000013
#0361b:1300000000131300
#03616:0000001300000000
#03712:1313000000001300
#0371b:0000001313000000
#03716:0013000000000000
#03717:0013
#03817:1313000000001313
#0381b:1300001300131300
#03816:0000001300000000
#03812:00131300
#05416:1300001300000000
#05415:00000013
#05412:0000000000000013
#05418:00000013
#0541b:0000000000000013
#0541a:00130000
#0581b:13000013
#05817:13000013
#05816:0000001300000000
#05812:0000001300000000
#05712:0013
#05716:00131300
#05714:00000013
#05719:00000013
#07417:1313130000001300
#07416:0000001313130000
#07412:23130023
#0741b:0000002300130013
#08314:0014000000140000
#0831a:1414
#08318:0000001400000014
#08312:14140014
#04215:00150000
#0421b:1313000000001313
#04216:0000000000150000
#04212:0000001313000000
#04315:15000015
#04316:0000001500000000
#04312:0013130000000000
#0431b:0013
#13212:2316161c1300001c
#13218:0000130000161600
#13215:00000013
#1321b:2313
#12818:0013000000001300
#12815:0000130000130000
#1281b:1300001300000013
#12812:1313
#1291b:1300000013000013
#12918:0013000000001300
#12915:0000130000130000
#12912:1300001313000000
#13015:0013000000001300
#13018:0000130000130000
#13012:1300001300000013
#1301b:1313
#13112:1300000013000013
#13115:0013000000001300
#13118:0000130000130000
#1311b:1300001313000000
#13312:2616161c1616161c
#13318:2616160016161600
#13412:2616161616161616
#13418:2616161616161616
#07818:1600001600001600
#07816:00160000001600160000001600160000
#07814:0016160016160016
#07812:00000016000000000016000000000016
#08812:14000014
#08816:2400000000000014
#0881a:00000014000000000000000000000000
#0881b:0000001300000000
#08912:16161600
#08916:0000000000001313
#08918:1613160016000000
#08915:0000001300000000
#0891b:00000013
#0901b:00131313
#09016:1313000000001300
#09012:1300001300130000
#09017:0000001300000000
#09215:0000000016130016
#09219:00140000
#09212:1413
#0921b:0000000000000013
#09213:00140000
#09218:00000013
#09415:13131313
#09412:0013000000000013
#0941b:0000000013000013
#09418:0013001300001300
#0951a:00000000240000000014000000000000
#09512:00000000240000002424000000000000
#09316:13
#09312:0000131300001300
#09317:0000001300001300
#0931b:1300000000130000
#09118:0014000000140000
#09112:1414
#09114:0000001400000014
#0911a:14140014
#00216:241400141400141400141400
#0021b:001300001300
#00212:000000000013000000000013
#00316:141400141400141400141400
#0031b:001300001300
#00312:000000000013000000000013
#00612:001300000000001300000000
#0061b:000013000013
#00615:260016160016160016160016
#00712:001300000000001300000000
#0071b:000013000013
#00715:160016160016160016160016
#00118:130000001300001300001300
#0011b:000000131300
#00112:001300130000000000000013
#00115:000013000013000000130000
#00018:000013000000130000130000
#00015:001300001300001300000013
#0001b:230000001313
#00012:000000130013000000000000
#0041b:231300131300
#00418:001300000000001300000000
#00412:000000130013000000130013
#00415:000013000013
#0051b:131300131300
#00518:001300000000001300000000
#00512:000000130013000000130013
#00515:000013000013
#0081b:000000001300000000000013
#00816:000000000013
#00814:000000130000000013000000
#00819:000013000000000000130000
#00817:000000000000001300000000
#00812:001300000000130000000000
#00815:260000000016000000000000
#00810:41
#0091b:000000001300000000000013
#00916:000000000013
#00914:000000130000000013000000
#00919:000013000000000000130000
#00917:000000000000001300000000
#00912:001300000000130000000000
#00915:160000000016000000000000
#01018:001300130000
#01015:001300130013001300161600
#01012:231313
#0101b:000000000000000000000013
#01118:131313131313
#01115:001300000013000000130000
#0111b:000000130000001300000013
#01212:000000001300000000000013
#01217:000000000013
#01219:000000130000000013000000
#01214:000013000000000000130000
#01216:240000000014001300000000
#0121b:001300000000130000000000
#01312:000000001300000000000013
#01317:000000000013
#01319:000000130000000013000000
#01314:000013000000000000130000
#01316:140000000014001300000000
#0131b:001300000000130000000000
#01412:000016000000160000000013
#01418:001300130013001300000000
#01415:000000000000000000161600
#0141b:231313
#01515:131313131313
#01518:001600000016000000160000
#01512:000000130000001300000013
#0631b:0000001300000000
#06312:0000001312000000
#06318:00000000130000000000001200001200
#06315:1613000000000000
#06316:00000000000000000012000012000000
#06314:0000000000120000
#0631a:00000000000000000000000000120000
#0631c:00000000000000000000000000000012
#11418:2313001313000000
#1141b:00130000
#11415:0000000013131913
#11412:13190013
#11518:13001300000013000000000000130013
#1151b:00131300
#11515:1300000013131313
#11512:00190000
#11712:00001300160000001300000000000013
#11715:13000000000013000000000000131300
#1171b:1300000000130000
#11718:00131313
#1191b:13000000000000000000130000000013
#11915:1613130016001300
#11918:00000000000013000000000000131300
#11912:0000131313000000
#0961b:231300000000
#09618:001300000000000013000000
#09612:0000001c1c1c0013001c1c1c
#09615:0013
#09718:001300000000
#09715:001300000000130013000000
#09712:0000001c1c1c0013001c1c1c
#0971b:13
#09812:230013130013
#09818:001300000013001300000013
#09815:001300001300
#0981b:00131313
#0991b:13131313
#09912:130013130013
#09918:001300000013001300000013
#09915:001300001300
#10012:2c001c1c001c1c001c1c131c
#10018:001300000000000000000000
#10015:001300
#1001b:000000000000001300000000
#10112:1c001c1c001c1c001c1c131c
#10118:001300000000000000000000
#10115:001300
#1011b:000000000000001300000000
#10412:2c13001c00131c00001c0000
#1041b:000000001313
#10415:000000001300000000000013
#10418:000013000000001300000000
#10912:1c00001c00001c00131c0000
#10915:000000000013001300001300
#10918:000013001300000000000013
#1091b:001300000000000000000000
#10812:2c13001c00001c00001c0000
#10818:000000000013001300001300
#10815:000013001300000000000013
#1081b:000013
#10512:1c13001c00131c00001c0000
#1051b:000000001313
#10515:000000001300000000000013
#10518:000013000000001300000000
#10712:13131313
#1071b:13131300
#10718:001300000013001300001300
#10715:000013001300000013000013
#10618:001300000013001300001300
#10615:000013001300000013000013
#10612:23131313
#1061b:23131300
#1021b:230013130013
#10215:001300000013001300000013
#10218:001300001300
#10212:00131313
#10312:13131313
#1031b:130013130013
#10315:001300000013001300000013
#10318:001300001300
#1111b:13131313
#11112:13131300
#11115:001300000013001300001300
#11118:000013001300000013000013
#11015:001300000013001300001300
#11018:000013001300000013000013
#1101b:23131313
#11012:23131300
#12015:001300000013001300000013
#1201b:000013000013
#12018:001300001300
#12012:2313
#06115:1613000016000000
#06119:0000000000130000
#06117:00130000
#06114:00000013
#06214:0013000000000000
#06215:1616
#06218:0000000000130000
#06219:00130000
#06216:00000013
#12318:001300130013001300000013
#12315:131313001313
#12312:00131313
#1231b:23001313
#12212:00131313
#12218:001300130013001300000013
#12215:131313001313
#1221b:23001313
#12118:001300000013001300000013
#12112:000013000013
#12115:001300001300
#1211b:2313
#12418:001300000013001300000013
#12412:000013000013
#12415:001300001300
#1241b:2313
#12515:001300000013001300000013
#1251b:000013000013
#12518:001300001300
#12512:2313
#12715:001300130013001300000013
#12718:131313001313
#1271b:00131313
#12712:23001313
#1261b:00131313
#12615:001300130013001300000013
#12618:131313001313
#12612:23001313
#07952:0056000000003600
#07957:00000000000000210000000000000000
#07958:00006600000000210000000046000000
#0875a:00000000640000000024000044000000
#08752:00000000440000000024000034000000
#0485b:0000005300000000
#04855:00000000000000000000002300000000
#05052:53000033
#05057:0000002300000000
#0505b:0000002300000000
#05056:00000033
#0215b:00000013
#02152:0013000000000000
#01656:00000023000000000000000000000000
#0165b:53
#0195b:53435343
#01956:0023000000230000
#01952:33633363
#01957:0000002300000023
#04152:0013
#0415b:00000013
#03256:53000053
#03257:0000005300000000
#03357:0053000000003300
#03356:0053
#03352:0033
#03452:53000053
#03456:0023000000000023
#03457:0000005300000000
#0345b:0023
#07052:0016
#07058:0016
#07152:001c
#07652:0000000000330000
#0765b:0000000000000043
#11255:0013
#1125b:13
#11358:13
#11352:0013
#02955:23
#0285b:00000063
#02858:3333
#02855:00430043
#08152:3636
#08158:00460000
#0825b:53
#08257:0023000000000000
#08256:0000005300000000
#08252:0023
#06856:0000000000000053
#0685b:0000000000000053
#06952:23
#06957:23
#05252:0052000000000000
#0525c:0052000000000000
#0605b:63
#06055:36
#03552:0053
#03556:0000000043230000
#03557:0053000000000000
#0355b:00230043
#06552:23
#06555:0000004700000000
#06554:0000000000370000
#0655b:0000000000230000
#06456:0000000000000053
#06657:0000000000000063
#0675b:23
#06754:0000003700000000
#06752:0000000000230000
#06755:0000000000470000
#07256:33000033
#07257:0000004300000000
#07357:00000000002300000000000000000000
#07352:0053000033000000
#07356:00000033
#0755b:0063000043000000
#07556:00000000002300000000000000000000
#07557:00000043
#01757:00330000
#01756:4343
#02052:33
#02056:0000005300000000
#0205b:0000005300000000
#0235b:0013000000000000
#02352:00000013
#0245b:00534353
#02456:0000002300000023
#02452:00336333
#02457:0000000000230000
#0255b:43
#0265b:23
#02652:0023
#0275b:23
#02752:0023
#0365b:23000023
#03652:0000002300000000
#03752:0023000000003300
#0375b:0023
#03757:0033
#0385b:63000063
#03857:0023000000000023
#03856:0000006300000000
#03852:0023
#03956:0063000000000000
#03952:00230000
#14057:0012
#05157:00330000
#05156:0043
#05555:43
#05558:33
#05455:00000053
#05452:0000000000000023
#05458:00000063
#0545b:0000000000000023
#05456:63
#0585b:63000063
#05852:0000006300000000
#05856:0000006300000000
#05857:00000063
#05652:0000006300000000
#05658:00000000000000000000002300000000
#05956:43000044
#05952:43
#05957:0032
#07752:0033000000000000
#0775b:0000004300000000
#07457:43000043
#07456:0000003300000000
#08052:00000024000053000000000000000000
#0805a:64
#0835a:54445444
#08354:0024000000240000
#08358:0000002400000024
#08352:34643464
#08452:34
#0845a:44
#08552:23
#0855b:0000002300004300
#08557:43
#08556:0000003300000000
#0455b:00000043
#04556:0034
#04352:00000013
#0435b:0013
#05352:00230000
#0535b:00000023
#05356:53
#05357:0053
#13258:00430000
#13255:00000033
#13358:00460000
#13352:00000036
#13458:00460000
#13452:00000036
#11855:00430000
#11858:00000033
#1185b:43
#11852:0033
#0955a:00000000340000000024000044000000
#09552:00000000540000000024000034000000
#08958:4646
#08952:00360000
#09052:63
#09056:0023000000000000
#09057:0000006300000000
#0905b:0023
#09356:33
#09352:0000002300003300
#09357:0000004300000000
#0935b:23
#0885a:00000024000000000000000000000000
#08852:54
#0885b:0000006300000000
#09158:0024000000240000
#09152:64346434
#09154:0000002400000024
#0915a:44544454
#09252:34
#0925a:44
#11458:0013
#11452:13
#11555:13
#1155b:0013
#1165b:43
#11658:00430000
#11655:00000033
#11652:0033
#1175b:43
#11758:00430000
#11752:0033
#1195b:43
#11955:00430000
#11952:0033
#06155:4636
#06255:4636
#06355:46
#12352:0033
#12355:33
#12252:0033
#12255:33
#1275b:0043
#12758:43
#1265b:0043
#12658:43
#0163b0:1300002300000000
#016360:00000053000000000000000000000000
#0193b0:13230000
#019360:0053000000000000
#019321:00132300
#019371:0000005300000000
#0193b0:00001323
#019360:0000000000530000
#019321:00000013
#019371:0000000000000053
#020321:23
#0203b1:0000001300000000
#020371:00000023
#020360:0000001300000000
#020320:00000023
#0223b0:13
#022320:00230000
#022320:0013
#0223b0:00000023
#0243b0:00132300
#024360:0000005300000000
#024321:00001323
#024371:0000000000530000
#0243b0:00000013
#024360:0000000000000053
#0253b0:23
#0263b0:13
#026360:00230000
#026320:0013
#026370:00000023
#0273b0:13
#027350:00230000
#027320:0013
#027380:00000023
#028350:13230000
#028320:0033000000000000
#028381:00132300
#0283b1:0000003300000000
#028350:00001323
#028320:0000000000330000
#0283b1:00000013
#029351:53
#0293b1:00230000
#032361:13
#0323b1:00230000
#032371:0000001300000000
#032321:0000000000230000
#032361:00000013
#0333b1:23
#033371:0013000000000000
#033321:0000002300000000
#033361:0013
#0333b1:00000023
#034321:13230000
#034361:0053000000000000
#034371:0000001300230000
#0343b1:0053
#034321:00000013
#034361:0000000000000053
#035321:23
#035371:0013002300000000
#0353b1:00530000
#035321:00001323
#035361:0000000000530000
#0363b1:13
#036361:00230000
#036321:0000001300000000
#036371:0000000000230000
#0363b1:00000013
#037361:23
#037321:0013000000000000
#037371:0000002300000000
#0373b1:0013
#037361:00000023
#0383b1:13230000
#038371:0053000000000000
#038361:0000001300230000
#038321:0053
#0383b1:00000013
#038371:0000000000000053
#0393b1:23
#039361:0013002300000000
#039321:00530000
#0403b1:13230000
#040321:0000001300230000
#0403b1:00000013
#0413b1:23
#041321:0013002300000000
#0413b1:00001323
#042361:13
#042321:0053230000000000
#042371:0000001300000000
#0423b1:0000000053230000
#042361:00000013
#042321:0000000000000053
#043321:23
#043371:0013000000000000
#0433b1:0000532300000000
#043361:0013
#043321:0000000000532300
#0443b1:13230000
#044371:0053000000000000
#044321:0000001300230000
#044361:0053
#0443b1:00000013
#044371:0000000000000053
#0453b1:23
#045321:0013002300000000
#045361:00530000
#0453b1:00001323
#045371:0000000000530000
#046321:1353230000000000
#0463b1:0000001353230000
#046321:0000000000001353
#047321:23
#0483b1:0000001300000000
#048351:00000000000000000000005300000000
#0493b1:23
#049320:13230000
#050320:13000023
#050370:0000003300000000
#0503b1:0000001300000000
#050361:00000023
#052321:0012000000000000
#052361:0022
#0523c0:0012000000000000
#052380:0022
#053360:13
#053320:00530000
#053340:0023
#053371:0013
#0533b1:00000053
#054391:23
#054360:13
#054320:0000532300000000
#054350:00000013
#054320:0000000000000053
#055350:23
#054381:00000013
#0543b1:0000000000000053
#055381:23
#056321:0000001300000000
#056381:00000000000000000000005300000000
#057321:23
#0573b0:13230000
#0583b0:13000033
#058360:0000003300000000
#059360:23
#058321:0000001300000000
#058371:00000033
#059321:23
#0603b1:13
#060361:0023
#0603b1:00000013
#060371:0000000000000023
#060320:0000000000000013
#061320:23
#061320:00130000
#061360:0000002300000000
#0613b1:0000001323000000
#061371:00000013
#0613b1:0000000000000023
#061320:0000000000000013
#062320:23
#062360:00130000
#062320:0000002300000000
#0623b1:0000001323000000
#0623b1:00000013
#062371:0000000000000023
#062320:0000000000000013
#063320:23
#064360:0000000000000013
#065320:53
#065360:0023000000000000
#0653b0:0000000000130000
#066360:23
#066370:0000000000000013
#0673b0:53
#067370:0023000000000000
#067320:0000000000130000
#068370:23
#0683b0:0000000000000013
#069370:53
#0693b0:0023000000000000
#068361:0000000000000013
#069321:53
#069361:0023000000000000
#070321:1626
#070380:1626
#071320:1c2c
#073320:0013000023000000
#073370:00000000005300000000000000000000
#0753b0:0013000023000000
#075360:00000000005300000000000000000000
#079320:0016000000002600
#079370:00000000000000510000000000000000
#079381:00001600000000510000000026000000
#0803a1:1400002400000000
#080321:00000054000000000000000000000000
#080320:0000001300000000
#080370:00000023
#0823b0:13230000
#082370:0053000000000000
#082360:0000001300230000
#082320:0053
#0833a0:14240000
#083340:0054000000000000
#083321:00142400
#083381:0000005400000000
#0833a0:00001424
#083340:0000000000540000
#083321:00000014
#083381:0000000000000054
#084321:24
#085321:13
#085371:00230000
#0853b1:0000001300000000
#085361:0000000000230000
#0873a1:00140024
#087321:00000000000000003454000000000000
#0873a0:00000000000000001454000000000000
#087320:00000024
#088320:1400002400000000
#0883a0:00000054000000000000000000000000
#0883b1:0000001300000000
#088361:00000023
#090321:13230000
#090361:0053000000000000
#090371:0000001300230000
#0903b1:0053
#091321:14240000
#091381:0054000000000000
#0913a0:00142400
#091340:0000005400000000
#091321:00001424
#091381:0000000000540000
#0913a0:00000014
#091340:0000000000000054
#0923a0:24
#0933b0:13
#093360:00230000
#093320:0000001300000000
#093370:0000000000230000
#095320:00140024
#0953a0:00000000000000003454000000000000
#095321:00000000000000001454000000000000
#0953a1:00000024
#120381:132300000000000000000000
#120321:000000132300000000000000
#120381:000000000000132300000000
#120321:000000000000000000132300
#121351:132300000000000000000000
#1213b1:000000132300000000000000
#121351:000000000000132300000000
#1213b1:000000000000000000132300
#124351:13
#124321:002300000000000000000000
#1243b1:00130000
#124381:002300
#124351:0013
#124321:000000000000002300000000
#1243b1:00000013
#124381:000000000023
#125381:13
#1253b1:002300000000000000000000
#125321:00130000
#125351:002300
#125381:0013
#1253b1:000000000000002300000000
#125321:00000013
#125351:000000000023
#136371:12525252525252525252525252525252
#136321:005c005c005c005c005c005c005c005c005c005c005c005c005c005c005c005c
#137371:52525252525252525252525252525252
#137331:005a005a005a005a005a005a005a005a005a005a005a005a005a005a005a005a
#138371:52525252525252525252525252525252
#138341:0058005800580058005800580058005800580058005800580058005800580058
#139371:52525252525252525252525252525252
#139351:0056005600560056005600560056005600560056005600560056005600560056
#140371:525252525252525252525252220000000000000000000000
#140361:005400540054005400540054005400540054005400540054000000000000000000000000000000000000000000000000
