This file was generated by Ched 2.6.2.0.
#TITLE ""
#ARTIST ""
#DESIGNER ""
#DIFFICULTY 0
#PLAYLEVEL
#SONGID ""
#WAVE ""
#WAVEOFFSET 0
#JACKET ""
#REQUEST "ticks_per_beat 480"
#00002: 4
#BPM01: 240
#00008: 01
#TIL00: ""
#HISPEED 00
#MEASUREHS 00
#00018:16161616
#00112:16161616
#00218:16161616
#00312:16161616
#00418:16160000
#00412:00001616
#00818:1616
#00812:00160016
#00810:41
#00915:00160016
#00918:1616
#01018:1616
#01012:00160016
#01118:1616
#01115:00160000
#01618:1414
#01614:00140014
#0241a:14
#02418:0014
#02414:00140000
#02412:00000014
#02410:41
#0251a:1414
#02514:00140014
#0481a:1414
#04814:00140014
#04918:1414
#04912:00140014
#0561a:14
#05614:00140000
#05618:0014
#05612:00000014
#05610:41
#0571a:14
#05718:0014
#05714:00140000
#05712:00000014
#06012:14000014
#0801a:1414
#08014:00140014
#0801f:21
#08212:1414
#08218:00140014
#08210:41
#08418:0014
#08414:00000014
#08412:16
#08618:00140014
#08612:1414
#1281a:14
#12817:0014
#13612:14
#1361a:14
#00612:16160000
#00618:00001616
#01212:1616
#01218:00160016
#01315:00160016
#01312:1616
#01412:1616
#01418:00160016
#01512:1616
#01515:00160000
#01814:1414
#01818:00140014
#0201a:14
#02019:0014
#02014:00140000
#02013:00000014
#02212:14
#02213:0014
#02218:00140000
#02219:00000014
#02812:14
#02814:0014
#02818:00140000
#0281a:00000014
#02912:1414
#02918:00140014
#03012:14
#0311a:14
#04214:00160000
#04212:16
#04316:00160000
#04318:16
#04612:00160000
#04614:16
#04718:00160000
#04716:16
#0331a:0014
#03314:00000014
#03512:0014
#03518:00000014
#03615:0014
#03612:14
#0371a:0014
#03714:00000014
#03817:0014
#0381a:14
#03912:0014
#03918:00000014
#05212:1414
#05218:00140014
#05314:1414
#0531a:00140014
#0551a:14
#0581a:14
#05812:00000014
#0591a:1414
#05916:00000014
#06118:14
#06215:14
#06317:14
#06412:14140000
#06418:00001414
#0641f:11
#0661a:14140000
#06614:00001414
#06818:14140000
#06814:00001414
#06918:14140000
#06914:00001414
#0701a:00140000
#07018:14
#07112:00140000
#07114:14
#0721a:14
#07214:14
#07213:0014
#07219:0014
#07312:1416
#07318:14
#07412:14
#07418:14
#07419:0014
#07413:0014
#0751a:14
#07514:14
#07518:0016
#07613:1414
#07619:00140014
#07713:1414
#07719:00140000
#08312:16
#08315:00160016
#08318:0016
#08712:14000014
#0871a:00140000
#08716:0014
#08812:1414
#08818:00140014
#0901a:1414
#09014:00140014
#09214:0014
#09218:16000014
#09414:00140014
#0941a:1414
#09118:16
#09115:00160016
#09112:0016
#0951a:14000014
#09512:00140000
#09516:0014
#0961a:14000014
#09616:00140000
#09612:0014
#09716:14
#09712:00140000
#0971a:0014
#09812:14000014
#09816:00140000
#0981a:0014
#09916:14
#0991a:00140000
#09912:0014
#1001a:14
#10016:00140014
#10012:0014
#1011a:14
#10116:00140000
#10112:0014
#10212:14
#10216:00140014
#1021a:0014
#10312:14
#10316:00140000
#1031a:0014
#12018:14141400
#12014:0014001400000000
#12112:14141400
#12116:0014001400000000
#1221a:14141400
#12216:0014001400000000
#12314:14141400
#12318:0014001400000000
#10412:14141400
#10418:0014001400000000
#1051a:14141400
#10514:0014001400000000
#10612:14141400
#10618:0014001400000000
#1071a:14141400
#10714:0014001400000000
#10812:14
#10813:00140000
#10814:0014
#10818:0014000000000000
#10819:0000001400000000
#1091a:14
#10919:00140000
#10918:0014
#10914:0014000000000000
#10913:0000001400000000
#11012:14
#11013:00140000
#11014:0014
#11018:0014000000000000
#11019:0000001400000000
#1111a:14
#11119:00140000
#11118:0014
#11114:0014000000000000
#11113:0000001400000000
#12916:0014
#13012:14
#13015:0014
#13116:0014
#13212:00000014
#1321a:14
#13214:00140000
#13218:0014
#1331a:14000014
#13312:0014
#13316:00140000
#1341a:00000014
#13412:14
#13418:00140000
#13414:0014
#13512:14000014
#13516:0014
#1351a:00140000
#12618:14141414
#12612:0014001400140014
#1271a:14141414
#12714:0014001400140014
#07913:14
#07919:14
#05118:00000014
#08118:26
#08115:00260000
#08112:0026
#08912:26
#08915:00260000
#08918:0026
#0501a:0000003400000000
#05412:0000003400000000
#06514:00340000
#06718:00340000
#12418:0034000000340000
#12514:0034000000340000
#04010:41
#11210:41
#12857:0024
#1285a:64
#13652:64
#1365a:64
#03052:54
#0315a:54
#04358:56
#04356:00260000
#04252:56
#04254:00260000
#04652:00260000
#04654:56
#04758:00260000
#04756:66
#03655:0024
#03652:64
#03857:0024
#0385a:54
#0585a:54
#06158:64
#06255:54
#06357:64
#07058:64
#0705a:00240000
#07152:00240000
#07154:54
#0975a:0014
#09952:0014
#10152:0014
#1035a:0014
#10652:0014
#1075a:0014
#11054:0014
#11158:0014
#13052:54
#13055:0024
#07953:14
#07959:14
#005380:1626
#007320:1626
#017380:1424
#019340:1424
#021380:1424
#023340:1424
#0263a0:14
#026380:0024
#027320:14
#027340:0024
#030320:14
#030340:0024
#0313a0:14
#031380:0024
#032320:14
#032350:0034
#033320:24
#0343a0:14
#034370:0034
#0353a0:24
#036320:14
#036350:0034
#037320:24
#0383a0:14
#038370:0034
#0393a0:24
#040320:1626
#040340:00560000
#041380:1626
#041360:00560000
#042320:1626
#042340:00560000
#043380:1626
#043360:00560000
#044340:1626
#044320:00560000
#045360:1626
#045380:00560000
#046340:1626
#046320:00560000
#047360:1626
#047380:00560000
#0503a0:1400003400000000
#050380:00000024
#054320:1400003400000000
#054340:00000024
#0583a0:14
#058380:0000002400000000
#061380:14
#0613a0:0024
#062350:14
#062320:0024
#063370:14
#0633a0:0024
#065320:14
#065340:00340000
#065350:0024
#0673a0:14
#067380:00340000
#067370:0024
#070380:1424
#0703a0:00540000
#071340:1424
#071320:00540000
#077390:00000014
#078390:3400003400002400
#078331:1400003400002400
#0853a1:14
#085381:0000003400002400
#093321:14
#093341:0000003400002400
#112321:14240000
#112381:00001424
#113341:14240000
#1133a1:00001424
#114321:14240000
#114381:00001424
#115341:14240000
#1153a1:00001424
#116321:14240000
#116380:14240000
#116320:00001424
#116381:00001424
#117341:14240000
#1173a0:14240000
#1173a0:00001424
#117341:00001424
#118321:14240000
#118380:14240000
#1183a0:00001424
#118341:00001424
#119321:14240000
#119380:14240000
#1193a0:00001424
#119341:00001424
#1243a1:14000024
#124381:0034000000340000
#124371:0000343434000000
#125321:14000024
#125341:0034000000340000
#125351:0000343434000000
#1283a1:14
#128371:0034
#1293a1:24
#130321:14
#130351:0034
#131321:24
#136321:14
#140341:0024
#1363a0:14
#140380:0024
