This file was generated by Ched 2.6.2.0.
#TITLE ""
#ARTIST ""
#DESIGNER ""
#DIFFICULTY 0
#PLAYLEVEL
#SONGID ""
#WAVE ""
#WAVEOFFSET 0
#JACKET ""
#REQUEST "ticks_per_beat 480"
#00002: 4
#BPM01: 110
#00008: 01
#TIL00: ""
#HISPEED 00
#MEASUREHS 00
#00119:14
#00213:14
#0051a:14
#00510:41
#00614:14
#00718:14
#00812:14
#00919:14
#01013:14
#01213:14
#01419:14
#01513:14
#01613:14
#01813:14
#01919:14
#02013:14
#02119:14
#02110:41
#02712:0016
#02718:26
#02710:41
#00319:14
#00413:14
#01119:14
#01319:14
#01310:41
#01719:14
#02219:14
#02313:14
#02413:14
#02519:14
#02513:0014
#02619:14
#02613:0014
#02818:16
#02812:0016
#02918:16
#02912:0016
#03118:0016
#03112:26
#03212:16
#03218:0016
#03312:16
#03318:0016
#03310:41
#03412:16
#03418:0016
#03513:14
#03519:0014
#0351f:11
#03613:1414
#03719:1414
#03813:1414
#03919:14
#03913:0014
#04019:14
#04013:0014
#04119:14
#04113:0014
#04312:0016
#04318:26
#0431f:21
#04418:16
#04412:0016
#04518:1616
#04510:41
#04718:0016
#04712:26
#04812:16
#04818:0016
#04912:1616
#05118:1616
#05218:1616
#05312:1616
#05412:1616
#05518:16
#05512:0016
#05712:16
#05718:0016
#05915:16
#030380:1626
#042390:1424
#046380:1626
#050320:1626
#056380:1626
#058320:1626
