This file was generated by Ched 2.6.2.0.
#TITLE ""
#ARTIST ""
#DESIGNER ""
#DIFFICULTY 0
#PLAYLEVEL
#SONGID ""
#WAVE ""
#WAVEOFFSET 0
#JACKET ""
#REQUEST "ticks_per_beat 480"
#00002: 4
#BPM01: 110
#00008: 01
#TIL00: ""
#HISPEED 00
#MEASUREHS 00
#0001b:0013
#00012:00000013
#00016:0013
#00115:00130000000000000000000013000000
#00118:0013000000000013
#00112:00000013000000000000000000000000
#0011b:23000000000013130000000000000000
#00116:00000000000000130000000000000000
#0021b:00000013000000000000000013000000
#00219:0000000000000013
#00212:13000000000013130000000000000000
#00218:00130000000000000000000000000000
#00215:0013000000000000
#00216:00000013
#00214:0000000000000013
#00217:00000000000000130000000000000000
#00317:13000013000000000000000000000000
#00312:13130013000000000000000000001300
#00315:00000000001300001300000000000000
#00314:0000000000130000
#00313:00000013
#00412:13
#00415:0013000000120012
#00418:00000013000000000000000000000000
#00413:00001212
#0041b:00130000000000001212000000120000
#00419:00000000000000000000001200000012
#00515:13000013
#0051b:00130000000013000000001300001300
#00518:00000013000000000013000000000000
#00512:00131300
#00516:0000001300000013
#00510:41
#00615:1300001300001313
#0061b:00130000000013000000000000000000
#00618:00000013000000000000000000000000
#00612:00130000
#00718:13000013
#00712:00130000000013000000001300001300
#00715:00000013000000000013000000000000
#0071b:00131300
#00717:0000001300000013
#0081a:0000000000000000000000000000000000000000000000330000000014000000
#00816:00000000000000000000000000000014
#00818:1300001300000000
#00812:00130000000013000000000000000000
#00815:00000013000000000000000000000000
#0081b:00130000
#0091a:14000000001400000000001400000014
#00914:0014000000000014
#00918:00000014000000000000000000000000
#00917:00000000000000140000000000000000
#00912:00000000001400000000000000000000
#00915:0000000000140000
#0101a:00001400000000000000000000000014
#01014:1400000000000014
#01012:00000014000000141400000014000000
#01018:00000000001400000000000000000000
#01017:00000014
#01717:00130000
#0171a:0014
#01712:00000000130000000000001400000000
#01716:13
#01719:00000000000000000000000000003333
#0201b:00000013
#02015:00000000000000000000000000130000
#02018:0000000000000013
#02012:00000000000000000033333300000013
#0211b:0000001200001212
#02113:0000000012120000
#02110:41
#0241b:00000000000000000013000000001300
#02417:23
#02412:23
#02415:00000000000000000023000000002300
#02715:00130000000000130000000000002300
#02718:00001300000013130000000023000000
#02712:00000013000000000000000023000000
#0271b:0000000000000023
#02710:41
#02815:00001300000013130000000013000000
#02818:00130000000000130000000000001300
#02812:13
#0281b:00000013000000000000000000000000
#0291b:13
#02914:00130013000000000000000013000000
#02916:00000000001300001300000000000000
#02915:0000000000130000
#02913:0000000000000013
#0341b:0000000000131300
#03412:00000000000000000033333300000000
#05117:1300000000130000
#05112:1300000000131300
#05116:0000000000000013
#0511b:0000000000000013
#05216:13000013000000000000000000000000
#05212:0000001313000000
#0521b:0013130000130000
#05217:0000001313000000
#01114:14000014000000000000000000000000
#01118:0014000000000014
#0111a:00000000001400000000000000000000
#01112:00000000000000140000000000000014
#01117:00000000000000140000000000000000
#01115:00000000000000000000141400000000
#01218:14000014000000140000000000000000
#01214:00001400001400140000000000000000
#01216:00000013
#0121b:00000013
#0121a:00000000001400000000000000000000
#01217:00000000000000000000000000000013
#01212:0000000000000023
#0321b:13000013
#03215:00130000000000130000000000000000
#03218:00001300000013130000000000000000
#03212:00000013000000000000000000000000
#03214:0000000000000033
#02518:0000001313000000
#0251b:13
#02519:00000000000000000000000000130000
#02512:2300002300000000
#02515:0023
#02514:00000000000000000000000000230000
#0261b:1323
#02618:00000013000013000000000013000000
#02615:00132300
#02612:23000023
#01916:00130000
#0191b:00130000
#01917:13
#01912:0014
#0191a:00000000000000000000001400000000
#01915:0000000000000033
#01914:00000000000000000000000000000033
#03118:00130000000000130000000000002300
#03115:00001300000013130000000023000000
#0311b:00000013000000000000000023000000
#03112:0000000000000023
#03015:00000013
#03012:1323
#03019:00000013000000000000000000000000
#0301b:0000001300002300
#03014:00000013000000000000000000000000
#03016:0000001300000000
#03018:0023
#02214:12000012000000000000000013000000
#0221a:00000000001200001200000000000000
#02217:0000000000130000
#02219:00000013
#02216:0000000000000013
#0221b:0000000000000013
#02212:0000000000230000
#05316:1300000000130000
#0531b:1300000000131300
#05317:0000000000000013
#05312:0000000000000013
#05417:13000013000000000000000000000000
#0541b:0000001313000000
#05412:0013130000130000
#05416:0000001313000000
#05517:13
#05512:1300000000130013
#05516:00130013
#0551b:00130013
#05616:13
#05612:00000013000013001300000000000000
#05617:0000001313000000
#0561b:1300000000130000
#05618:0013130000000000
#0581b:00000013000013001300000000000000
#05812:1300000000130000
#05817:13
#05816:0000001313000000
#05815:0013130000000000
#05917:13
#05912:13
#0591b:00130000
#05916:00130000
#05716:13
#0571b:1300000000130013
#05717:00130013
#05712:00130013
#01312:13000000001300000000000000000000
#0131b:00001300000000130000000000230000
#01316:00000013000000230000000000000000
#01317:00000000001300000000131300000000
#01315:0000000000000013
#01318:00000000000000000000000000000013
#01310:41
#01415:00001300002300000000000000000000
#0141b:00000023000000000000000013000000
#01416:00000013
#01412:23000000000000000000000000000013
#01417:00000000000000230000000000002300
#01519:13
#01514:00130000000000000000000000000000
#0151b:00001300002300000000000000000000
#01517:00000000000000000000231300000013
#01515:00000023000000230000000000000000
#01512:0000000000000023
#01612:13
#01616:00001300001300000000000000000000
#0161b:00000013002300000000000000000000
#01617:0000000000130000
#01615:00000000000000230000000000000000
#02316:2313000000000000
#02317:00000000130000130000000000000000
#02312:0000132313000000
#02315:00000000000000000000001300130000
#02318:0000000000130013
#0231b:13
#04315:00130000000000000000000023000000
#04318:0013000000000023
#04312:00000013000000000000000000002300
#0431b:00000000000013130000000023000000
#0431f:21
#04412:13000000000013130000000000000000
#04418:00130000000000000000000000000000
#04415:0013000000000000
#04416:00000012
#04414:0000000000000012
#0441c:00000012
#0441a:0000000000000012
#0441b:00000013000000000000000000000000
#0481b:13000000000013130000000000000000
#04815:00130000000000000000000000000000
#04818:0013000000000000
#04812:00000013000000000000000013000000
#04819:0000000000000033
#0421b:13000013
#04218:0013130023000000
#04215:00000013001300000000000023000000
#04212:13000000000000130000000000000000
#03616:00000000130000130000000000000013
#03619:0000000013000013
#03614:00001300000000000013000000130000
#03617:0000000000131300
#0361b:00000012000023000000000000000000
#03618:00140000000000000000000000000000
#03612:23000000000000000000002300000000
#03712:00000000000014000000000000140000
#03718:00000000000000140000000014000000
#03714:00140000000000001400001400000014
#0371a:00000000000000000014140000001400
#03713:00000012000000000000000000000000
#03719:0013000000000000
#03717:00130000
#0371b:23
#0381a:12000000000000000012000000000000
#03815:00120000000000000000120000000000
#03818:00000012000000000000000000000000
#03812:00000000000000000000000000001333
#03916:13000000001300130000000000000000
#03919:0000001300000000
#0391b:00231300
#03917:00000000000000000000001300130000
#03914:00000013
#03912:00330000000000000000230000001300
#0401b:13130000
#04015:00130000001300000000000000130013
#04018:0013000014001413
#04012:00000013000000140000001400000000
#0401a:0000001400140000
#04014:00000000000000000014000000000000
#0451a:00120012000000000000000000001200
#04518:0000000000120000
#04513:0000000000120000
#04519:00000012
#04514:00000012
#04515:0000000000000012
#04512:12121200
#04510:41
#04616:12
#0461b:0000001223000000
#04612:00000013
#04615:0023
#04618:00000023
#03513:00000012000000000000000000000000
#03519:0013000000003300
#03514:00140000000000000000000000000000
#03517:0000131300000033
#0351f:11
#0351b:23
#03512:00000000000000333300000000000000
#0351a:00000000000000000000003300000000
#03518:00000000000000000000000000330000
#03312:00000013000000001300000000000000
#03316:00000013
#03317:00130013001300001300000000000000
#0331a:0000000000130013
#0331b:00000013
#03310:41
#05012:0000000000131300
#0501b:00000000000000000033333300000000
#0491b:00000013000000001300000000000000
#04916:00130000130000001300000000000000
#04917:00000013
#04913:0000000000130013
#04912:00000013
#04115:001200000000000000230013
#04118:000000231300
#04119:121200000000
#04112:000000000000001300000000
#0411b:000000000013
#04718:00130000000000000000000023000000
#04715:0013000000000023
#0471b:00000013000000000000000000002300
#04712:00000000000013130000000023000000
#00156:00000000000000530000000000000000
#0015b:00000000000000530000000000000000
#00957:00000000000000540000000000000000
#01157:00000000000000540000000000000000
#01258:00000000000000640000000000000000
#05152:63
#05157:63
#0005b:0053
#00052:00000053
#00257:00000000000000630000000000000000
#00252:00000000000000630000000000000000
#0085b:00000043
#00852:0000006300000000
#0245b:00000000000000000053000000000000
#02455:00000000000000000053000000000000
#0265b:0053
#02658:00000053
#01058:00000000005400000000000000000000
#01052:00000054000000000000000000000000
#02752:00000053000000000000000000000000
#02758:00000013
#02755:00000000000000530000000000001300
#05252:0053
#05256:00000013
#03055:00000063
#03052:1363
#03059:00000013000000000000000000000000
#03056:0000001300000000
#03054:00000013000000000000000000000000
#0305b:0000001300000000
#03057:13
#02558:0053
#0255b:63
#02552:53
#02555:0053
#00455:0053000000000000
#00458:00000053000000000000000000000000
#05356:53
#0535b:53
#0545b:0063
#05457:00000013
#05557:63
#05552:63
#0555b:00230000
#05556:00230000
#05652:0053
#05656:00000013
#0585b:0063
#05857:00000013
#05957:63
#05952:63
#0595b:00230000
#05956:00230000
#05756:53
#0575b:53
#05752:00230000
#05757:00230000
#01752:00000000130000000000001400000000
#0175a:0014
#01756:13
#0175b:13
#01757:00130000
#01852:0014
#0195b:00130000
#01957:13
#01952:1314
#01956:00130000
#0195a:00000000000000000000001400000000
#0205a:0014
#01356:00000000000000530000000000000000
#0145b:00000053000000000000000000000000
#01455:00000000005300000000000000000000
#01555:00000053000000530000000000000000
#0155b:00000000005300000000000000000000
#0165b:00000000005300000000000000000000
#01655:00000000000000530000000000000000
#02855:00000013
#02858:00000000000000630000000000001300
#0285b:00000063000000000000000000000000
#0295b:13
#02956:0013
#02955:0000000000130000
#02954:00000013
#02953:0000000000000013
#04352:00000053000000000000000000000000
#0435b:00000000000000530000000000000000
#04355:00000013
#04358:0000000000000013
#0425b:13000063
#04258:0053
#04252:13000000000000130000000000000000
#04758:00000013
#04755:0000000000000013
#0475b:00000063000000000000000000000000
#04752:00000000000000630000000000000000
#03852:0000000000000063
#03956:23
#0405b:00130000
#04055:00000000001300000000000000000000
#03557:00130000
#03356:00000023
#03352:0053
#0065b:0000006300000000
#03656:00130000
#03757:00130000
#0445b:00000063000000000000000000000000
#04452:00000000000000630000000000000000
#04852:00000053000000000000000000000000
#0485b:00000000000000530000000000000000
#0495b:0063
#04957:00000023
#0315b:00000063000000000000000000000000
#03158:00000000000000630000000000001300
#03155:00000013
#03252:00000053000000000000000000000000
#03255:00000000000000530000000000000000
#04652:00000053
#04655:0063
#05057:00000013
#0003b0:0013
#000370:00000023
#000321:00000013
#001361:23
#001361:00000000000000130000000000000000
#001321:0000000000230000
#0013b0:00000000000000130000000000000000
#001370:0000000000230000
#002370:00000000000000130000000000000000
#0023b0:0000000000230000
#002321:00000000000000130000000000000000
#002361:0000000000230000
#0033b1:00000000001300003300000000000000
#003381:0000000000000023
#004351:0013000000000000
#004321:0000002300000000
#004380:00000013000000000000000000000000
#0043b0:0000002300000000
#0063b0:0000001300000000
#006380:00000000000000230000000000000000
#006380:0000000000001323
#008320:0000001300000000
#008350:00000000000000230000000000000000
#008380:00000000000000000000001300000000
#0083a0:0000000000000000000000000000000000000000000000330000000000000000
#0083b0:00000023
#009370:00000000000000140000000000000000
#0093a0:0000000000240000
#010320:00000014000000000000000000000000
#010340:00000000002400000000000000000000
#010381:00000000001400000000000000000000
#0103a1:00000000000000240000000000000000
#011371:00000000000000140000000000000000
#0113a1:0000000000240000
#012381:00000000000000140000000000000000
#0123a1:0000000000240000
#013361:00000000000000130000000000000000
#013321:0000000000230000
#0143b1:00000013000000000000000000000000
#014381:00000000002300000000000000000000
#014350:00000000001300000000000000000000
#014320:00000000000000230000000000000000
#015350:00000013000000000000000000000000
#015320:00000000002300000000000000000000
#0153b1:00000000001300000000000000000000
#015381:00000000000000230000000000000000
#015350:00000000000000130000000000000000
#015320:0000000000230000
#0163b0:00000000001300000000000000000000
#016380:00000000000000230000000000000000
#016351:00000000000000130000000000000000
#016321:0000000000230000
#016321:00000013
#016351:0000000000000023
#016380:0000000000000013
#0173b0:23
#017370:00000000000000000000000000130000
#017390:00000000000000000000000000003333
#0183b0:3323000000000000
#017321:0000000000000014
#018321:0024
#018370:0000132300000000
#0183b0:0000000013230000
#0183b0:00000013
#018380:0000000000000023
#018351:0000000000000013
#019321:23
#019361:00000000000000000000000000130000
#019351:0000000000000033
#019341:00000000000000000000000000000033
#020321:3323000000000000
#0193a0:0000000000000014
#0203a0:0024
#020361:0000132300000000
#020321:00000000000000001333333300000000
#020351:00000023
#0213b1:12000022000000000000000000000000
#021360:00000012000022000000000000000000
#021380:0000000012220000
#021360:0000000000001222
#022380:12000022000000000000000000000000
#022360:00000000001200002200000000000000
#024320:13000000000000230000000000000000
#024371:13000000000000230000000000000000
#0243b1:00000000000000000013000000000000
#024381:00000023
#024350:00000000000000000013000000000000
#024320:00000023
#025320:13
#025350:00000023000000000000000000000000
#0253b1:13
#025381:00000023000000000000000000000000
#025381:0013
#0253b1:00000000000000000000002300000000
#025350:0013
#025320:00000000000000000000002300000000
#0263b0:0013
#026380:00000033
#0273b0:23
#027320:00000013000000000000230000000000
#027350:00000000000033330000000000000000
#0283b0:00000013000000000000230000000000
#028380:00000000000033330000000000000000
#0293b0:00000000001300003300000000000000
#030370:23
#030320:0013
#030350:00000033
#031320:23
#0313b0:00000013000000000000230000000000
#031380:00000000000033330000000000000000
#032320:00000013000000000000230000000000
#032350:00000000000033330000000000000000
#032360:00000013
#032340:0000000000000033
#033320:23
#033320:00000000001300003300000000000000
#033360:00000053
#034320:23
#034371:13
#0343b1:00000023000000000000000000000000
#034360:00000013000000000000000000000000
#034320:0000002300000000
#0343b1:0000001300000000
#034381:0023
#034320:00000000000000001333333300000000
#034360:00000023
#035320:00000000000013333300000000000000
#035360:00000000000000000023000000000000
#0353b0:0000000000130000
#0353a0:00000000000000000000003300000000
#035390:00000033
#035380:00000000000000000000000000330000
#035370:0000000000000033
#035360:00000000000000000000000000000023
#038330:00000012002200000000000000000000
#0383a1:00000000001200220000000000000000
#038350:00000000000000120022000000000000
#0383a0:00000000000000000000001200000000
#0383c0:0000000000000022
#038321:00000000000000000000000000001333
#039361:33
#039321:00332300000000000000000000000000
#041331:000000130023000000000000
#0413a0:000000001323000000000000
#042380:0013
#0423b0:00000033
#043380:23
#043320:00000013000000000000000000000000
#043350:0000002300000000
#0433b0:00000000000000130000000000000000
#043380:0000000000230000
#0443b0:00000013000000000000000000000000
#044380:0000002300000000
#044320:00000000000000130000000000000000
#044350:0000000000230000
#045380:00000000001200002200000000000000
#0463b0:12
#046380:00000022000000000000000000000000
#046331:00000012000000000000000000000000
#046361:0000002200000000
#046351:0013
#046321:00000033
#047351:23
#0473b1:00000013000000000000000000000000
#047381:0000002300000000
#047321:00000000000000130000000000000000
#047351:0000000000230000
#048321:00000013000000000000000000000000
#048351:0000002300000000
#0483b1:00000000000000130000000000000000
#048381:0000000000230000
#048371:00000013
#048391:0000000000000033
#0493b1:23
#0493b1:00000000001300003300000000000000
#049371:00000053
#0503b1:23
#050360:13
#050320:00000023000000000000000000000000
#050371:00000013000000000000000000000000
#0503b1:0000002300000000
#050320:0000001300000000
#050350:0023
#0503b1:00000000000000001333333300000000
#050371:00000023
#050320:00000013
#051320:53
#051360:0023
#051371:13
#0513b1:0023
#052321:0013
#052361:00000023
#0523b0:00000013
#0533b0:53
#053370:0023
#053361:13
#053321:0023
#0543b1:0013
#054371:00000023
#054320:00000013
#055320:5323
#055360:00530000
#055371:1323
#0553b1:00530000
#056321:0013
#056361:00000023
#0563b0:00000013
#0573b0:5323
#057370:00530000
#057361:1323
#057321:00530000
#0583b1:0013
#058371:00000023
#058320:00000013
#059320:5323
#059360:00530000
#059371:1323
#0593b1:00530000
