This file was generated by Ched 2.6.2.0.
#TITLE ""
#ARTIST ""
#DESIGNER ""
#DIFFICULTY 0
#PLAYLEVEL
#SONGID ""
#WAVE ""
#WAVEOFFSET 0
#JACKET ""
#REQUEST "ticks_per_beat 480"
#00002: 4
#BPM01: 110
#00008: 01
#TIL00: ""
#HISPEED 00
#MEASUREHS 00
#0001b:0013
#00012:00000013
#00115:00130013000000130000000000000000
#00118:2313001300000000
#00112:00000013
#0011b:0000000000000013
#0021b:00000013
#00218:00130013000000130000000000001300
#00215:1313001300000000
#00315:1300000000130000
#0031b:00130013000000000000000000001300
#00312:00000000001300001300000000000000
#00318:00000013
#00415:13000013000000000000000000000000
#00418:0013000000000000
#0041a:0000001300000000
#00518:13130000
#00515:00130013000000000013001300000000
#0051b:00001313
#00512:0000001300000013
#00510:41
#00618:13000000130000130000000013000000
#00615:0000001300000013
#00612:00130013000000000000000000000000
#00715:13130000
#00718:00130013000000000013001300000000
#00712:00001313
#0071b:0000001300000013
#0081a:0000000000000014
#00814:00000000000000000000000000000014
#00818:0000001300001300
#00815:13000000130000130000001300000000
#0081b:00130013000000000000000000000000
#0091a:14000014000000000000000000001400
#00914:0014000000000000
#00912:00000000001400000000000000000000
#00915:00000000000000000000001400000014
#00917:00000000000000140000000000000000
#0101a:14000014000000000000000000000014
#01015:00001400001400000000000000001400
#01618:00001300001300000000000000001300
#01612:13
#01615:00000013000000230000000000000000
#01715:13
#0171b:00130000
#0171a:00000000000000000000001400000000
#01712:0014
#0201a:00000012
#02018:0000000000000012
#02116:1200001200001212
#0211b:00000012000000001200120000000000
#02110:41
#0241b:00000000000000000013000000001300
#02418:00000013
#02415:23000023
#02412:00000000000000000023000000002300
#02519:0000001300000000
#0251b:00000000000000000000000000130000
#02514:0000002323000000
#02512:23000000000000000000000000230000
#0261b:1323
#02615:0023
#02612:23000023
#02618:00000023
#0271b:1300000000000023
#02715:00130000000000130000000000002300
#02718:0013001300002300
#02712:00000013000000000000000023000000
#02710:41
#02815:0013001300001300
#02818:00130000000000130000000000001300
#02812:13
#0281b:00000013000000000000000000000000
#0291b:13000000001300001300000000000000
#02915:00130013000000000000130000000000
#02918:00000013
#02912:0000000000000013
#03018:1323
#03015:00000013000000000000000023000000
#0301b:0000001300002300
#03012:0023
#05115:13000013
#0511b:1300000000130013
#05215:13
#05218:00000013000000000000000000000000
#0521b:0000001313000000
#05212:0000000000130000
#01115:14000014000000000000000000000014
#0111a:00001400000000000000001400001400
#01118:00000000001400000000000000000000
#01112:00000000000000140000000000000000
#0121a:14000014000000000000000000000000
#01215:00001400001400000000000000000000
#01217:00000000000000140000000000000000
#01212:00000000000000000000000000000013
#01218:0000000000000023
#03112:1300000000000023
#03118:00130000000000130000000000002300
#03115:0013001300002300
#0311b:00000013000000000000000023000000
#0321b:13
#03215:00130000000000130000000000001300
#03218:0013001300001300
#03212:00000013000000000000000000000000
#05318:13000013
#05312:1300000000130013
#05418:13
#05415:00000013000000000000000000000000
#05412:0000001313000000
#0541b:0000000000130000
#05515:13000013
#0551b:1300000000130000
#05518:0000000000000013
#05612:1300000013130000
#05618:00000013000000001300000000000000
#0561b:0000001300000000
#05615:0000001300000000
#05718:13000013
#05712:1300000000130000
#05715:0000000000000013
#0581b:1300000013130000
#05815:00000013000000001300130000000000
#05812:0000001300000000
#05818:0000001300000000
#0591b:13
#05915:13
#0181b:00000013
#01815:0000000000000013
#01918:13
#01912:00000000130000000000001400000000
#0191a:0014
#01318:13000013000000000000000000230013
#01315:00001300000000000000001300000000
#01312:00000000001300000000000000001300
#0131b:00000000000000230000000000000000
#01310:41
#01412:13000013000000000000000000000000
#01418:0013000000000023
#01415:00000000000000000000000000000013
#0141b:00000000002300000000000000000000
#01518:13001300001300000000001300000013
#01512:00130000000000000000000000002300
#01515:00000013000000230000000000000000
#02216:12
#0221b:00000000001200000000000000000000
#02213:00000013
#02214:0000000000000013
#02212:0000000000230000
#02315:2313000000000000
#02312:00000000130023001300000000130000
#02318:00000000000000130000001300001300
#03312:1300000000333300
#03318:00130013000000000000000000000000
#03310:41
#0341b:00000013
#03415:00000013
#0351b:13001300130013333333333333333300
#03515:00130013000000000000000000000000
#03517:0000000000000000000000000000000000000000001300000000000000000000
#0351f:11
#03612:13001300130000000000002300130013
#03618:00130013000000000000000013001300
#03615:00000000000000130013000000000000
#0361b:0000002313130000
#0371b:1313130000000000
#03715:00130013000000000000000000000000
#03712:0000001400001400
#03718:00000000000000140000001400140000
#03714:0000000014140014
#0371a:00000000000000000014000000000014
#03812:13000000000000000000000000000033
#03818:00130000001300000000001300000000
#03815:00000013000000130000130000000000
#0381b:00000000000000000013000000000000
#03915:00000000001300130000230013001300
#03918:00000000230013001300001300130000
#03912:33330000000000000000000000000000
#0401b:13
#04015:00001300001300000000000000130013
#04018:0000130014001413
#0401a:0000001400140000
#04014:00000000000000140000001400000000
#04012:00000000000000000014000000000000
#04119:1212000000000000
#0411b:0000000023130000
#04112:0000000000002313
#04218:13000013001300002300000000000000
#04212:00001300000000130000000000000000
#04215:00130023
#0421b:00000023
#04312:1300000000000023
#04318:00130000000000130000000000002300
#04315:0013001300002300
#0431b:00000013000000000000000023000000
#0431f:21
#04419:00000012
#0441b:13
#04415:00130000000000130000000000001200
#04418:0013001300000000
#04412:00000013000000000000000000000000
#04619:1200001200000000
#04615:00000012000000002300000000000000
#0461b:0023
#04618:00000023
#04612:00000023
#0471b:1300000000000023
#04715:00130000000000130000000000002300
#04718:0013001300002300
#04712:00000013000000000000000023000000
#04812:13
#04818:00130000000000130000000000001300
#04815:0013001300001300
#0481b:00000013000000000000000000000000
#0491b:1300000000333300
#04915:00130013000000000000000000000000
#05015:0000000000130000
#04519:12000012
#04514:00120012000000000000000000001200
#04515:0000000000120000
#04510:41
#00155:00000000000000530000000000000000
#00258:00000000000000630000000000000000
#00957:00000000000000540000000000000000
#01152:00000000000000540000000000000000
#01257:00000000000000640000000000000000
#0265b:53
#02652:53
#02755:00000000000000530000000000000000
#02858:00000000000000630000000000000000
#03158:00000000000000630000000000000000
#03255:00000000000000530000000000000000
#0515b:53
#05155:53
#05358:63
#05352:63
#05555:53
#0555b:53
#05758:63
#05752:63
#0595b:53
#05955:53
#0135b:00000000000000530000000000000000
#0145b:00000000005300000000000000000000
#01555:00000000000000530000000000000000
#01655:00000000000000530000000000000000
#01752:0014
#0175a:00000000000000000000001400000000
#0295b:0013
#02955:0000000000130000
#02958:00000013
#02952:0000000000000013
#01952:00000000000000000000001400000000
#0195a:0014
#0355b:0000006300000000
#03557:0000000000000000000000000000000000000000002300000000000000000000
#0405b:13
#04055:0013000000000000
#04358:00000000000000630000000000000000
#04455:00000000000000530000000000000000
#04755:00000000000000530000000000000000
#04858:00000000000000630000000000000000
#04258:13
#04252:00000000000000130000000000000000
#001350:00000000000000130000000000000000
#001320:0000000000230000
#002380:00000000000000130000000000000000
#0023b0:0000000000230000
#004330:00001323
#009370:00000000000000140000000000000000
#0093a0:0000000000240000
#0103a0:00000000000000140000000024000000
#011320:00000000000000140000000000000000
#011350:0000000000240000
#012370:00000000000000140000000000000000
#0123a0:00000024
#0133b0:00000000000000130000000000000000
#013380:0000000000230000
#0143b0:00000000001300000000000000000000
#014380:00000000000000230000000000000000
#015350:00000000000000130000000000000000
#015320:0000000000230000
#016350:00000000000000130000000000000000
#016320:00000023
#017380:0000000000000014
#018380:0024
#017321:0000000000000014
#018321:0024
#019341:0000000000000014
#020341:0024
#0193a0:0000000000000014
#0203a0:0024
#0223b0:12000022000000000000000000000000
#022360:00000000001200002200000000000000
#024350:13000000000000230000000000000000
#025320:13000023000000000000000000000000
#0253b1:13000023000000000000000000000000
#025341:00000000000000001300002300000000
#025390:00000000000000001300002300000000
#026320:13
#026350:0000002300000000
#0263b1:13
#026381:0000002300000000
#027351:00000000000000130000000000000000
#027321:0000000000230000
#028381:00000000000000130000000000000000
#0283b1:0000000000230000
#031381:00000000000000130000000000000000
#0313b1:0000000000230000
#032351:00000000000000130000000000000000
#032321:0000000000230000
#033321:00000000001300003300330033000000
#033351:0000000000000023
#0343b1:13
#034381:00000023000000000000000000000000
#034350:13
#034320:00000023000000000000000000000000
#034320:0000001323000000
#034381:0000001323000000
#0353b1:00000000000013333333333333333323
#035371:0000000000000000000000000000000000000000005300000000000000000000
#038321:00000000000000000000000000001333
#039321:33330000000000000000000000000000
#039351:0023000000000000
#041351:0000132300000000
#043381:00000000000000130000000000000000
#0433b1:0000000000230000
#044351:00000000000000130000000000000000
#044321:0000000000230000
#0453a1:00000000001200002200000000000000
#047351:00000000000000130000000000000000
#047321:0000000000230000
#048381:00000000000000130000000000000000
#0483b1:0000000000230000
#0493b1:00000000001300003300330033000000
#049381:0000000000000023
#050321:13
#050351:00000023000000000000000000000000
#050380:13
#0503b0:00000023000000000000000000000000
#0503b0:0000001323000000
#050351:0000001323000000
#0503b1:00000013
#0513b1:33
#051381:0023
#051350:13
#051320:0023
#052320:00000013
#053320:33
#053350:0023
#053381:13
#0533b1:0023
#0543b1:00000013
#0553b1:33
#055381:0023
#055350:13
#055320:0023
#056320:00000013
#057320:33
#057350:0023
#057381:13
#0573b1:0023
#0583b1:00000013
#0593b1:33
#059381:0023
#058350:00000013
#059350:33
#059320:0023
