This file was generated by Ched 2.6.2.0.
#TITLE ""
#ARTIST ""
#DESIGNER ""
#DIFFICULTY 0
#PLAYLEVEL
#SONGID ""
#WAVE ""
#WAVEOFFSET 0
#JACKET ""
#REQUEST "ticks_per_beat 480"
#00002: 4
#BPM01: 110
#00008: 01
#TIL00: ""
#HISPEED 00
#MEASUREHS 00
#00012:00000013
#0001b:00000013
#00016:0014
#00015:0000000000130000
#00018:00000000000000000000001300000000
#00116:00000000000000130000000000000000
#00117:0000001300001212
#0011c:00000012
#00112:00000013000013000000000000001200
#00115:00130000000000000000000000000000
#00118:0013000000000000
#0011b:23000000000000130000000000000000
#0031b:00000013000000000000000000000000
#00312:00130000001300000000000000000000
#00316:0000000000000000000000000013000000000000130000000000000013000000
#00317:00001313
#00417:0000000000000000001300000000000000000000130000000000000000000000
#0041b:13000013000000001300000000000000
#00418:00130000000000000000000013000000
#00412:00000000000013000000000000000013
#00415:00000000000000130000001300000000
#00419:00000000000000000013000000000000
#00416:00000000000000000000000000130000
#00414:0000000000000013
#0051b:13000000000000000000001300000000
#00516:00130000000000000000000000000000
#00512:00000013000000001300000000000000
#00514:0000001300000000
#0051a:00130000000000000000000000000000
#00515:00130000
#00517:00000000000000000013000000000000
#00519:0000000000000013
#00513:00000000000000000013000000000000
#00518:00000013
#00510:41
#00612:00000013000000000000000013000000
#00614:0000001300000013
#0061b:13000000000000130000000000000000
#00617:00000013
#00619:0000000000000013
#00616:00130000000000000000000000000000
#0061a:00130000000000000000000000000000
#00615:00130000
#0081a:00130012
#00812:0000000000000014
#00814:00000000000000000000001200000000
#00817:0000000000001300000000000000000000000000000000120000000000000000
#00815:00130000000000130000000000000000
#00816:13000000000000000000000000000014
#0081b:1300001300000000
#0201b:00001213
#02018:00000000000000000012000000130000
#02015:0000000000120013
#02012:00000000000000000000001200000013
#02016:0013001300000000
#02017:13130000
#02215:00000013
#02218:1200000000000013
#02216:00000012000000001200000000000000
#02212:0000000000230000
#0241c:00000000000000000012000000000000
#02419:0000000000001223
#02416:0000000000000012
#02414:28
#02412:00000000000000000023000000000000
#02415:00000023
#02515:00000012000000000000002300000000
#02518:00000023000012000000000000000000
#0251c:0012
#02519:00000000000000000000001200230000
#02516:00000000000000000000000000120000
#02512:1223
#0251b:23
#02514:0000002300000000
#02619:00000013130000000000000000000000
#02618:00000000000000000013000000001300
#02615:00000000000016000000130000130000
#0261b:23000000000000001300001323000000
#02612:12000000000000002300000013000013
#02614:00000013130000000000000000000000
#02716:13130013000000000000000024002400
#02712:00000000000013130000000000240000
#0271b:0000000000130000
#0271a:00000000000000000000000000240000
#02710:41
#0281b:00000000000013130000000013000000
#02819:0000000000000013
#02812:0000000000130000
#02814:1200000000000013
#0281a:12000012000000000000000000000000
#02816:00120000000000000000000013000000
#02818:0012000000000000
#02912:13130000001300001300000013000000
#02918:00000013000000000000000000000000
#02917:13130000000000000000000013000000
#0291b:00000000001300000000130000001300
#02915:00130000
#02916:0000000000130013
#0301b:00001313000000002300000013000013
#03012:00000000001300001300001323000000
#03016:00000000001414000000000000000000
#03015:00000000000000000013000000001300
#03018:00000000000000000000130000130000
#05012:1313000000130013
#0501b:0000001300001300
#05017:0000000000130013
#05016:00001414001414000000000013000000
#05014:0023
#05019:0023
#0511b:13000000000000000000130000130000
#05116:00130000
#05117:13
#05112:00000000130000000000000000130000
#05115:00000000000000000000130013000013
#05118:00000000000000000000001300001300
#05215:00000013000000000000000000000000
#05217:0000001313001300
#05212:00001313
#0521b:00000013000000000000130000001300
#05216:0000000000130013
#05218:13
#05312:13000000000000000000130000130000
#05317:00130000
#05316:13
#0531b:00000000130000000000000000130000
#05318:00000000000000000000130013000013
#05315:00000000000000000000001300001300
#05412:13000013000000000000130000001300
#05416:0000001300130013
#05417:00001313
#0541b:00001313
#05418:00000013000000000000000000000000
#0551b:13000000130000000000001300000013
#05517:1313131300000000
#05512:00001300000013000000000000130000
#05515:00000000000000000000000000000013
#05616:00000013000000001300000013000000
#0561b:00000013000013000000130000001300
#05612:00131313
#05617:1300000000130013
#05712:13000000130000000000001300000013
#05716:1313131300000000
#0571b:00001300000013000000000000130000
#05718:00000000000000000000000000000013
#05817:00000013000000001300000013000000
#05812:00000013000013000000130000001300
#05816:1300000000130013
#0581b:00131313
#0171b:1313000013000000
#01715:16001300160000001600001300130000
#01712:0000131300000013
#01718:00000000000013000000001300000000
#01817:0013001300000000
#01812:0013
#01816:13130000
#01818:00000016
#01815:0000000000000016
#00214:1200001200000000
#00219:00120000000000000000000000000000
#00218:00000000000000120000000000000000
#00217:0012000000000000
#0021c:00000012000000000000000000000000
#00216:00000000000000120000000000000000
#0021a:0000001200000000
#00212:00000013
#00716:13000000000000000000001300000000
#00715:00130000000000000000000000000000
#00717:00000013000000001300000000000000
#0071b:1300001300000000
#0071a:00130000
#00718:00000000000000000013000000000000
#00712:0000000013000013
#00713:00000013
#0091a:14001400001400140000001400001400
#00916:00000014000000000000000000000014
#00912:14001400001400000000140000001400
#01015:00000014000000140000000014000000
#0101a:00001414000000140000000000001400
#01017:0000000000000000000014000000000000000014000000000000000000000000
#01012:14000000001400000000000000000000
#01016:00000000000000000000000000000014
#02116:0000001212000000
#02110:41
#01312:13000023000000230000000000230000
#01317:00000013000000000000230000000000
#0131b:13001300001300000000002300000000
#01315:0000000000000013
#01318:00000000000000000000000000000013
#01316:00001300000000230000000000000000
#01313:00000000000000000000002300000000
#01310:41
#01215:0000000000000000000014000000000000000014000000000000000000001300
#01217:00000014000000140000000014000000
#01212:00001414000000140000000000000000
#0121a:14000000001400000000000000000000
#01218:0000000000000023
#01419:0013000000000000
#01412:00000013002300000000000013000000
#01416:0000000000130000
#01418:00000000000000000000000000000013
#0141b:13
#01417:23000023000000230000000013000000
#01415:0000000000000023
#01518:0013000000000023
#01512:13000000001300000000002300000000
#01515:00130000000000000000000000000013
#0151b:13000023000000230000000000000000
#01516:0000000000230000
#0151a:00000000000000000000002300000000
#01517:00000000000000230000000000000000
#01616:00001323000000230000000000000000
#0161b:00000013002300000000000000000000
#01617:2300000000130000
#01612:13000016
#01615:0000000000000016
#02312:23001300000023000000001300130000
#02315:00000000000000130000000000001300
#02317:0013000000000000
#02316:00130000
#02318:00000000000000001300001300000000
#0231b:2300132300130013
#03117:13130013000000000000000000000000
#0311b:00000000000013130000000000000000
#03112:00000000000000000000130000240000
#03116:0000000000002424
#0311a:00000000000000000000000000240000
#03212:00000000000013130000000013000000
#03214:12000012000000000000000000001300
#0321a:12
#03218:00120000000000000000000000000000
#03216:0012000000000000
#03217:00000013
#03219:0000000000000013
#0321b:0000000000130000
#03316:13130013000000000000000000000000
#0331b:13130000001300001300000013000000
#03318:00000000000000000013000000130000
#03315:0000000013130013
#03312:00000000000000000000001300000013
#03310:41
#03412:0013000013130000
#0341b:13000000000013000000000000130013
#03416:00001414001414000000000000000000
#03418:00000000000000000013001300000000
#03415:0000000000001313
#05916:00120000000000000000000000000000
#05918:00120000000000000000000000000000
#03515:00120000000000000000000000000000
#03517:0014000000000000
#03512:23000000130000000000000000000013
#0351f:11
#03615:00001400000000130013000000130000
#03618:0000000013001313
#03612:0000002300130000
#0361b:23000000130000000000002300000013
#03619:00120000000000000000000000000000
#0371a:00000000000014140000000000001414
#03714:00000000000000001414000000000000
#03718:00000000000000000000141400000000
#03712:23000000130000000000000014140000
#03715:00120000000000000000000000000000
#03717:0014000000000000
#03815:12
#03817:00120000000000000000000000000000
#03812:00000012000000000000000000000033
#03816:00000000001200000000000000000000
#03818:00000012000000000012000000000000
#03814:0000000000120000
#0381a:00000000001200000000001200000000
#03918:00000000001300130000000013000000
#03915:00000000000013000000001300130000
#0391b:00231300
#03912:33330000000000000000230000001300
#0401b:13
#04017:00130000130000000000000000000000
#04019:0013000000000000
#04015:00000013000000000000000000000000
#04013:00000000001300000000000000000000
#04016:00000000000014001400001400001200
#04012:00000000000000140000000000000000
#04014:00000000000000000014000000120000
#04018:00000000000000000000140000000012
#0401a:00000014
#0411a:121200000000
#04114:120012003300001300001300
#04112:001200000000000013230000
#04117:000000000000000013130000
#0411b:000000130000230000000013
#04119:000000000000001300001300
#04116:000000000000000000000013
#0411c:001200000000000000000000
#04115:000000000033000000000000
#0421b:13131323
#04212:13001300001300002300000013000000
#04216:00000014001400140000000000000000
#04218:00000000000000000013001300001300
#04215:00000000000000000000130000130013
#04316:13130013000000000000000000240000
#04312:00000000000013130000000024002400
#0431b:0000000000130000
#0431f:21
#0431a:0000000000000024
#0441c:12000012
#04419:0000000000000012
#0441b:00000012000013130000000000000000
#04412:1200000000130000
#04415:00120000000000000000000000001200
#04418:0012000000000000
#04417:00000012
#04512:12120000001200001200000000000000
#04517:12000012000000000000000000000000
#04514:00000000000000000012000012000000
#0451a:00000000000000000000120000000012
#04518:00000000000000000000001200000000
#04516:00000000000000000000000000120000
#0451c:0000000000000012
#04510:41
#0461b:00000013000000002300000013000000
#04612:00000000001300001300000023000000
#04616:00000014001414000000000000000000
#04615:00000000000000000013001300001300
#04618:00000000000000000000130000130013
#04717:13130013000000000000000000000000
#0471b:00000000000013130000000000000000
#04712:0000000000130024
#0471a:0000000000002424
#04716:00000000000000000000000000240000
#04812:12000000000013130000000013000000
#04814:0000000000000013
#0481c:12
#04819:00120000000000000000000000003300
#04816:0012000000000000
#04813:00000012000000000000000000000000
#0481b:0000000000130000
#04916:13130000000000000000000000000000
#04915:00000000000000000013000000130000
#04912:00001313
#04918:0000000013130013
#0491b:00130000001300000000001300000013
#01112:14001400001400140000001400001400
#0111a:14001400001400000000140000001400
#01116:00000014000000000000000000000014
#01912:1313000013000000
#01918:00001300000000000000001300130000
#0191b:0000131300000013
#01915:16000000160013001600001300000000
#05152:00230000
#05156:00230000
#05157:63
#0515b:63
#05052:0000000000330000
#0505b:00000043
#05056:00000043
#05057:0000000000330000
#05054:0013
#05059:0013
#0525b:0000000000430000
#05252:00000033
#05256:0000000000430000
#05257:00000033
#05352:53
#05357:00230000
#05356:53
#0535b:00230000
#05452:0000000000330000
#0545b:00000043
#05456:0000000000430000
#05457:00000033
#0555b:63630000
#05557:6323632300000000
#05552:0023002300000000
#05657:6300000000330000
#05652:00630033
#0565b:0000000000430000
#05656:00000043
#05752:53530000
#05756:5323532300000000
#0575b:0023002300000000
#05856:5300000000430000
#0585b:00530043
#05852:0000000000330000
#05857:00000033
#01857:0063006300000000
#01852:0063
#01856:63630000
#0175b:4333
#01758:00000000000000000000003300000000
#01752:0000330000000033
#01755:36000000460000003600003300000000
#02056:0053005300000000
#02057:53530000
#02454:68
#0045b:53000053000000000000000000000000
#00457:0000000000000000002300000000000000000000000000000000000000000000
#00458:00230000000000000000000000000000
#00452:0000005300000000
#00455:00000000000000230000000000000000
#00352:00230000006300000000000000000000
#00356:0000000000000000000000000023000000000000530000000000000053000000
#00357:00005363
#0035b:00000023000000000000000000000000
#00256:00000000000000520000000000000000
#00258:00000000000000520000000000000000
#00554:0000001300000000
#00559:0000000000000013
#0065b:00000000000000130000000000000000
#00654:0000001300000000
#0075b:0000001300000000
#00752:0000000000000013
#00855:00000000000000130000000000000000
#0085b:0000001300000000
#0085a:00000042
#0105a:00000000000000640000000000000000
#01057:0000000000000000000000000000000000000024000000000000000000000000
#0095a:00000000000000640000000000000000
#0135b:00000000000000000000003300000000
#01357:0000000000330000
#01352:00000053000000530000000000000000
#01356:00000000000000530000000000000000
#01552:00000000000000000000004300000000
#01556:0000000000430000
#0155b:00000053000000530000000000000000
#01557:00000000000000530000000000000000
#02752:00000000000000630000000000000000
#02757:00000000000000130000000000000000
#0285b:00000000000000530000000000000000
#02856:00000000000000130000000000000000
#03356:00630000000000000000000000000000
#03358:00000000000000000023000000230000
#0335b:00006363
#03352:00000000004300000000002300000023
#03355:0000000000630063
#01457:53000000000000530000000000000000
#01657:53
#01656:00000000000000530000000000000000
#05956:00220000000000000000000000000000
#05958:00220000000000000000000000000000
#03056:00000014000014000000000000000000
#0305b:0013
#03052:00000013
#03552:00330000
#0405b:13
#04057:00130000130000000000000000000000
#04059:0013000000000000
#04055:00000013000000000000000000000000
#04053:00000000001300000000000000000000
#0425b:13000043
#04252:1333
#0445b:00000000000000530000000000000000
#04456:00000000000000330000000000000000
#0455c:00000000001200000000000000000000
#04956:00630000000000000000000000000000
#04955:00000000000000000023000000230000
#04952:00000000004300005300000053000000
#0495b:00530000000000000000002300000023
#04958:0000000000530053
#0295b:00000000005300000000430000004300
#02952:00003333
#0315b:00000000000000530000000000000000
#03156:00000000000000130000000000000000
#04352:00000000000000630000000000000000
#04357:00000000000000430000000000000000
#0475b:00000000000000530000000000000000
#04756:00000000000000330000000000000000
#01152:00000000000000540000000000000000
#01252:00000000000000540000000000000000
#01255:0000000000000000000000000000000000000024000000000000000000000000
#01952:3343
#01955:46000000360000004600004300000000
#0195b:0000430000000043
#01958:00000000000000000000004300000000
#0365b:00430000
#03752:00330000
#0385a:00000000005200000000005200000000
#03858:00000052000000000000000000000000
#02652:0013
#0265b:00000013
#0465b:0043
#04652:00000033
#03252:00000000000000630000000000000000
#03257:00000000000000130000000000000000
#04852:00000000000000630000000000000000
#04857:00000000000000430000000000000000
#002360:00000000000000120000000000000000
#002320:0000000000220000
#002381:00000000000000120000000000000000
#0023c1:0000000000220000
#0023b1:00000013
#002371:0000000000000023
#002320:0000000000000013
#003320:23
#003371:13230000000000000000000000000000
#003320:00130000000000000000000000000000
#003360:00000023000000000000000000000000
#0033b1:00000013000000000000000000000000
#003371:00000000002300000000000000000000
#003320:00000000001300002300000000000000
#003360:0000000000000000000000000053000000000000000000000000000000000000
#003371:0013
#0033b1:00000000000000000053230000000000
#003360:0000000000130000
#003320:00000000000000000000005323000000
#003371:00000013
#0033b1:00000000000000000000000000532300
#003360:0000000000000013
#003320:00000000000000000000000000000053
#004320:23
#0043b1:1323000000000000
#004381:00530000000000000000000000000000
#004360:00001323000000000000000000000000
#0043b1:00000013000023000000000000000000
#004371:0000000000000000005300000000000000000000000000000000000000000000
#004320:0000001323000000
#004350:00000000000000530000000000000000
#005380:00000013000023000000000000000000
#0053b0:00000000535300000000000000000000
#005350:00000000000000000000001300002300
#005320:00000000000000000000000053530000
#006380:00000013000023000000000000000000
#0063b0:00000000535300000000000000000000
#007320:00000013000023000000000000000000
#007350:00000000535300000000000000000000
#0073b0:00000000000000000000001300002300
#007380:00000000000000000000000053530000
#008320:00000013000023000000000000000000
#008350:00000000535300000000000000000000
#0093a0:00000000000000140000000000000000
#009360:0000000000240000
#0103a0:00000000000000140000000024000000
#010370:0000000000000000000000000000000000000054000000000000000000000000
#011320:00000000000000140000000000000000
#011360:0000000000240000
#012320:00000000000000140000000024000000
#012350:0000000000000000000000000000000000000054000000000000000000000000
#013320:00000013000000000000000000000000
#013360:00000000002300000000000000000000
#013320:00000000000000130000000000000000
#013370:0000000000000000000000000000000000530000230000000000000000000000
#013361:00000000000000130000000000000000
#0133b1:0000000000000000000000000000000000530000000023000000000000000000
#014371:13
#014321:0023000000000000
#014371:00000013002300000000000000000000
#014320:00000000001300230000000000000000
#014371:00000000000000130000000000000000
#0143b1:0000000000230000
#0153b1:00000013000000000000000000000000
#015371:00000000002300000000000000000000
#0153b1:00000000000000130000000000000000
#015361:0000000000000000000000000000000000530000230000000000000000000000
#015370:00000000000000130000000000000000
#015320:0000000000000000000000000000000000530000530023000000000000000000
#016370:13
#0163b0:0023000000000000
#016360:00000013002300000000000000000000
#0163b1:00000000001300230000000000000000
#016360:00000000000000130000000000000000
#016320:0000000000230000
#017380:00000000000000000000000000130033
#0173b0:0000000000000033
#0183b0:23
#018361:13
#018321:00532300000000000000000000000000
#018370:0013000000000000
#0183b0:00000053230000000000000000000000
#018361:00130000
#018321:00000000005323000000000000000000
#018370:0000001300000000
#0183b0:00000000000000532300000000000000
#018321:0013
#018371:00000000000000000000532300000000
#0183b0:00000000000000000000132300000000
#019350:00000000000000000000000000130033
#019320:0000000000000033
#020320:23
#020371:13
#0203b1:00532300000000000000000000000000
#020360:0013000000000000
#020320:00000053230000000000000000000000
#020371:00130000
#0203b1:00000000005323000000000000000000
#020360:0000001300000000
#020320:00000000000000532300000000000000
#021370:12000022000000000000000000000000
#021380:0000001200220000
#021361:0000000000122200
#021380:0000000000001222
#021361:0000000000000012
#022361:22
#022381:00000000001200002200000000000000
#024341:18
#024371:00000000000000220000000000000000
#027321:13230000000000000000000000000000
#0273b1:00000013000000000000000000000000
#027371:00000000000033230000000000000000
#027320:00000000000000130000000000000000
#027370:0000000000230000
#028360:00000000000013230000000000000000
#0283b1:00000000000000130000000000000000
#028361:0000000000230000
#0293b1:00000000001300000000000000000000
#029361:0023
#030361:14000024000000000000000000000000
#0313b1:13230000000000000000000000000000
#031321:00000013000000000000000000000000
#031361:00000000000033230000000000000000
#0313b0:00000000000000130000000000000000
#031360:0000000000230000
#032370:00000000000013230000000000000000
#032321:00000000000000130000000000000000
#032371:0000000000230000
#033361:00130000000000000000000000000000
#033321:00000033002300000000000000000000
#0333b1:0000000013230000
#033381:00000000000000000053000000000000
#033350:0000000000132300
#033320:00000000000000000000005300000000
#0333b1:0000000000001323
#033381:00000000000000000000000000530000
#033350:0000000000000013
#033320:00000000000000000000000000000053
#034350:23
#035340:000000000000000000000000000000000000000000000000000000000000000000000000000000000000000000000000000000000000000000000000000000000000000000000000000000000000000000000000000000000000000000000000000000000000000000000000000000000000000000000000000000000000000000000000000000000000000000000000000000000000000000000000000000000000000000000000000000000000000000000000000000000000000000000000000000000000000000000000000000000000000000000000000000000000000000000000000000000000000000000000000000000000000000000000000000000000000000000000000000000000000000000000000000000000000000000000000000000000000000000000000000000000000000000000000000000000000000000000000000000000000000000000000000000000000000000000000000000000000000000000132300000000000000000000000000000000000000000000000000000000000000000000000000000000000000000000000000000000000000000000000000000000000000000000000000000000000000000000000000000000000000000000000000000000000000000000000000000000000000000000000000000000000000000000000000000000000000000000000000000000000000000000000000000000000000000000000000000000000000000000000000000000000000000000000000000000000000000000000000000000000000000000000000000000000000000000000000000000000000000000000000000000000000000000000000000000000000000000000000000000000000000000000000000000000000000000000000000000000000000000000000000000000000000000000000000000000000000000000000000000000000000000000000000000000000000000000000000000000000000000000000000000000000000000000000000000000000000000000000000000000000000000000000000000000000000000000000000000000000000000000000000000000000000000000000000000000000000000000000000000000000000000000000000000000000000000000000000000000000000000000000000000000000000000000000000000000000000000000000000000000000000000000000000000000000000000000000000000000000000000000000000000000000000000000000000000000000000000000000000000000000000000000000000000000000000000000000000000000000000000000000000000000000000000000000000000000000000000000000000000000000000000000000000000000000000000000000000000000000000000000000000000000000000000000000000000000000000000000000000000000000000000000000000000000000000000000000000000000000000000000000000000000000000000000000000000000000000000000000000000000000000000000000000000000000000000000000000000000000000000000000000000000000000000000000000000000000000000000000000000000000000000000000000000000000000000000000000000000000000000000000000000000000000000000000000000000000000000000000000000000000000000000000000000000000000000000000000000000000000000000000000000000000000000000000000000000000000000000000000000000000000000000000000000000000000000000000000000000000000000000000000000000000000000000000000000000000000000000000000000000000000000000000000000000000000000000000000000000000000000000000000000000000000000000000000000000000000000000000000000000000000000000000000000000000000000000000000000000000000000000000000000000000000000000000000000000000000000000000000000000000000000000000000000000000000000000000000000000000000000000000000000000000000000000000000000000000000000000000000000000000000000000000000000000000000000000000000000000000000000000000000000000000000000000000000000000000000000000000000000000000000000000000000000000000000000000000000000000000000000000000000000000000000000000000000000000000000000000000000000000000000000000000000000000000000000000000000000000000000000000000000000000000000000000000000000000000000000000000000000000000000000000000000000000000000000000000000000000000000000000000000000000000000000000000000000000000000000000000000000000000000000000000000000000000000000000000000000000000000000000000000000000000000000000000000000000000000000000000000000000000000000000000000000000000000000000000000000000000000000000000000000000000000000000000000000000000000000000000000000000000000000000000000000000000000000000000000000000000000000
#0353b0:00000000000013230000000000000000
#035351:00000000000000132300000000000000
#035380:00000000000000001323000000000000
#035321:00000000000000000013230000000000
#0353b0:00000000000000000000132300000000
#035321:00000000000000000000001323000000
#035380:00000000000000000000000013230000
#035351:00000000000000000000000000132300
#035380:00000000000000000000000000001323
#036390:000000000000000000000000000000000000000000000000000000000000000000000000000000000000000000000000000000000000000000000000000000000000000000000000000000000000000000000000000000000000000000000000000000000000000000000000000000000000000000000000000000000000000000000000000000000000000000000000000000000000000000000000000000000000000000000000000000000000000000000000000000000000000000000000000000000000000000000000000000000000000000000000000000000000000000000000000000000000000000000000000000000000000000000000000000000000000000000000000000000000000000000000000000000000000000000000000000000000000000000000000000000000000000000000000000000000000000000000000000000000000000000000000000000000000000000000000000000000000000000000132300000000000000000000000000000000000000000000000000000000000000000000000000000000000000000000000000000000000000000000000000000000000000000000000000000000000000000000000000000000000000000000000000000000000000000000000000000000000000000000000000000000000000000000000000000000000000000000000000000000000000000000000000000000000000000000000000000000000000000000000000000000000000000000000000000000000000000000000000000000000000000000000000000000000000000000000000000000000000000000000000000000000000000000000000000000000000000000000000000000000000000000000000000000000000000000000000000000000000000000000000000000000000000000000000000000000000000000000000000000000000000000000000000000000000000000000000000000000000000000000000000000000000000000000000000000000000000000000000000000000000000000000000000000000000000000000000000000000000000000000000000000000000000000000000000000000000000000000000000000000000000000000000000000000000000000000000000000000000000000000000000000000000000000000000000000000000000000000000000000000000000000000000000000000000000000000000000000000000000000000000000000000000000000000000000000000000000000000000000000000000000000000000000000000000000000000000000000000000000000000000000000000000000000000000000000000000000000000000000000000000000000000000000000000000000000000000000000000000000000000000000000000000000000000000000000000000000000000000000000000000000000000000000000000000000000000000000000000000000000000000000000000000000000000000000000000000000000000000000000000000000000000000000000000000000000000000000000000000000000000000000000000000000000000000000000000000000000000000000000000000000000000000000000000000000000000000000000000000000000000000000000000000000000000000000000000000000000000000000000000000000000000000000000000000000000000000000000000000000000000000000000000000000000000000000000000000000000000000000000000000000000000000000000000000000000000000000000000000000000000000000000000000000000000000000000000000000000000000000000000000000000000000000000000000000000000000000000000000000000000000000000000000000000000000000000000000000000000000000000000000000000000000000000000000000000000000000000000000000000000000000000000000000000000000000000000000000000000000000000000000000000000000000000000000000000000000000000000000000000000000000000000000000000000000000000000000000000000000000000000000000000000000000000000000000000000000000000000000000000000000000000000000000000000000000000000000000000000000000000000000000000000000000000000000000000000000000000000000000000000000000000000000000000000000000000000000000000000000000000000000000000000000000000000000000000000000000000000000000000000000000000000000000000000000000000000000000000000000000000000000000000000000000000000000000000000000000000000000000000000000000000000000000000000000000000000000000000000000000000000000000000000000000000000000000000000000000000000000000000000000000000000000000000000000000000000000000000000000000000000000000000000000000000000000000000000000000000000000000000000000000000000000000000000000000000000000000000000000000000000000000000000000000000000000000000000000000000000000000000
#037340:000000000000000000000000000000000000000000000000000000000000000000000000000000000000000000000000000000000000000000000000000000000000000000000000000000000000000000000000000000000000000000000000000000000000000000000000000000000000000000000000000000000000000000000000000000000000000000000000000000000000000000000000000000000000000000000000000000000000000000000000000000000000000000000000000000000000000000000000000000000000000000000000000000000000000000000000000000000000000000000000000000000000000000000000000000000000000000000000000000000000000000000000000000000000000000000000000000000000000000000000000000000000000000000000000000000000000000000000000000000000000000000000000000000000000000000000000000000000000000000000132300000000000000000000000000000000000000000000000000000000000000000000000000000000000000000000000000000000000000000000000000000000000000000000000000000000000000000000000000000000000000000000000000000000000000000000000000000000000000000000000000000000000000000000000000000000000000000000000000000000000000000000000000000000000000000000000000000000000000000000000000000000000000000000000000000000000000000000000000000000000000000000000000000000000000000000000000000000000000000000000000000000000000000000000000000000000000000000000000000000000000000000000000000000000000000000000000000000000000000000000000000000000000000000000000000000000000000000000000000000000000000000000000000000000000000000000000000000000000000000000000000000000000000000000000000000000000000000000000000000000000000000000000000000000000000000000000000000000000000000000000000000000000000000000000000000000000000000000000000000000000000000000000000000000000000000000000000000000000000000000000000000000000000000000000000000000000000000000000000000000000000000000000000000000000000000000000000000000000000000000000000000000000000000000000000000000000000000000000000000000000000000000000000000000000000000000000000000000000000000000000000000000000000000000000000000000000000000000000000000000000000000000000000000000000000000000000000000000000000000000000000000000000000000000000000000000000000000000000000000000000000000000000000000000000000000000000000000000000000000000000000000000000000000000000000000000000000000000000000000000000000000000000000000000000000000000000000000000000000000000000000000000000000000000000000000000000000000000000000000000000000000000000000000000000000000000000000000000000000000000000000000000000000000000000000000000000000000000000000000000000000000000000000000000000000000000000000000000000000000000000000000000000000000000000000000000000000000000000000000000000000000000000000000000000000000000000000000000000000000000000000000000000000000000000000000000000000000000000000000000000000000000000000000000000000000000000000000000000000000000000000000000000000000000000000000000000000000000000000000000000000000000000000000000000000000000000000000000000000000000000000000000000000000000000000000000000000000000000000000000000000000000000000000000000000000000000000000000000000000000000000000000000000000000000000000000000000000000000000000000000000000000000000000000000000000000000000000000000000000000000000000000000000000000000000000000000000000000000000000000000000000000000000000000000000000000000000000000000000000000000000000000000000000000000000000000000000000000000000000000000000000000000000000000000000000000000000000000000000000000000000000000000000000000000000000000000000000000000000000000000000000000000000000000000000000000000000000000000000000000000000000000000000000000000000000000000000000000000000000000000000000000000000000000000000000000000000000000000000000000000000000000000000000000000000000000000000000000000000000000000000000000000000000000000000000000000000000000000000000000000000000000000000000000000000000000000000000000000000000000000000000000000000000000000000000000000000000000000000000
#038380:00000012000000220000000000000000
#0383a0:00000000003200000000000000000000
#038361:00000000000000120022000000000000
#0383a1:00000000000000000000001200000000
#0383c1:0000000000000022
#038320:00000000000000000000000000001333
#039320:33330000000000000000000000000000
#039370:0023000000000000
#041320:00130000
#041340:003300
#041350:000000000033000000000000
#041360:0023
#043320:13230000000000000000000000000000
#0433b0:00000013000000000000000000000000
#043370:00000000000033230000000000000000
#043321:00000000000000130000000000000000
#043371:0000000000230000
#044361:00000000000013230000000000000000
#0443b0:00000000000000130000000000000000
#044360:0000000000230000
#045370:00120000000000000000000000000000
#0453c0:00000032002200000000000000000000
#046360:1424000000000000
#0473b0:13230000000000000000000000000000
#047320:00000013000000000000000000000000
#047360:00000000000033230000000000000000
#0473b1:00000000000000130000000000000000
#047361:0000000000230000
#048371:00000000000013230000000000000000
#048320:00000000000000130000000000000000
#048370:0000000000230000
#048370:00000013
#048390:0000000000000033
#0493b0:23
#049360:00130000000000000000000000000000
#049320:00000033002300000000000000000000
#0493b1:00130000000000000000000000000000
#049371:00000023000000000000000000000000
#049320:0000000013230000
#049350:00000000000000000053000000000000
#049381:0000000000132300
#0493b1:00000000000000000000005300000000
#049320:0000000000001323
#049350:00000000000000000000000000530000
#049381:0000000000000013
#0493b1:00000000000000000000000000000053
#050381:23
#0513b1:1323
#051361:00530000
#051370:1323
#051320:00530000
#052320:1323000000000000
#052320:0000132300000000
#053320:1323
#053370:00530000
#053361:1323
#0533b1:00530000
#0543b1:1323000000000000
#0543b1:0000132300000000
#0553b1:13532300
#055371:0053005300000000
#055370:13532300
#055320:0053005300000000
#055350:0000000000132300
#055381:0000000000001323
#056371:13
#056321:0023000000000000
#056321:00130000
#056371:0000002300000000
#057321:13532300
#057361:0053005300000000
#057360:13532300
#0573b0:0053005300000000
#057380:0000000000132300
#057351:0000000000001323
#058361:13
#0583b1:0023000000000000
#0583b1:00130000
#058361:0000002300000000
#059351:13
#059361:00520000000000000000000000000000
#059321:0026
#059380:13520000000000002600000000000000
