This file was generated by Ched 2.6.2.0.
#TITLE ""
#ARTIST ""
#DESIGNER ""
#DIFFICULTY 0
#PLAYLEVEL
#SONGID ""
#WAVE ""
#WAVEOFFSET 0
#JACKET ""
#REQUEST "ticks_per_beat 480"
#00002: 4
#BPM01: 110
#00008: 01
#TIL00: ""
#HISPEED 00
#MEASUREHS 00
#00019:0014
#00013:00000014
#0011a:14140000
#00212:14140000
#00318:1414
#00314:00140014
#0051a:1414
#00514:00140000
#00510:41
#00612:1414
#00618:00140000
#0071a:14
#00714:00140000
#00812:14
#00818:00140000
#0091a:14001414
#00914:00140000
#01018:14140000
#0111a:1414
#01114:00140014
#0121a:14140000
#01312:14001414
#01318:00140000
#01310:41
#01414:14140000
#01512:1414
#01518:00140014
#01612:14141400
#0171a:14
#01714:00140000
#01912:14
#01918:00140000
#0211a:14001414
#02114:0000140000140014
#02110:41
#0221a:14
#02214:00140000
#02312:14001414
#02318:0000140000140014
#02412:14
#02418:00140000
#02512:14140000
#0251a:14140000
#02519:00001414
#02513:00001414
#0271a:14141414
#02714:1414
#02710:41
#02818:14140000
#02812:14
#0291a:14001414
#02914:00140000
#03112:14141414
#03118:1414
#03214:14140000
#0321a:14
#03312:14001414
#03318:00140000
#03310:41
#0511a:14
#05112:00000014
#05218:14
#05212:00140000
#05312:14
#0531a:00000014
#05414:14
#0541a:00140000
#0551a:14140000
#05514:00001414
#05618:14140000
#05712:14140000
#05718:00001414
#05814:14140000
#05912:14
#0591a:14
#0351a:14
#03514:00140000
#0351f:11
#03612:14
#03618:00140000
#0371a:14
#03712:00140000
#03812:14
#03818:00140000
#03814:0014
#0381a:00000014
#04012:14
#0401a:00140000
#04014:0014
#04018:00000014
#04114:14140000
#0411a:14140000
#04112:00001414
#04118:00001414
#0431a:14140000
#04314:14
#04318:00001414
#04312:0014
#0431f:21
#0441a:14140000
#04414:14
#0451a:1414
#04514:00140000
#04512:00000014
#04510:41
#04712:14140000
#04718:14
#04714:00001414
#0471a:0014
#04812:14140000
#04818:14
#04912:1414
#04918:00140000
#0491a:00000014
#05014:00000014
#05018:0000003400000000
#05019:00000034000000000000000000000000
#0261a:0024
#02612:00000024
#02614:0024
#02618:00000024
#0301a:00000024
#03014:00000024
#03018:0000003400000000
#03019:00000034000000000000000000000000
#0421a:0024
#04212:00000024
#04214:0024
#04218:00000024
#0461a:00000024
#04614:0000003400002400
#04613:00000034000000000000000000000000
#03414:0000003400000000
#03413:00000034000000000000000000000000
#01652:0014
#0515a:54
#05352:64
#0595a:54
#05952:54
#0013a0:00001424
#002320:00001424
#004380:14343424
#007380:00001424
#008340:00001424
#010380:00001424
#0123a0:0014
#012380:00000024
#014340:00001424
#0173a0:00000000000000001400003400003400
#0183a0:0024
#019320:00000000000000001400003400003400
#020320:0024
#0223a0:00001424
#024320:00001424
#0263a0:14240000
#026321:14240000
#028381:00001424
#028320:00001424
#0303a0:14
#030390:00000034000000000000000000000000
#030380:0000003424000000
#032340:00001424
#0323a1:00001424
#034321:14
#034331:00000034000000000000000000000000
#034341:0000003424000000
#0353a1:0000000014342400
#036321:0000000014342400
#037381:0000000014342400
#039341:14240000
#039381:00001424
#042381:14
#0423a1:00240000
#044381:00001424
#044320:00001424
#046320:14
#046330:00000034000000000000000000000000
#046340:0000003424000000
#048340:00001424
#0483a1:00001424
#0503a1:14
#050391:00000034000000000000000000000000
#050381:0000003424000000
#0513a1:14
#051381:0024
#052381:00001424
#053321:14
#053341:0024
#054341:00001424
#056321:00001424
#0583a1:00001424
#0593a1:14
#059381:0024
#059320:14
#059340:0024
