This file was generated by Ched 2.6.2.0.
#TITLE ""
#ARTIST ""
#DESIGNER ""
#DIFFICULTY 0
#PLAYLEVEL
#SONGID ""
#WAVE ""
#WAVEOFFSET 0
#JACKET ""
#REQUEST "ticks_per_beat 480"
#00002: 4
#BPM01: 138
#00008: 01
#TIL00: ""
#HISPEED 00
#MEASUREHS 00
#00119:14
#00213:14
#00319:14
#00313:0014
#0051a:14
#00510:41
#00614:14
#01318:14
#01310:41
#01518:14
#0171a:14
#0191a:14
#02118:14
#02110:41
#02214:14
#02318:14
#02414:14
#03319:1414
#03413:1414
#03518:14
#03514:0014
#03618:14
#03614:0014
#03719:14
#03713:0014
#03918:2616
#0391f:21
#06313:14
#06319:14
#06413:14
#06419:14
#06513:14
#06519:14
#06613:14
#06619:14
#05819:14
#00419:14
#00718:14
#00812:14
#0091a:14
#01014:14
#01118:14
#01212:14
#01414:14
#01614:14
#01812:14
#02012:14
#0251a:14
#0271a:14
#02612:14
#02812:14
#02810:41
#02919:14
#0291f:11
#03019:14
#03113:14
#03213:14
#04012:16
#04018:0016
#04010:41
#04112:2616
#04218:16
#04212:0016
#04318:2616
#04412:16
#04418:0016
#04712:2616
#04818:16
#04812:0016
#04918:2616
#05012:16
#05018:0016
#05112:2616
#05218:16
#05212:0016
#05912:14
#06018:14
#06114:14
#0621a:14
#06713:24
#06719:24
#05510:41
#038390:1424
#045320:16
#046320:26
#053380:16
#054380:26
#055330:14
#057330:24
