This file was generated by Ched 2.6.2.0.
#TITLE ""
#ARTIST ""
#DESIGNER ""
#DIFFICULTY 0
#PLAYLEVEL
#SONGID ""
#WAVE ""
#WAVEOFFSET 0
#JACKET ""
#REQUEST "ticks_per_beat 480"
#00002: 4
#BPM01: 138
#00008: 01
#TIL00: ""
#HISPEED 00
#MEASUREHS 00
#00118:0012000000001200
#0011b:23000000130000120012000000000000
#00116:0000001200000000
#00113:00000000000000000000001200001200
#00112:13130000
#00318:0012000000001200
#00316:0000120000120000
#0031b:2300001313000013
#00312:1300001313000013
#0041b:13
#00419:00000013000000000000000023000000
#00417:0000001323000000
#00416:13
#00414:00000013000000000000000023000000
#00412:0000001323000000
#0051b:2300131300130000
#00518:0000000000000013
#00516:2300001313000000
#00512:00000013000000000000000000000000
#00510:41
#01315:23130013
#01318:0013000000130013
#0131b:23
#01310:41
#01412:1300000000130013
#01416:0000001300001300
#01417:1300000000000013
#0141b:00000000000000130000000013000000
#01518:0013001300000000
#01515:00000000130000130000000000000000
#01516:0000000000130013
#01512:0013000000001300
#0151b:1300000000130000
#01517:00000013
#01617:13000000000000000000001300000000
#0161b:0000131300000000
#01612:1300000000001313
#01616:0000001300000000
#01718:0013001300000013
#01715:23000000130000130000000000000000
#0171b:2300000000130000
#01712:00000013
#0181b:13130000
#01812:0000001300130013
#01818:00000013
#01815:00000013
#01917:0000000013000013
#0191b:00001300000000000000001300000000
#01912:0000000013000013
#01916:00000000000000000000001300000000
#01915:00130000
#01918:13
#02712:0000001300131300
#02719:0000000000000013
#02717:00000013
#02714:0000000000000013
#02718:0013000000000000
#02715:13130000
#0271b:13
#02912:14000014000000000000000000001300
#02916:0014000033330000
#02918:00000000000000000000000000000013
#0291a:00000014000000000000000000000000
#0291f:11
#02919:0000000033330000
#0301b:00000013000013000000000000001300
#03014:00130000000000000000000000000000
#03012:00000000000000000017000000000000000000000000000000000000000000000000000000000000000000001300000000000000000000000000000000000000
#03019:00000000000000000013000000000000
#03017:00000000000000000000000000000000000000000000000000000000000000000000000000000000001700000000000000000000000000000000000000000000
#03015:00000000000000130000000000000000
#03117:0013000000000000
#03112:00000013000000000000000000001300
#03116:13
#03318:0013131300000013
#03317:0000000000130000
#0331a:00000013
#03315:00000000000000130000000013000000
#03313:0000000000000013
#03312:0000000000130000
#0341b:13
#03417:0000001300130000
#03416:1300000000000013
#03412:00000000000000130000130000000000
#0371b:0000000013131313
#03712:1313131300000000
#03716:00001313
#03717:13130000
#0381b:0000001300000000
#03812:13000013
#03818:13131313
#03815:0013001300130000
#03912:2400001300001300
#03916:0013
#03913:0000000000130013
#03917:0000001300001300
#0391b:0013
#03918:24
#0391f:21
#0401b:0000130000000013
#04012:13
#04016:00130000
#0401a:0013001300000000
#04010:41
#0411b:0000000000130013
#04118:0000001313000000
#04115:00001313
#04112:0000000000130013
#04114:24
#0411a:24
#0421b:0013001300130000
#04218:13001313
#04215:00131313
#04212:0013001300130000
#04219:00000000000000000000001300000000
#04214:00000000000000130000001300000000
#04213:00000000000000000013000000000000
#0421a:00000000000000000013000000000000
#0431b:0013
#04315:00001313
#04318:2400000000130013
#04312:2400000000000013
#04418:1313000000130013
#0441b:0000001313000000
#04412:1300000000000013
#04416:0013
#04415:00000013
#04518:00000000000000130000000000000000
#04515:0000130013000013
#0471b:0000001300001300
#04712:24000013
#04715:0000001300130000
#04717:0000000000000013
#04718:2413
#04812:13130000
#0481b:1300130000000013
#04817:0000001313000000
#04816:0013000000000000
#04819:00000000000000000000001300000000
#04915:0000000000130000
#04918:0013
#04912:0000001300001300
#0491b:0000001300001300
#04916:0000000000000013
#04914:24
#0491a:24
#0501b:13130000
#05017:0013000000000000
#05012:1300130000000013
#05016:0000001313000000
#05014:00000000000000000000001300000000
#05512:2300000000130000
#05514:0000000000000013
#05519:13131313
#0551a:0013000000130000
#05518:0000001300000013
#05510:41
#05614:0000000000130000
#05612:0000000000000013
#05619:13131313
#0561a:0013000000130000
#05618:0000001300000000
#05715:00000013000000000000130000000000
#05712:0000001300000013
#05718:00000000130000000000001300000000
#0571b:2300000013000013
#0591b:2300000000130013
#05918:00000013000013000000000000000000
#05915:00130000
#05912:2313
#01212:13
#01216:0000001313000000
#01217:13
#0121b:0013
#02019:12000000120000000012001200120012
#02015:00001200001200120000000012001200
#0201b:00000000000000120000000000000000
#02013:00000000000000000012000000000000
#03212:0000000000000018
#03216:0013000000001600
#0321b:00000013000000000000000000000000
#03217:13
#0321a:0000000000140000
#03512:13131313
#0351b:13
#03518:0033
#03519:0000003300000000
#0351a:00000033000000000000000000000000
#03612:13130000
#03616:00001313
#03617:00130000
#0361b:00001313
#0581b:1323
#05812:0000001323000000
#05816:13
#05819:00000023
#05814:00000023
#06216:13
#06212:0000001326000000
#06215:00000026
#06315:0013000000001300
#06312:1300000013000013
#0631b:0000001313000000
#06318:2600130000130000
#00216:0012000000001200
#00212:23130000
#00218:0000001200000000
#00213:00000000000000120012000000000000
#0021b:13000000130000000000001200001200
#00612:2300131300130000
#00615:0000000000000013
#00617:0000001313000000
#0061b:13
#0071b:2300131300130000
#00718:0000000000000013
#00716:0000001313000000
#00712:13
#00812:13
#00817:13
#00816:0023
#0081b:0023
#00819:00000023
#00814:00000023
#00912:2300000000130000
#00915:0000000000000013
#00917:2300001313000000
#0091b:00000013000000000000000000000000
#0101b:2300000000130000
#01018:0000000000000013
#01012:13
#01016:0000001313000000
#0111b:13
#01117:0000001313000000
#01112:2300000000130000
#01115:0000000000000013
#02118:0013130000001300
#02115:2300000000130013
#02110:41
#0221b:1300000000130013
#02217:0000001300001300
#02216:1300000000000013
#02212:00000000000000130000000013000000
#02315:0013001300000000
#02318:00000000130000130000000000000000
#02317:0000000000130013
#0231b:0013000000001300
#02312:1300000000130000
#02316:00000013
#02412:00000016000013000000000000000000
#02417:0000001300000000
#0241b:0000000000000013
#02416:22000013
#02418:22000016000000000000000000000000
#02515:0013131300000013
#02518:23000013000000130000000000000000
#02512:2300000000130000
#0251b:00000013
#02612:1300000000000013
#02616:00000013000013000000000000000000
#0261b:0000001300000000
#02617:13000000000000000000001300000000
#02619:0013
#02618:0000000000000013
#0281b:13000013000000000000000000000033
#02816:00130000
#02813:00000000000000000033000000000000
#02814:0000000000330000
#02815:00000000000000000000003300000000
#02819:00000000000000000000000000330000
#0281a:0000000000000033
#02810:41
#04612:13
#04615:0013001313000000
#0461b:0013000000000000
#05112:2413
#05118:24001313
#05115:0000000000130013
#0511b:0000000000000013
#05215:1313000000130000
#05212:0000001313000000
#0521b:1300000000000013
#05217:0013
#05218:00000013
#05216:0000000000000013
#05315:00000000000000130000000000000000
#05318:0013
#05317:00130000
#06016:13
#06012:0000000000130013
#06015:00000013000013000000000000000000
#06018:00130000
#0601b:2313
#06117:13
#0611b:0000000000130013
#06118:00000013000013000000000000000000
#06115:00130000
#06112:2313
#06515:0013001300001300
#06518:0000130000130013
#0651b:23001313
#06512:13131300
#0641b:1300000013000013
#06418:0013000000001300
#06412:2300001313000000
#06415:0000130000130000
#06616:0014001400000000
#06612:23132300
#0661b:13132300
#06618:00000023
#06615:00000023
#0055b:1300000000130000
#00558:0000000000000013
#00556:1353
#03958:44
#03952:44
#0395b:0053
#03957:00000023
#05552:0000000000130000
#05554:0000000000000013
#05559:53535353
#0555a:0023000000230000
#05558:0000002300000023
#05654:0000000000130000
#05652:0000000000000013
#05659:53535353
#0565a:0023000000230000
#05658:0000002300000000
#05755:0000000000130000
#05752:0000000000000013
#0595b:1300000000130013
#05952:1353
#00652:0000000000130000
#00655:0000000000000013
#00657:0063
#0065b:63
#0075b:0000000000130000
#00758:0000000000000013
#00756:0053
#00752:53
#00857:53
#00852:53
#00952:1300000000130000
#00955:0000000000000013
#00957:1363
#0105b:0000000000130000
#01058:0000000000000013
#01052:53
#01056:0053
#0115b:63
#01152:0000000000130000
#01155:0000000000000013
#01157:0063
#01257:53
#01256:0053
#01258:00000013
#01252:00000013
#01457:53
#0145b:00000000000000530000000000000000
#0155b:0000000000630000
#01557:00000023
#01652:53
#01656:0000005300000000
#01855:00000053
#01852:0000000000000023
#01958:53
#0195b:0023000000000000
#02256:63
#02252:00000000000000630000000000000000
#02352:0000000000530000
#02356:00000023
#02457:0000006300000000
#02452:00000026000000000000000000000000
#02458:52000026000000000000000000000000
#02456:52
#03456:53
#03457:0000000000530000
#0355b:53
#04052:53
#04056:00230000
#04154:34
#0415a:34
#04158:0053
#0415b:0000000000230000
#04155:00000063
#04152:0000000000000023
#04258:53002323
#0425b:0023000000230000
#04255:00632323
#04252:0000002300230000
#04259:00000000000000000000005300000000
#04254:00000000000000530000006300000000
#04253:00000000000000000053000000000000
#0425a:00000000000000000053000000000000
#04358:44
#04352:44
#04758:44
#04752:44
#04954:34
#0495a:34
#05158:44
#05152:44
#04458:0000000000000053
#04555:0053
#0465b:0053000000000000
#04655:0053
#05358:0063
#05256:0000000000000063
#0585b:53
#06052:0000000000130013
#0605b:0063
#0615b:0000000000130013
#06152:0053
#06658:00000023
#06655:00000023
#0675b:43
#06752:33
#06358:16
#02657:53
#02656:0000005300000000
#03054:00530000000000000000000000000000
#03052:00000000000000000027000000000000000000000000000000000000000000000000000000000000000000000000000000000000000000000000000000000000
#03059:00000000000000000053000000000000
#03057:00000000000000000000000000000000000000000000000000000000000000000000000000000000002700000000000000000000000000000000000000000000
#02155:13
#0545b:13
#005360:0013
#005320:0000000000000023
#0063b0:13
#006370:00000023000000000000000000000000
#006370:0013
#0063b0:0000000000000023
#007320:13
#007360:00000023000000000000000000000000
#007360:0013
#007320:0000000000000023
#008320:13
#008360:0000002300000000
#008371:13
#0083b1:0000002300000000
#009321:0000132300000000
#009371:0013
#0093b1:0000000000000023
#010321:13
#010361:00000023000000000000000000000000
#0103b1:0000132300000000
#010361:0013
#010321:0000000000000023
#0113b1:13
#011371:00000023000000000000000000000000
#011321:0000132300000000
#011371:0013
#0113b1:0000000000000023
#012371:13
#0123b1:0000002300000000
#012361:0013
#012321:0000000000532300
#012380:0000000000132300
#013380:00000000130000230000000000000000
#013351:00000000000000130000230000000000
#014371:13
#0143b1:00000000002300000000000000000000
#0143b1:00000000000000130000000000000000
#014371:0000000000230000
#0153b1:0000000000130023
#015371:00000053
#016321:13
#016361:00230000
#016361:0000001300000000
#016321:00000000000000000000002300000000
#018361:13230000
#018371:0000001300230000
#018351:00000013
#018321:0000000000000053
#019351:23
#019380:13230000
#0193b0:0053000000000000
#021350:00000000130000230000000000000000
#021381:00000000000000130000230000000000
#022361:13
#022321:00000000002300000000000000000000
#022321:00000000000000130000000000000000
#022361:0000000000230000
#023321:0000000000130023
#023361:00000053
#024381:12000000000000000000005656000000000000000000000000000000000000000000000000000000000000000000000000000000000000000000000000000000
#0243b1:00220000
#024360:12
#024320:00000000000000000000005656000000000000000000000000000000000000000000000000000000000000000000000000000000000000000000000000000000
#024330:00220000
#024370:0000001300000000
#0243b0:00000023
#026370:13
#0263b0:00000023000000000000000000000000
#026360:0000001300000000
#026320:00000000000000000000002300000000
#027370:00000000000000130000230000000000
#028360:13000023000000000000000000000000
#0283b0:00132300
#028321:0013
#028331:00000000000000000033000000000000
#028341:0000000000330000
#028351:00000000000000000000003323000000
#028380:00000013
#028390:00000000000000000000000000330000
#0283a0:0000000000000033
#0283b0:00000000000000000000000000000033
#0293b0:23
#0293b0:00000000000013000000002300000000
#029390:0000000000000000000000000000000033530000330000000000000000000000
#029341:00000000000013000000002300000000
#029361:0000000000000000000000000000000033530000330000000000000000000000
#030341:13530023000000000000000000000000
#030361:000000000000000000000000000000000000000000000000000000000000000000000000000000000000000000000000000000000000000000000000000000000000000000000000000000000000000000000000000000000000000000000000000000000000000000000000000000000000000000000000000000000000000000000000000000000000000000000000000000000000000000000000000000000000000000000000000000000000000000000000000000000000000000000000000000000000000000000000000000000000000000000000000000000000000000000000000000000000000000000000000000000000000000000000000000000000000000000000000000000053000000000000000000000000000000000000000000000000000000000000000000000000000000000000000000000000000000000000000000000000000000000000000000000000000000000000000000000000000000000000000000000000000000000000000000000000000000000000000000000000000000000000000000000000000000000000000000000000000000000000000000000000000000000000000000000000000000000000000000000000000000000000000000000000000000000000000000000000000000000000000000000000000000000000000000000000000000000000000000000000000000000000000000000000000000000000000000000000000000000000000000000000000000000000000000000000000000000000000000000000000000000000000000000000000000000000000000000000000000000000000000000000000000000000000000000000000000000000000000000000000000000000000000000000000000000000000000000000000000000000000000000000000000000000000000000000000000000000000000000000000000000000000000000000000000000000000000000000000000000000000000000000000000000000000000000000000000000000000000000000000000000000000000000000000000000000000000000000000000000000000000000000000000000000000000000000000000000000000000000000000000000000000000000000000000000000000000000000000000000000000000000000000000000000000000000000000000000000000000000000000000000000000000000000000000000000000000000000000000000000000000000000000000000000000000000000000000000000000000000000000000000000000000000000000000000000000000000000000000000000000000000000000000000000000000000000000000000000000000000000000000000000000000000000000000000000000000000000000000000000000000000000000000000000000000000000000000000000000000000000000000000000000000000000000000000000000000000000000000000000000000000000000000000000000000000000000000000000000000000000000000000000000000000000000000000000000000000000000000000000000000000000000000000000000000000000000000000000000000000000000000000000000000000000000000000000000000000000000000000000000000000000000000000000000000000000000000000000000000000000000000000000000000000000000000000000000000000000000000000000000000000000000000000000000000000000000000000000000000000000000000000000000000000000000000000000000000000000000000000000000000000000000000000000000000000000000000000000000000000000000000000000000000000000000000000000000000000000000000000000000000000000000000000000000000000000000000000000000000000000000000000000000000000000000000000000000000000000000000000000000000000000000000000000000000000000000000000000000000000000000000000000000000000000000000000000000000000000000000000000000000000000000000000000000000000000000000000000000000000000000000000000000000000000000000000000000000000000000000000000000000000000000000000000000000000000000000000000000000000000000000000000000000000000000000000000000000000000000000000000000000000000000000000000000000000000000000000000000000000000000000000000000000000000000000000000000000000000000000000000000000000000000000000000000000000000000000000000000000000000000000000000000000000000000000000000000000000000000000000000000000000000000000000000000000000000000000000000000000000000000000000000000000000000000000000000000000000000000000000000000000000000000000000000000000000000000000000000000000000000000000000000000000000000000000000000000000000000000000000000000000000000000000000000000000000000000000000000000000000000000000000000000000000000000000000000000000000000000000000000
#030321:00000000000000000057000000000000000000000000000000000000000000000000000000000000000000000000000000000000000000000000000000000000
#030391:00000000000000001353002300000000
#0303b1:000000000000000000000000000000000000000000000000000000000000000000000000000000000000000000000000000000000000000000000000000000000000000000000000000000000000000000000000000000000000000000000000000000000000000000000000000000000000000000000000000000000000000000000000000000000000000000000000000000000000000000000000000000000000000000000000000000000000000000000000000000000000000000000000000000000000000000000000000000000000000000000000000000000000000000000000000000000000000000000000000000000000000000000000000000000000000000000000000000000000000000000000000000000000000000000000000000000000000000000000000000000000000000000000000000000000000000000000000000000000000000000000000000000000000000000000000000000000000000000000000000000000000000000000000000000000000000000000000000000000000000000000000000000000000000000000000000000000000000000000000000000000000000000000000000000000000000000000000000000000000000000000000000000000000000000000000000000000000000000000000000000000000000000000000000000000000000000000000000000000000000000000000000000000000000000000000000000000000000000000000000000000000000000000000000000000000000000000000000000000000000000000000000000000000000000000000000000000000000000000000000000000000000000000000000000000000000000000000000000000000000000000000000000000000000000000000000000000000000000000000000000000000000000000000000000000000000000000000000000000000000000000000000000000000000000000000000000000000000000000000000000000000000000000000000000000000000000000000000000000000000000000000000000000000000000000000000000000000000000000000000000000000000000000000000000000000000000000000000000000000000000000000000000000000000000000000000000000000000000000000000000000000000000000000000000000000000000000000000000000000000000000000000000000000000000000000000000000000000000000000000000000000000000000000000000000000000000000000000000000000000000000000000000000000000000000000000000000000000000000000000000000000000000000000000000000000000000000000000000000000000000000000000000000000000000000000000000000000000000000000000000000000000000000000000000000000000000000000000000000000000000000000000000000000000000000000000000000000000000000000000000000000000000000000000000000000000000000000000000000000000000000000000000000000000000000000000000000000000000000000000000000000000000000000000000000000000000000000000000000000000000000000000000000000000000000000000000000000000000000000000000000000000000000000000000000000000000000000000000053000000000000000000000000000000000000000000000000000000000000000000000000000000000000000000000000000000000000000000000000000000000000000000000000000000000000000000000000000000000000000000000000000000000000000000000000000000000000000000000000000000000000000000000000000000000000000000000000000000000000000000000000000000000000000000000000000000000000000000000000000000000000000000000000000000000000000000000000000000000000000000000000000000000000000000000000000000000000000000000000000000000000000000000000000000000000000000000000000000000000000000000000000000000000000000000000000000000000000000000000000000000000000000000000000000000000000000000000000000000000000000000000000000000000000000000000000000000000000000000000000000000000000000000000000000000000000000000000000000000000000000000000000000000000000000000000000000000000000000000000000000000000000000000000000000000000000000000000000000000000000000000000000000000000000000000000000000000000000000000000000000000000000000000000000000000000000000000000000000000000000000000000000000000000000000000000000000000000000000000000000000000000000000000000000000000000000000000000000000000000000000000000000000000000000000000000000000000000000000000000000000000000000000000000000000000000000000000000000000000000000000000000000000000000000000000000000000000000000000000000000000000000000000000000000000000000000000000000000000000000
#030371:00000000000000000000000000000000000000000000000000000000000000000000000000000000005700000000000000000000000000000000000000000000
#031321:0000000000000000000000001454545454545454545454542400000000000000
#031331:00000000000000000000000000000000000000000000000000540054005400540054005400540054005400540054005400000000000000000000000000000000
#031390:0000000000000000000000001454545454545454545454542400000000000000
#0313a0:00000000000000000000000000000000000000000000000000540054005400540054005400540054005400540054005400000000000000000000000000000000
#0323a0:0000000000000000000000001454545424000000000000000000000000000000
#032390:00000000000000000000000000000000000000000000000000540054005400540000000000000000000000000000000000000000000000000000000000000000
#032331:0000000000000000000000001454545424000000000000000000000000000000
#032321:00000000000000000000000000000000000000000000000000540054005400540000000000000000000000000000000000000000000000000000000000000000
#034361:13
#034321:0000002300000000
#034371:0000000000130000
#0343b1:0000000000000023
#0353b1:13
#0353a1:00000033000000000000000000000000
#035391:0000003300000000
#035381:0033
#036371:23
#0393b1:0013
#039371:00000053
#0403b1:23
#040320:1323
#040360:00530000
#040371:0013
#040391:00000000000000000000002300000000
#040340:00000000000000000000001300000000
#040360:0000000000000023
#041380:00001323
#0413b0:0000000000530000
#041351:00000013
#041321:0000000000000053
#042351:23
#042380:13230000
#0423b0:0053000000000000
#042351:00135353
#042321:0000005300530023
#042341:00000000000000530000005300000000
#042331:00000000000000000053000000000000
#042380:00001353
#0423a0:00000000000000000053000000000000
#0423b0:0000000000530023
#042390:00000000000000000000005300000000
#044320:0013000000000000
#044360:0000002300000000
#044380:0000000000000013
#0453b0:00230000
#045350:0013
#045320:00000023
#045381:00000013
#0453b1:0000000000000033
#046381:33000023
#0463b1:0033000000000000
#046350:0013
#046320:00000023
#048320:0013
#048360:0000000000000023
#0503b0:0013
#050370:0000000000000023
#0523b0:0013000000000000
#052370:0000002300000000
#052360:0000000000000013
#053320:00230000
#053380:0013
#0543b0:23
#055390:13535353
#0553a0:0053000000530000
#055380:0000005300000053
#056390:53535353
#0563a0:0053000000530000
#056380:0000005300000023
#0583b0:13
#058370:0000002300000000
#059320:0013
#059360:0000000000000023
#0603b0:0013
#060370:0000000000000023
#061320:0013
#061360:0000000000000023
#0623b0:13
#062370:0000002300000000
#066380:00000013
#0673b0:23
#066351:00000013
#067321:23
