This file was generated by Ched 2.6.2.0.
#TITLE ""
#ARTIST ""
#DESIGNER ""
#DIFFICULTY 0
#PLAYLEVEL
#SONGID ""
#WAVE ""
#WAVEOFFSET 0
#JACKET ""
#REQUEST "ticks_per_beat 480"
#00002: 4
#BPM01: 138
#00008: 01
#TIL00: ""
#HISPEED 00
#MEASUREHS 00
#00115:00001300000000000000001300001300
#00118:00000000130000130013000000000000
#00112:1300001300000000
#0011b:23000013
#0031b:2313
#00318:0000130000130013
#00312:1323
#00315:0013001300001300
#01318:0013000000001300
#01315:0000130000130013
#0131b:00000000000000130000000000000000
#01310:41
#01518:00000000130000130000000013000000
#01515:0000001300130013
#01512:0013000000001300
#0151b:0000000000130013
#0171b:0013000000000000
#01715:00000000130000130000000000000000
#01718:0000001300130013
#01712:00000013
#01918:0013
#0191b:00000000000000000000001300000000
#01912:1313
#01915:00000000000000000000001300000000
#02712:0000000000000013
#02718:0000001300001300
#0271b:0013000000000000
#02715:00130000
#02918:00000013000013000000130000001300
#02915:00001300000000000000001300000013
#0291b:13
#02912:0013
#0291f:11
#03018:1300000000000013
#03012:00000013000000000000001300000000
#03015:0013
#0301b:00000013000000000000001300000000
#03115:13000013000000000000000000001300
#0311b:0013000000000000
#03318:0013001300000013
#03315:00000000130000130000000013000000
#03312:0000000000130000
#0341b:1300000000000013
#03415:00000000000000130000000000001300
#03412:0000000000130000
#03418:0000000000130000
#03912:0000001300000000
#03918:2600001300130000
#03915:0013
#0391b:0000000000001313
#0391f:21
#0431b:0013
#04315:0000000000130000
#04318:26000013
#04312:0000000000000013
#04418:13000013
#0441b:0013
#04412:0000000000130013
#04518:00000000000000130000000000001300
#04515:0013
#04815:0013000000000000
#0481b:13
#04812:0000001314000000
#04818:00130000
#04816:00000000000000000000001400000000
#0481a:0000000000000014
#04915:0000000000130000
#04918:0013
#04912:26000013
#04916:0000000000000014
#0491b:0000001300000000
#05018:14
#0501a:0014000014000000
#05016:00000000140000000000001400000000
#05012:0000000014000014
#05014:0000001400000000
#03219:0000000000001415
#03212:1400000000000015
#03218:0014000000000000
#03213:00000014
#03216:0000000000140000
#05718:00000013000013000000130000000000
#05715:00000000130000000000001300000000
#05712:0013
#0571b:0000000000000013
#05815:13
#05813:00000024
#05814:0024
#0581a:0024
#05819:00000024
#05918:24000013000013000000000000000000
#05915:00131300
#05912:24
#06318:00000000130000130000001300001300
#06315:0000001300001300
#06312:00000000000000000013000000000000
#0631a:24
#06314:24
#01218:13
#01215:0013
#0141b:13
#01418:00000000000000130000000000000000
#01612:13
#01618:0000001300000000
#01615:0000000000000013
#0161b:00000000000000000000003300000000
#01815:00000013
#02115:00001300000000130000000000000000
#02118:2300130000130013
#02112:23000013
#02110:41
#02315:00000000130000130000000013000000
#02318:0000001300130013
#0231b:0013000000001300
#02312:0000000000130013
#02515:00001300130000130000000000001300
#0251b:0000001300000000
#02518:00000013000000000000130000000000
#02512:00000013
#04615:13
#04618:0013000000000000
#05315:00000000000000130000000000000000
#05318:0013
#06015:00000013000013000000000000000000
#06018:00131300
#0601b:23
#06118:00000013000013000000130000000000
#06115:00000000130000000000001300000000
#06112:2313
#0611b:0000000000000013
#0641b:13
#06418:0013001300001300
#06415:0000130000130013
#06412:2313
#06615:0013001300000000
#0661b:13
#06618:00130000
#0661a:0024
#06612:2324
#06613:00000024
#06619:00000024
#0021b:1300001300000000
#00218:00001300000000000000001300001300
#00215:00000000130000130013000000000000
#00212:23000013
#00412:13000013000013000000000000000000
#0041b:13000013000013000000000000000000
#00415:00000023
#00418:0023
#00515:00131300
#00518:00000013000013000000000000000000
#00512:23
#0051b:23
#00510:41
#00715:00000000130000001300001300000000
#00718:00000013000013000000000000001300
#0071b:0000000000130000
#00712:2600000000000013
#00618:26131300
#00615:00000013000013000000000000000000
#00818:13000023
#00812:13
#00815:0023
#00915:00130000
#00918:00000013000013000000000000000000
#00912:2313
#0091b:23
#01018:26130000
#01015:00000013000013000000000000000000
#0101b:0013
#01115:00000000130000000000001300000000
#01118:00000013000013000000130000000000
#01112:2613
#02018:1313
#02019:0013001300130013
#0201a:00130013
#02012:1313
#02013:0013001300130013
#02014:00130013
#02212:13
#02215:00000000000000130000000000000000
#0241b:13
#02415:0000001300000000
#02418:0000000000000013
#02818:13000013
#02815:00000013000000000000000000001300
#02812:0000000000130000
#02810:41
#0351b:13
#03515:13
#0351a:00000013000000000000000000000000
#03519:0000001300000000
#03514:00000013000000000000000000000000
#03513:0000001300000000
#03618:00140014
#03614:0014
#03712:14140000
#03718:0014001400000000
#03714:00001414
#0371a:0000000000140014
#03812:14
#03818:0014000000000000
#03814:00140000
#0381a:0000001400000000
#04018:13000000130013000000003300000000
#04015:0013000000000000
#04012:00000000130013000000003300000000
#04010:41
#04218:13131313
#0421a:0000001300130000
#04219:00000000001300130013001300130000
#04212:00131313
#04214:0000001300130000
#04213:00000000001300130013001300130000
#0421b:0013000000000000
#05112:0013
#05118:2600000000130000
#05115:00000013
#0511b:0000000000000013
#05215:13000013
#05212:0013
#0521b:0000000000130013
#05513:14141414
#05512:0014000000140000
#05514:0000001400000014
#05510:41
#05613:14141414
#05612:0014000000140000
#05614:0000001400000014
#06512:13
#06515:0013001300001300
#06518:0000130000130013
#0651b:2313
#0411b:0000001300000000
#04118:0013
#04115:0000000000130013
#04112:26000013
#0261b:0013
#02615:0000000013000013
#02612:13
#02618:1300001300000000
#06215:13
#06219:00000024
#06218:0024
#06212:0024
#06213:00000024
#04718:2600000000130000
#04715:0013
#0471b:00000013
#04712:0000001300000013
#06712:24
#0671a:24
#01258:53
#01255:0053
#01252:00000013
#0145b:53
#01458:00000000000000530000000000000000
#01652:53
#01658:0000005300000000
#01855:00000053
#04555:0053
#05358:0063
#05855:53
#05955:0063
#05952:14
#05958:14
#06058:0053
#00858:53
#00852:53
#00555:0053
#00552:13
#0055b:13
#00658:0063
#00952:1353
#0095b:13
#0105b:0063
#01155:00000000000000000000005300000000
#01952:53
#02058:2323
#0205a:00230023
#02059:0053005300530053
#02052:2323
#02053:0053005300530053
#02054:00230023
#02252:63
#02255:00000000000000630000000000000000
#0245b:63
#02455:0000006300000000
#0345b:53
#03958:16
#04152:16
#04452:0000000000000053
#04658:0053000000000000
#04758:16
#04952:16
#05158:16
#0525b:0000000000000063
#0675a:14
#06752:14
#05553:54545454
#05552:0024000000240000
#05554:0000002400000024
#05653:54545454
#05652:0024000000240000
#05654:0000002400000024
#04358:16
#04258:00232323
#0425a:0000002300230000
#04259:00000000005300530053005300530000
#04252:00232323
#04254:0000002300230000
#04253:00000000005300530053005300530000
#0635a:14
#06354:14
#0385a:0000005400000000
#02652:53
#02658:53
#0265b:0053
#02655:0053
#06255:63
#02152:13
#02158:13
#0545b:13
#005350:0013
#005320:0000000000000023
#006380:0013
#0063b0:0000000000000023
#008380:13
#0083b0:0000002300000000
#008321:13
#008351:0000002300000000
#009321:0013
#009351:0000000000000023
#0103b1:0013
#010381:0000000000000023
#011351:00000000000000000000001300000000
#011321:0000000000000023
#012381:13
#0123b1:0000002300000000
#012351:0013
#012321:00000023
#0143b1:13000023
#014381:00000000000033330000000000000000
#016321:13
#016351:00230000
#016381:0000001300000000
#0163b1:00000000000000000000003323000000
#018351:13230000
#018381:0000001300230000
#018351:00000013
#019321:33
#019351:00230000
#019381:0000000000000013
#020381:3353
#020391:0053005300530053
#0203a1:00530053
#021381:23
#019320:0000000000000013
#020320:3353
#020330:0053005300530053
#020340:00530053
#021320:23
#022320:13000023
#022350:00000000000033330000000000000000
#0243b0:13
#024380:00230000
#024350:0000001300000000
#024320:00000023
#026320:13
#026350:00000023000000000000000000000000
#026381:13
#0263b1:00000023000000000000000000000000
#026351:0013
#026321:00000000000000000000002300000000
#0263b0:0013
#026380:00000000000000000000002300000000
#027350:00000000000000130000230000000000
#028380:00132300
#031380:0000000000000000000000001454545454545454545454542400000000000000
#031370:00000000000000000000000000000000000000000000000000540054005400540054005400540054005400540054005400000000000000000000000000000000
#032320:0000000000001454545454542400000000000000000000000000000000000000
#032330:00000000000000000000000000540054005400540054005400000000000000000000000000000000000000000000000000000000000000000000000000000000
#0343b0:13
#034380:0000002300000000
#035320:0013
#036320:23
#035381:0013
#036381:23
#0383a1:0000001400000000
#038371:0000000000342400
#040321:00000000000000001300003300000000
#040351:0000000000000023
#040380:00000000000000001300003300000000
#0403b0:0000000000000023
#042380:00135353
#042390:00000000005300530053005300530000
#0423a0:0000005300530023
#042321:00135353
#042331:00000000005300530053005300530000
#042341:0000005300530023
#044351:0013002300000000
#044321:0000000000000013
#045351:00230000
#045351:0013
#045321:00000023
#046381:0013000000000000
#0463b1:00000023
#052381:0013002300000000
#0523b1:0000000000000013
#053381:00230000
#053381:0013
#0543b1:23
#055331:14545454
#055321:0054000000540000
#055341:0000005400000054
#056331:54545454
#056321:0054000000540000
#056341:0000005400000054
#057331:24
#058351:13
#058321:0000002300000000
#059351:0013
#059321:0000000000000023
#060381:0013
#0603b1:0000000000000023
#062351:13
#062321:0000002300000000
