This file was generated by Ched 2.6.2.0.
#TITLE ""
#ARTIST ""
#DESIGNER ""
#DIFFICULTY 0
#PLAYLEVEL
#SONGID ""
#WAVE ""
#WAVEOFFSET 0
#JACKET ""
#REQUEST "ticks_per_beat 480"
#00002: 4
#BPM01: 138
#00008: 01
#TIL00: ""
#HISPEED 00
#MEASUREHS 00
#00118:00001200000000000000001212000000
#0011b:00000000000000120000000000000000
#00119:00000000000000000012000000000000
#00113:00000012
#00115:0000000000000012
#00112:12
#00114:00120000
#00116:00000000000012120000000000000000
#0011c:22
#00319:0012000015000012
#00313:00120000
#00315:0000001200120000
#00317:00120012
#00312:1425
#0031b:00000012
#0031a:24
#00517:0000000000130000
#0051b:0000000000000013
#00512:0000001300000000
#00518:00000013000000130000000000000000
#00515:00000000130000000000001200000000
#0051a:00000012
#00516:0000000000000013
#00510:41
#01218:0000000000130013
#0121b:00000013
#01215:00000000000000000000000000130013
#01217:0000001300000000
#01216:1313
#01314:00001300000000000000000000130000
#0131b:2300130000130000
#01316:00000000130000000000001300000000
#01319:00000013
#01317:00000000000000130000000000001300
#01312:23000000000000000000000000000013
#01310:41
#01415:1300001300000000
#01412:00001300000000130000130000001300
#0141b:1300000000000000000000000000000000000013000000000000000000000000
#01417:00000000000000130000000000000000
#01419:0000000000000013
#01414:00000013
#01416:00000013000000000000000000000000
#01517:00000000000013130000130000001300
#01512:00000000000013130000000013000000
#01516:13
#0151b:13
#01719:0013000000000013
#01716:24000000130000130000130000000000
#01712:00000000000013130000000013000000
#01717:00000013
#0171b:00130000
#0181b:13130000
#01812:0000001300131300
#01817:00001313
#01819:0000000000000013
#01816:0013000000000013
#01917:0013000000000013
#01916:00000000130000001300001313000000
#01912:0013
#0191b:13
#01914:0013000000000000
#01915:0000001600000000
#03119:00000013000000000000000000000000
#0311b:00001300000000000000000000000013
#03116:0000000000000013
#03117:13
#03312:2413000000000013
#0331b:0000001300000013
#03319:00000014
#03316:00000000000000130000001400000000
#03313:0000000000140000
#0331a:24
#0431b:0013000013001300
#04316:0014140000000000
#04312:2c130000
#04317:0000000000130013
#0441b:13001313
#04417:0013001300000000
#04416:1300130013000013
#04415:0000000000130000
#04412:0013000000001313
#04418:00000000000000000000001300000000
#04512:00000000000000131300000000000000
#04516:0013
#04517:0000000000000013
#04712:2613001313000013
#04715:00000000000000140000000013000014
#04718:2613
#0471b:0000130000131300
#04716:0013000000000000
#04717:00000000130000000000001400000000
#02019:12
#02015:00000000000000120000000000000000
#02018:00000000000000000012000000000000
#03412:13000013
#0341b:13000000000000130000130000000000
#03416:0000000000000013000000000000000000000000130000000000000000000000
#03417:00000013000000000000000013000000
#03516:1412140014001400
#03517:0000001200000000
#03518:0000000000120000
#0351b:00130013
#03512:1313
#0021b:13000012
#00216:00000000000000000000001212000000
#00218:00000000000012120000000000000000
#0021a:00120000
#00219:0000000000000012
#00215:00000000000000000012000000000000
#00213:00000000000000120000000000000000
#00217:0012000000000000
#00212:23
#02419:0000000000000012
#02412:00000000000000000000000000000000000000000000000000000000000000000000000000000000000000000000000000000000000000000000000000000000000000000000000000000000000000000000000000000000000000000000000000000000000000000000000000000016000000000000000000000000000000000000000000000000000000000000000000000000000000000000000000000000000000000000000000000000000000000000000000000000000000000000000000000000000000000000000000000000000000000000000000000000000000000000000000000000000000000000000000000000000000000000000000000000000000000000000000000000000000000000000000000000000000000000000000000000000000000000000000000000000000000000000000000000000000000000000000000000000000000000000000000000000000000000000000000000000000000000000000000000000000000000000000000000000000000000000000000000000000000000000000000000000000000000000000000000000000000000000000000000000000000000000000000000000000000000000000000000000000000000000000000000000000000000000000000000000000000000000000000000000000000000000000000000000000000000000000000000000000000000000000000000000000000000000000000000000000000000000000000000000000000000000000000000000000000000000000000000000000000000000000000000000000000000000000000000000000000000000000000000000000000000000000000000000000000000000000000000000000000000000000000000
#02418:22000000000000000000000000000000000000000000000000000000000000000000000000000000000000000000000000000000000000000000000000000000000000000000000000000000000000000000000000000000000000000000000000000000000000000000000000000016000000000000000000000000000000000000000000000000000000000000000000000000000000000000000000000000000000000000000000000000000000000000000000000000000000000000000000000000000000000000000000000000000000000000000000000000000000000000000000000000000000000000000000000000000000000000000000000000000000000000000000000000000000000000000000000000000000000000000000000000000000000000000000000000000000000000000000000000000000000000000000000000000000000000000000000000000000000000000000000000000000000000000000000000000000000000000000000000000000000000000000000000000000000000000000000000000000000000000000000000000000000000000000000000000000000000000000000000000000000000000000000000000000000000000000000000000000000000000000000000000000000000000000000000000000000000000000000000000000000000000000000000000000000000000000000000000000000000000000000000000000000000000000000000000000000000000000000000000000000000000000000000000000000000000000000000000000000000000000000000000000000000000000000000000000000000000000000000000000000000000000000000000000000000000000000000
#02415:0000000000000012
#02416:22
#02417:0000002200000000
#0281b:13130000
#02812:0000001300000000000000000000000012000000000000000000000000000000
#02814:00000000000000000012000012000000
#02816:00000000000000000000120000120000
#02818:0000001300000000000000000000000000000000000012000000000012000000
#0281a:00000000000000000000000012000012
#02815:13
#02810:41
#0411a:0014
#04115:0000000000140000
#04119:0000001300000000
#04114:0000001300000000
#04116:0014140014000000
#04112:2c13000000131400
#0411b:0000130000000013
#04117:0000000000000014
#04619:13
#04618:0012000000000000
#0461b:0000003200000000
#05117:00130000
#05112:2613000013001300
#0511b:00130000
#05116:0013000000130013
#05118:26
#02912:0016000000000013
#02915:00000016000000000000001600000000
#02918:0000000000160000
#0291b:00000000000000000000000000000013
#0291f:11
#0291c:22
#02916:22
#03216:1300000000140000
#03214:00000013000000000000000018000000
#03212:001300000000001c
#04219:0000001300000000
#04212:000000000000000013000000000000000000000000000000000000000000000000000000000000000000000000000000001c0000000000000000000000000000
#04214:0000001300000000
#0421a:14
#04215:0014000000000000
#04216:00140000
#04812:1300000000000000000000001300000013000000000000000013000000000000
#04815:00000000130000140000000000000000
#04818:13000000000000000000000033330000
#0481b:0000000013000000130000000000000000000013000000000000000000000000
#04817:0000000000001400000000000000000013000000000000000013000000000000
#04819:00000000000000000000001300000000
#04814:00000000000000000000001300000000
#04813:00000000000000000000000033330000
#0481a:00000000000000000033330000000000
#0491b:0013001313000013
#04916:00130000
#04912:2600130000131300
#04917:00001300000000140000000000000014
#04915:00000000000000001300001400000000
#04918:26000013
#05417:12
#05512:0000001300001300
#05518:00000013000000000000000000000000
#05516:0000000013140014
#05515:00130000
#0551b:00130000
#05514:00000000000000000000001300000000
#0551a:00000000000000130000000000000000
#05517:23
#05510:41
#06319:0012000000000000
#06316:00000000000000120000000000001200
#06314:00000000120000000000001200000000
#06312:00000000000000000012000000000000
#06318:00000012
#0631a:0000001200000000
#0631c:00000000000000000012000000000000
#0631b:23
#06612:1400001300001300
#06617:000000000000000000000000000000000000000000000000000000000000000000000000000000000000000000000000000000000000000000000000000000000000000000000000000000000000000000000000000000000000000000000000000000000000000000000000000000000000000000000000000000000000000000000000000000000000000000000000000000000000000000000000000000000000000000000000000000000000000000000000000000000000000000000000000000000000000000000000000000000000000000000000000000000000000000000000000000000000000000000000000000000000000000000000000000000000000000000000000000000000000000000000000000000000000000000000000000000000000000000000000000000000000000000000000000000000000000000000000000000000000000000000000000000000000000000000000000000000000000000000000000000000000000000000000000000000000000000000000000000000000000000000000000000000000000000000000000000000000000000000000000000000000000000000000000000000000000000000000000000000000000000000000000000000000000000000000000000000000000000000000000000000000000000000000000000000000000000000000000000000000000000000000000000000000000000000000000000000000000000000000000000000000000000000000000000000000000000000000000000000000000000000000000000000000000000000000000000000000000000000000000000000000000000000000000000000000000000000000000000000000000000000000000000000000000000000000000000000000000000000000000000000000000000000000000000000000000000000000000000000000000000000000000000000000000000000000000000000000000000000000000000000000000000000000000000000000000000000000000000000000000000000000000000000000000000000000000000000000000000000000000000000000000000000000000000000000000000000000000000000000000000000000000000000000000000000000000000000000000000000000000000000000000000000000000000000000000000000000000000000000000000000000000000000000000000000000000000000000000000000000000000000000000000000000000000000000000000000000000000000000000000000000000000000000000000000000000000000000000000000000000000000000000000000000000000000000000000000000000000000000000000000000000000000000000000000000000000000000000000000000000000000000000000000000000000000000000000000000000000000000000000000000000000000000000000000000000000000000000000000000000000000000000000000000000000000000000000000000000000000000000000000000000000000000000000000000000000000000000000000000000000000000000000000000000000000000000000000000000000000000000000000000000000000000000000000000000000000000000000000000000000000000000000000000000000000000000000000000000000000000000000000000000000000000000000000000000000000000000000000000000000000000000000000000000000000000000000000000000000000000000000000000000000000000000000000000000000000000000000000000000000000000000000000000000000000000000000000000000000000000000000000000000000000000000000000000000000000000000000000000000000000000000000000000000000000000000000000000000000000000000000000000000000000000000000000000000000000000000000000000000000000000000000000000000000000000000000000000000000000000000000000000000000000000000000000000000000000000000000000000000000000000000000000000000000000000000000000000000000000000000000000000000000000000000000000000000000000000000000000000000000000000000000000000000000000000000000000000000000000000000000000000000000000000000000000000000000000000000000000000000000000000000000000000000000000000000000000000000000000000000000000000000000000000000000000000000000000000000000000001300000000000000000000000000000000000000000000000000000000000000000000000000000000000000000000000000000000000000000000000000000000000000000000000000000000000000000000000000000000000000000000000000000000000000000000000000000000000000000000000000000000000000000000000000000000000000000000000000000000000000000000000000000000000000000000000000000000000000000000000000000000000000000000000000000000000000000000000000000000000000000000000000000000000000000000000000000000000000000000
#0661b:00000000000000130000000013000000
#06616:0000000000000013
#06615:0013000023000000
#06618:26132300
#03712:1200000000120000
#03716:0012000012000000
#0371c:0000120000000012
#03718:0000001200001200
#03812:12121200
#0381a:00120000000000000000000000000000
#03815:0012000000000000
#03818:00000012000000000000000000000000
#03819:0000001200131300
#03816:00000000000000120000000000000000
#0381c:12121200
#03814:00000000001200000000130013000000
#02712:13000000000013130000000000001300
#0271b:1300000000000000130000000000000000130000000000001300000000000000
#02717:0013000000000013
#02716:00130013
#02718:00000000000000130000000000000000
#02715:0000000000000000000000000000000000130000000000000000000000000000
#03916:0014140000000000
#0391b:0013000000000000
#03912:2c130000
#03917:0000000000000000000000002300131600000000000000000000000000001315
#03914:0000002300000023
#03919:0000000000000023
#0391f:21
#0521b:0013000000001313
#05212:13001313
#05216:0013001300000000
#05217:1300130013000013
#05218:0000000000130000
#05215:00000000000000000000001300000000
#00812:13000013
#00817:23000013000013000000000013000000
#0081b:0013130023000013
#00816:0033000023000013
#00814:00000000003300000000000000000000
#00815:00330000330000000000000000000000
#00915:00000000000000130000140000000000
#00917:0000001300000014
#00912:00000013000000001300000000001300
#0091b:00130013
#00914:00000013
#00919:00000000000000000000001300000000
#03616:1400140014121400
#03618:0012000000000000
#03617:0000001200000000
#03612:00130013
#0361b:1313
#05712:0000001300001300
#05717:23000000000000130000000000000000
#05718:00000013000000000000000000130000
#05715:0000130000000013
#0571b:00000000130000000000001300001300
#05714:0013
#05719:00000000000000000013000000000000
#05716:0000000000130000
#00412:0000001523000013
#00417:0000000023000013
#00416:00000013
#0041b:00000013
#00415:12
#00419:12000013000015000000000000000000
#00414:00000013000000000000000000000000
#00612:1300000000000013
#00616:0000000000130000
#0061b:0000001300000000
#00615:00000013000000130000000000000000
#00618:00130000
#00614:00000012
#00619:00000000000000000000001200000000
#00617:2300000000000013
#0071b:1300000000000013
#00717:0000000000130000
#00712:0000001300000000
#00718:00000013000000130000000000000000
#00715:00000000130000000000001200000000
#0071a:00000012
#00716:2300000000000013
#01016:1300001300000000
#01017:0000000000140000
#0101b:23000013000000001300000000001300
#01012:00130013
#01019:00000013
#01014:00000000000000000000001300000000
#01018:00000000000000130000000000000000
#01015:0000000000000014
#01117:1300001300000014
#01115:00000000000000130000140000000000
#01112:23000013000000001300000000001300
#0111b:00130013
#01114:00000013
#01119:00000000000000000000001300000000
#02119:00001300000000000000000000130000
#02112:2200130000130000
#02117:00000000130000000000001300000000
#02114:00000013
#02116:00000000000000130000000000001300
#0211b:00000000000000000000000000000013
#0211c:22
#02110:41
#02218:1300001300000000
#0221b:00001300000000130000130000001300
#02212:1300000000000000000000000000000000000013000000000000000000000000
#02216:00000000000000130000000000000000
#02214:0000000000000013
#02219:00000013
#02217:00000013000000000000000000000000
#02316:00000000000013130000130000001300
#0231b:00000000000013130000000013000000
#02317:13
#02312:13
#02515:0013000000000000
#02512:00130000
#0251b:00000000130000130000000013000000
#02517:00000000000000130000130000000000
#02514:0000000000000013
#02516:24000013
#02518:00000013000000000000000000000000
#02612:1300131300000000
#02617:00000000000013000000001300000000
#02616:00000013000000000000000000001300
#0261b:00001313
#0301b:0000001300000000000000001300000000000000000000000013000000000000
#03015:1313
#03012:0000000000000000001300000000000000000013000000000000000000000000
#03019:00000000000000000000001300000000
#03018:1313
#03014:00000013000000000000000000000000
#04012:000000000000000000000000000000000033130000000000
#04016:0000000000130000
#04017:000000000000000000000000000000000033130000000000
#0401b:0000000000130000
#04015:0000002300000000
#04018:000000000000000000230000000000000000003300000000
#04014:000000003333
#04013:000000000000000000000000000000000000003300000000
#04019:000000003333
#04010:41
#0501b:1300000000000000000000001300000013000000000000000013000000000000
#05017:00000000000000140000000000000000
#05015:13000014000000000000000033330000
#05012:0000000013000000130000000000000000000013000000000000000000000000
#05018:00130000
#05016:0000000000000000000000000000000013000000000000000013000000000000
#05014:00000000000000000000001300000000
#05019:00000000000000000000001300000000
#0501a:00000000000000000000000033330000
#05013:00000000000000000033330000000000
#0531b:00000000000000131300000000000000
#05317:0013
#05316:00000013
#0561b:0000001300001300
#05615:00000013000000000000000000000000
#05616:2300000000140014
#05618:00130000
#05612:00130000
#05619:00000000000000000000001300000000
#05613:00000000000000130000000000000000
#05617:0013
#05812:0000001200002300
#05814:0000000000130000
#05816:1200000023000013
#0581b:00000000000000001300000000001333
#05817:00000000000000000000003313000000
#05819:00000000000000000033000000000000
#05818:00000000000000000000000000330000
#0591b:0013001300001300
#05915:00000013000000000000000000000000
#05916:0000000000140014
#05912:23131300
#05918:00130000
#05919:00000000000000000000001300000000
#05914:00000000000000130000000000000000
#05917:0013
#0611b:2313001300001300
#06116:13000000000000130000000000000000
#06115:00000013000000000000000000130000
#06118:0000130000000013
#06112:00000000130000000000001300001300
#06119:0013
#06114:00000000000000000013000000000000
#06117:0000000000130000
#06012:2313001300001300
#06018:00000013000000000000000000000000
#06016:0000000013140014
#0601b:00131300
#06015:00130000
#06014:00000000000000000000001300000000
#06019:00000000000000130000000000000000
#06017:13
#0621c:0000001200000000
#06218:12
#06219:0000000000130000
#06217:0000000023000013
#06212:00000000000000001300000000001333
#06216:00000000000000000000003313000000
#0621b:00000023
#06214:00000000000000000033000000000000
#06215:00000000000000000000000000330000
#06412:1400001200000000
#06416:0012000000000000
#06417:00000000000000120000000012000000
#0641c:00000000000000000000001200000000
#06418:2600120000000012
#06419:00000000000000000012000000000000
#06415:00000000000000000012000000000000
#0651a:14
#06518:00001200000000000000001200000000
#0651c:00000000000000120000000000000000
#06516:0000001200000012
#06515:00000000000000000012000000000000
#06512:26120012
#06519:00000000000000000012000000000000
#0161c:12
#01612:00140000000000000000001400001400
#0161a:0012000000120000
#01614:00000014000000000014000000000000
#01619:00121200
#01616:00000000001400140000000000000000
#01618:0000001200000000
#0145b:5300000000000000000000000000000000000023000000000000000000000000
#01457:00000000000000530000000000000000
#01456:00000053000000000000000000000000
#03452:53000023
#0345b:6300000000630000
#03456:0000000000000023000000000000000000000000530000000000000000000000
#03457:00000023000000000000000023000000
#03952:4c
#03957:0000000000000000000000000000632600000000000000000000000000006325
#04152:3c00000000336400
#0415a:00005444
#04155:0000000000240000
#04157:0000000000000024
#04156:0034
#0415b:0000000000000043
#04352:4c
#04752:3633
#04758:36
#04952:36
#04958:36
#0495b:0043
#04456:0000230033000053
#0445b:43
#04457:0043000000000000
#04452:0053003300000053
#04556:0063
#06752:33
#0675b:43
#01258:0000000000430000
#0125b:00000043
#04252:340000000000000033000000000000000000000000000000000000000000000000000000000000000000000000000000005c0000000000000000000000000000
#04257:0000000000000012
#0425a:54440000
#04255:0024000000000000
#04256:00340000
#05158:46
#05152:46
#05457:12
#05556:0000000053440034
#0555b:00230000
#06652:00000053
#06657:000000000000000000000000000000000000000000000000000000000000000000000000000000000000000000000000000000000000000000000000000000000000000000000000000000000000000000000000000000000000000000000000000000000000000000000000000000000000000000000000000000000000000000000000000000000000000000000000000000000000000000000000000000000000000000000000000000000000000000000000000000000000000000000000000000000000000000000000000000000000000000000000000000000000000000000000000000000000000000000000000000000000000000000000000000000000000000000000000000000000000000000000000000000000000000000000000000000000000000000000000000000000000000000000000000000000000000000000000000000000000000000000000000000000000000000000000000000000000000000000000000000000000000000000000000000000000000000000000000000000000000000000000000000000000000000000000000000000000000000000000000000000000000000000000000000000000000000000000000000000000000000000000000000000000000000000000000000000000000000000000000000000000000000000000000000000000000000000000000000000000000000000000000000000000000000000000000000000000000000000000000000000000000000000000000000000000000000000000000000000000000000000000000000000000000000000000000000000000000000000000000000000000000000000000000000000000000000000000000000000000000000000000000000000000000000000000000000000000000000000000000000000000000000000000000000000000000000000000000000000000000000000000000000000000000000000000000000000000000000000000000000000000000000000000000000000000000000000000000000000000000000000000000000000000000000000000000000000000000000000000000000000000000000000000000000000000000000000000000000000000000000000000000000000000000000000000000000000000000000000000000000000000000000000000000000000000000000000000000000000000000000000000000000000000000000000000000000000000000000000000000000000000000000000000000000000000000000000000000000000000000000000000000000000000000000000000000000000000000000000000000000000000000000000000000000000000000000000000000000000000000000000000000000000000000000000000000000000000000000000000000000000000000000000000000000000000000000000000000000000000000000000000000000000000000000000000000000000000000000000000000000000000000000000000000000000000000000000000000000000000000000000000000000000000000000000000000000000000000000000000000000000000000000000000000000000000000000000000000000000000000000000000000000000000000000000000000000000000000000000000000000000000000000000000000000000000000000000000000000000000000000000000000000000000000000000000000000000000000000000000000000000000000000000000000000000000000000000000000000000000000000000000000000000000000000000000000000000000000000000000000000000000000000000000000000000000000000000000000000000000000000000000000000000000000000000000000000000000000000000000000000000000000000000000000000000000000000000000000000000000000000000000000000000000000000000000000000000000000000000000000000000000000000000000000000000000000000000000000000000000000000000000000000000000000000000000000000000000000000000000000000000000000000000000000000000000000000000000000000000000000000000000000000000000000000000000000000000000000000000000000000000000000000000000000000000000000000000000000000000000000000000000000000000000000000000000000000000000000000000000000000000000000000000000000000000000000000000000000000000000000000000000000000000000000000000000000000000000000000000002300000000000000000000000000000000000000000000000000000000000000000000000000000000000000000000000000000000000000000000000000000000000000000000000000000000000000000000000000000000000000000000000000000000000000000000000000000000000000000000000000000000000000000000000000000000000000000000000000000000000000000000000000000000000000000000000000000000000000000000000000000000000000000000000000000000000000000000000000000000000000000000000000000000000000000000000000000000000000000000
#0665b:00000063
#06656:0000000000000023
#06658:0053
#06655:0053
#01956:0063
#0195b:63
#01957:0023000000000000
#01952:33
#01852:0000001300006300
#01856:0000000000000023
#0185b:13
#01857:00000043
#01756:00000000000000230000000000000000
#01356:00630000
#02456:52
#02458:52000000000000000000000000000000000000000000000000000000000000000000000000000000000000000000000000000000000000000000000000000000000000000000000000000000000000000000000000000000000000000000000000000000000000000000000000000026000000000000000000000000000000000000000000000000000000000000000000000000000000000000000000000000000000000000000000000000000000000000000000000000000000000000000000000000000000000000000000000000000000000000000000000000000000000000000000000000000000000000000000000000000000000000000000000000000000000000000000000000000000000000000000000000000000000000000000000000000000000000000000000000000000000000000000000000000000000000000000000000000000000000000000000000000000000000000000000000000000000000000000000000000000000000000000000000000000000000000000000000000000000000000000000000000000000000000000000000000000000000000000000000000000000000000000000000000000000000000000000000000000000000000000000000000000000000000000000000000000000000000000000000000000000000000000000000000000000000000000000000000000000000000000000000000000000000000000000000000000000000000000000000000000000000000000000000000000000000000000000000000000000000000000000000000000000000000000000000000000000000000000000000000000000000000000000000000000000000000000000000000000000000000000000000
#02452:00000000000000000000000000000000000000000000000000000000000000000000000000000000000000000000000000000000000000000000000000000000000000000000000000000000000000000000000000000000000000000000000000000000000000000000000000000026000000000000000000000000000000000000000000000000000000000000000000000000000000000000000000000000000000000000000000000000000000000000000000000000000000000000000000000000000000000000000000000000000000000000000000000000000000000000000000000000000000000000000000000000000000000000000000000000000000000000000000000000000000000000000000000000000000000000000000000000000000000000000000000000000000000000000000000000000000000000000000000000000000000000000000000000000000000000000000000000000000000000000000000000000000000000000000000000000000000000000000000000000000000000000000000000000000000000000000000000000000000000000000000000000000000000000000000000000000000000000000000000000000000000000000000000000000000000000000000000000000000000000000000000000000000000000000000000000000000000000000000000000000000000000000000000000000000000000000000000000000000000000000000000000000000000000000000000000000000000000000000000000000000000000000000000000000000000000000000000000000000000000000000000000000000000000000000000000000000000000000000000000000000000000000000000
#00852:53000063
#00857:00000023000000000000000063000000
#0085b:0000000053000023
#00856:0000000053000023
#00955:0000000000340000
#00957:0000000000000044
#00952:33
#00452:0000000053000023
#00457:0000000053000023
#00456:00000053
#0045b:00000053
#00557:0000000000430000
#0055b:4300000000000043
#00656:0000000000330000
#00652:0000000000000033
#00757:0000000000430000
#0075b:0000000000000043
#01057:0000000000440000
#01055:0000000000000034
#01155:0000000000340000
#01157:0000000000000044
#0215c:12
#02152:12
#02157:00530000
#02252:6300000000000000000000000000000000000023000000000000000000000000
#02256:00000000000000630000000000000000
#02257:00000063000000000000000000000000
#02557:00000000000000230000000000000000
#02652:13000013
#0265b:00131300
#02758:00000000000000530000000000000000
#0275b:0000000000000000000000000000000000230000000000000000000000000000
#02752:00000000000000530000000000000000
#02755:0000000000000000000000000000000000230000000000000000000000000000
#02855:63
#02852:0000002300000000000000000000000000000000000000000000000000000000
#0285b:63
#02858:0000002300000000000000000000000000000000000000000000000000000000
#03256:0000000000140000
#03254:00000018
#03252:000000000000001c
#04052:00000023
#04056:0000000000630000
#04057:00000023
#0405b:0000000000630000
#04658:0062000000000000
#04852:3300000000000000000000000000000000000000000000000023000000000000
#04857:0000000000000000000000000000000053000000000000000023000000000000
#04859:00000000000000000000005300000000
#04854:00000000000000000000005300000000
#0485b:0000000000000000000000000000000000000023000000000000000000000000
#0505b:4300000000000000000000000000000000000000000000000023000000000000
#05056:0000000000000000000000000000000063000000000000000023000000000000
#05054:00000000000000000000006300000000
#05059:00000000000000000000006300000000
#05052:0000000000000000000000000000000000000023000000000000000000000000
#05252:33
#05256:0033000000000000
#05257:0000230043000063
#0525b:0063004300000063
#05357:0053
#05656:0000000000340044
#05652:00230000
#05657:0063
#0575b:00230000
#05755:0000000000000033
#05756:0000000000330000
#05956:0000000000340044
#05952:33230000
#05957:0063
#06056:0000000053440034
#0605b:00230000
#06152:00230000
#06158:0000000000000043
#06157:0000000000430000
#03055:0053
#03052:0000000000000000002300000000000000000023000000000000000000000000
#03059:00000000000000000000005300000000
#0305b:0000002300000000000000000000000000000000000000000023000000000000
#03058:63
#03054:00000063000000000000000000000000
#0585b:0000000053000023
#05857:00000053
#06252:0000000063000023
#06256:00000063
#0635b:43
#004320:0000000013000053
#004360:00000000000000000000005333000000
#005360:23
#004371:0000000013000053
#0043b1:00000000000000000000005333000000
#0053b1:23
#0053b1:0000132300000000
#005331:00000000000000001252220000000000
#005321:0000000000000000000000000000000000520052000000000000000000000000
#006321:0000132300000000
#0063b1:00000000000000001252220000000000
#0063c1:0000000000000000000000000000000000520052000000000000000000000000
#0073b1:0000132300000000
#007331:00000000000000001252220000000000
#007321:0000000000000000000000000000000000520052000000000000000000000000
#008321:1300002300000000
#008351:00330000330000000000000000000000
#008361:0033000000000000
#008371:00000033000000000000000000000000
#008341:00000000003300000000000000000000
#0083b1:0000000013000053
#008371:00000000000000000000005333000000
#009371:23
#008360:0000000013000053
#008320:00000000000000000000005333000000
#009320:23
#009360:00130000
#009320:0000002300000000
#0093b0:00000000000000001252220000000000
#0093c0:0000000000000000000000000000000000520052000000000000000000000000
#010370:00130000
#0103b0:0000002300000000
#010330:00000000000000001252220000000000
#010320:0000000000000000000000000000000000520052000000000000000000000000
#011360:00130000
#011320:0000002300000000
#0113b0:00000000000000001252220000000000
#0113c0:0000000000000000000000000000000000520052000000000000000000000000
#0123b0:12525252525222000000000000000000
#0123c0:0052005200520052005200520000000000000000000000000000000000000000
#012330:00000000000000001252525222000000
#012320:0000000000000000000000000000000000520052005200520000000000000000
#013360:00130000
#013320:00000000000000230000000000000000
#0143b0:1300002300000000
#014360:00000053000000000000000000000000
#014370:00000000000000130000000023000000
#0143b0:0000000000000000000000000000000000000053000000000000000000000000
#0153b0:0013000000000000
#015370:00230000
#015361:0013000000000000
#015321:00230000
#0153b1:0000000000130023
#015371:00000033
#0163c1:0000000000001222
#017361:00000000000000130000000000000000
#0173b1:0000000000230000
#018361:13230000
#018321:0053000000000000
#018371:0000001300230000
#0183b1:0053
#018321:00000013
#018361:0000000000000053
#019321:23
#0193b0:13230000
#019370:0053000000000000
#019360:0013
#0193b0:00000023
#020320:1222000000000000
#020371:0012220000000000
#020350:00000000122200000000000000000000
#020391:00000000001200220000000000000000
#020361:00000000000000000012002200000000
#020380:00000000000000000000001222000000
#020341:00000000000000000000000012220000
#0203a0:00000000000000000000000000122200
#020321:00000000000000000000000000001222
#0203c0:00000000000000000000000000000012
#0213c0:22
#021370:00130000
#0213b0:00000000000000230000000000000000
#022320:1300002300000000
#022370:00000053000000000000000000000000
#022360:00000000000000130000000023000000
#022320:0000000000000000000000000000000000000053000000000000000000000000
#023320:0013000000000000
#023360:00230000
#023371:0013000000000000
#0233b1:00230000
#023321:0000000000130023
#023361:00000033
#024361:125400000000000000000000000000000000000000000000000000000000000000000000000000000000000000000000000000000000000000000000000000000000000000000000000000000000000000000000000000000000000000000000000000000000000000000000000000000000000000000000000000000000000000000000000000000000000000000000000000000000000000000000000000000000000000000000000000000000000000000000000000000000000000000000000000000000000000000000000000000000000000000000000000000000000000000000000000000000000000000000000000000000000000000000000000000000000000000000000000000000000000000000000000000000000000000000000000000000000000000000000000000000000000000000000000000000000000000000000000000000000000000000000000000000000000000000000000000000000000000000000000000000000000000000000000000000000000000000000000000000000000000000000000000000000000000000000000000000000000000000000000000000000000000000000000000000000000000000000000000000000000000000000000000000000000000000000000000000000000000000000000000000000000000000000000000000000000000000000000000000000000000000000000000000000000000000000000000000000000000000000000000000000000000000000000000000000000000000000000000000000000000000000000000000000000000000000000000000000000000000000000000000000000000000000000000000000000000000000000000000000000000000000000000000000000000000000000000000000000000000000000000000000000000000000000000000000000000000000000000000000000000000000000000000000000000000000000000000000000000000000000000000000000000000000000000000000000000000000000000000000000000000000000000000000000000000000000000000000000000000000000000000000000000000000000000000000000000000000000000000000000000000000000000000000000000000000000000000000000000000000000000000000000000000000000000000000000000000000000000000000000000000000000000000000000000000000000000000000000000000000000000000000000000000000000000000000000000000000000000000000000000000000000000000000000000000000000000000000000000000
#024321:00000000000000000000000000000000000000000000000000000000000000000000000000000000000000000000000000000000000000000000000000000000000000000000000000000000000000005c0000000000000000000000000000000000000000000000000000005c005c56000000000000000000000000000000000000000000000000000000000000000000000000000000000000000000000000000000000000000000000000000000000000000000000000000000000000000000000000000000000000000000000000000000000000000000000000000000000000000000000000000000000000000000000000000000000000000000000000000000000000000000000000000000000000000000000000000000000000000000000000000000000000000000000000000000000000000000000000000000000000000000000000000000000000000000000000000000000000000000000000000000000000000000000000000000000000000000000000000000000000000000000000000000000000000000000000000000000000000000000000000000000000000000000000000000000000000000000000000000000000000000000000000000000000000000000000000000000000000000000000000000000000000000000000000000000000000000000000000000000000000000000000000000000000000000000000000000000000000000000000000000000000000000000000000000000000000000000000000000000000000000000000000000000000000000000000000000000000000000000000000000000000000000000000000000000000000000000000000000000000000000000000000000000000000000000000
#024341:00220000
#024380:12000000000000000000000000000000000000000000000000000000000000000000000000000000000000000000000000000000000000000000000000000000000000000000000000000000000000000000000000000000000000000000000000000000000000000000000000000056000000000000000000000000000000000000000000000000000000000000000000000000000000000000000000000000000000000000000000000000000000000000000000000000000000000000000000000000000000000000000000000000000000000000000000000000000000000000000000000000000000000000000000000000000000000000000000000000000000000000000000000000000000000000000000000000000000000000000000000000000000000000000000000000000000000000000000000000000000000000000000000000000000000000000000000000000000000000000000000000000000000000000000000000000000000000000000000000000000000000000000000000000000000000000000000000000000000000000000000000000000000000000000000000000000000000000000000000000000000000000000000000000000000000000000000000000000000000000000000000000000000000000000000000000000000000000000000000000000000000000000000000000000000000000000000000000000000000000000000000000000000000000000000000000000000000000000000000000000000000000000000000000000000000000000000000000000000000000000000000000000000000000000000000000000000000000000000000000000000000000000000000000000000000000000000000
#024360:005400000000000000000000000000000000000000000000000000000000000000000000000000000000000000000000000000000000000000000000000000000000000000000000000000000000000000000000000000000000000000000000000000000000000000000000000000000000000000000000000000000000000000000000000000000000000000000000000000000000000000000000000000000000000000000000000000000000000000000000000000000000000000000000000000000000000000000000000000000000000000000000000000000000000000000000000000000000000000000000000000000000000000000000000000000000000000000000000000000000000000000000000000000000000000000000000000000000000000000000000000000000000000000000000000000000000000000000000000000000000000000000000000000000000000000000000000000000000000000000000000000000000000000000000000000000000000000000000000000000000000000000000000000000000000000000000000000000000000000000000000000000000000000000000000000000000000000000000000000000000000000000000000000000000000000000000000000000000000000000000000000000000000000000000000000000000000000000000000000000000000000000000000000000000000000000000000000000000000000000000000000000000000000000000000000000000000000000000000000000000000000000000000000000000000000000000000000000000000000000000000000000000000000000000000000000000000000000000000000000000000000000000000000000000000000000000000000000000000000000000000000000000000000000000000000000000000000000000000000000000000000000000000000000000000000000000000000000000000000000000000000000000000000000000000000000000000000000000000000000000000000000000000000000000000000000000000000000000000000000000000000000000000000000000000000000000000000000000000000000000000000000000000000000000000000000000000000000000000000000000000000000000000000000000000000000000000000000000000000000000000000000000000000000000000000000000000000000000000000000000000000000000000000000000000000000000000000000000000000000000000000000000000000000000000000000000000000000000000000000000000000000000000000000000000000000000000000000000000000000000000000000000000000000000000000000000000000000000000000000000000000000000000000000000000000000000000000000000000000000000000000000000000000000000000000000000000000000000000000000000000000000000000000000000000000000000000000000000000000000000000000000000000000000000000000000000000000000000000000000000000000000000000000000000000000000000000000000000000000000000000000000000000000000000000000000000000000000000000000000000000000000000000000000000000000000000000000000000000000000000000000000000000000000000000000000000000000000000000000000000000000000000000000000000000000000000000000000000000000000000000000000000000000000000000000000000000000000000000000000000000000000000000000000000000000000000000000000000000000000000000000000000000000000000000000000000000000000000000000000000000000000000000000000000000000000000000000000000000000000000000000000000000000000000000000000000000000000000000000000000000000000000000000000000000000000000000000000000000000000000000000000000000000000000000000000000000000000000000000000000000000000000000000000000000000000000000000000000000000000000000000000000000000000000000000000000000000000000000000000000000000000000000000000000000000000000000000000000000000000000000000000000000000000000000000000000000000000000000000000000000000000000000000000000000000000000000000000000000000000000000000000000000000000000000000000000000000000000000000000000000000000000000000000000000000000000000000000000000000000000000000000000000000000000000000000000000000000000000000000000000000000000000000000000000000000000000000000000000000000000000000000000000000000000000000000000000000000000000000000000000000000000000000000000000000000000000000000000000000000000000000000000000000000000000000000000000000000000000000000000000000000000000000000000000000000000000000000000000000000000000000000000000000000000000000000000000000000000000000000
#024320:00000000000000000000000000000000000000000000000000000000000000000000000000000000000000000000000000000000000000000000000000000000000000000000000000000000000000000000000000000000000000000000000000000000000000000000000000000000000000000000000000000000000000000000000000000000000000000000000000000000000000000000000000000000000000000000000000000000000000000000000000000000000000000000000000000000000000000000000000000000000000000000000000000000000000000000000000000000000000000000005c000000000000000000000000000000000000000000000000000000000000000000000000000000000000000000000000000000000000000000000000000000000000000000000000000000000000000000000000000000005c00005c00000000000000000000000000000000000000000000000000000000000000000000000000000000000000000000000000000000000000000000000000000000000000000000000000000000000000000000000000000000000000000000000000000000000000000000000000000000000000000000000000000000000000000000000000000000000000000000000000000000000000000000000000000000000000000000000000000000000000000000000000000000000000000000000000000000000000000000000000000000000000000000000000000000000000000000000000000000000000000000000000000000000000000000000000000000000000000000000000000000000000000000000000000000000000000000000000000000000000000000000000000000000000000000000000000000000000000000000000000000000000000000000000000000000000000000000000000000000000000000000000000000000000000000000000000000000000000000000000000000000000000000000000000000000000000000000000000000000000000000000000000000000000000000000000000000000000000000000000000000000000000000000000000000000000000000000000000000000000000000000000000000000000000000000000000000000000000000000000000000000000000000000000000000000000000000000000000000000000000000000000000000000000000000000000000000000000000000000000000000000000000000000000000000000000000000000000000000000000000000000000000000000000000000000000000000000000000000000000000000000000000000000000000000000000000000000000000000000000000000000000000000000000000000000000000000000000000000000000000000000000000000000000000000000000000000000000000000000000000000000000000000000000000000000000000000000000000000000000000000000000000000000000000000000000000000000000000000000000000000000000000000000000000000000000000000000000000000000000000000000000000000000000000000000000000000000000000000000000000000000000000000000000000000000000000000000000000000000000000000000000000000000000000000000000000000000000000000000000000000000000000000000000000000000000000000000000000000000000000000000000000000000000000000000000000000000000000000000000000000000000000000000000000000000000000000000000000000000000000000000000000000000000000000000000000000000000000000000000000000000000000000000000000000000000000000000000000000000000000000000000000000000000000000000000000000000000000000000000000000000000000000000000000000000000000000000000000000000000000000000000000000000000000000000000000000000000000000000000000000000000000000000000000000000000000000000000000000000000000000000000000000000000000000000000000000000000000000000000000000000000000000000000000000000000000000000000000000000000000000000000000000000000000000000000000000000000000000000000000000000000000000000000000000000000000000000000000000000000000000000000000000000000000000000000000000000000000000000000000000000000000000000000000000000000000000000000000000000000000000000000000000000000000000000000000000000000000000000000000000000000000000000000000000000000000000000000000000000000000000000000000000000000000000000000000000000000000000000000000000000000000000000000000000000000000000000000000000000000000000000000000000000000000000000000000000000000000000000000000000000000000000000000000000000000000000000000000000000000000000000000000000000000000000000000000000000000000000000000000000000000000000000000000000000000000000000000000000000000000000
#0243a0:00220000
#024370:0000000000000000000000001200525252525252525252522200000000000000
#024350:00000000000000000000000000000000000000000000000000000000005200000000000000000000000000000000000000000000000000000000000000000000
#0243b0:00000000000000000000000000000000000000000000000000000000000000000052000000000000000000000000000000000000000000000000000000000000
#024330:00000000000000000000000000000000000000000000000000000000000000000000005200000000000000000000000000000000000000000000000000000000
#0243a0:00000000000000000000000000000000000000000000000000000000000000000000000000000052000000000000000000000000000000000000000000000000
#024340:00000000000000000000000000000000000000000000000000000000000000000000000000000000005200000000000000000000000000000000000000000000
#024390:00000000000000000000000000000000000000000000000000000000000000000000000000000000000000000052000000000000000000000000000000000000
#025370:00000000000000130000000000000000
#025320:0000000000230000
#026370:13
#0263b0:0053230000000000
#026360:0013
#026320:0000000000532300
#027380:00000000000000130000230000000000
#0273b0:0000000000000000000000000000000000530000000000000000000000000000
#027321:00000000000000130000230000000000
#027351:0000000000000000000000000000000000530000000000000000000000000000
#028351:13000023000000000000000000000000
#028321:0000005300000000000000000000000000000000000000000000000000000000
#0283b0:13000023000000000000000000000000
#028380:0000005300000000000000000000000000000000000000000000000000000000
#029320:0000001300000000
#0293b0:0023
#0293b1:0000001300000000
#029321:0023
#030381:13
#0303b1:0000005300000000000000000000000000000000000000000000000000000000
#030371:00000023000000000000000000000000
#030340:00000013000000000000000000000000
#030320:0000000000000000005300000000000000000000000000000000000000000000
#030360:0000002300000000
#030350:0013
#030320:0000000000000000000000000000000000000053000000000000000000000000
#030360:00000000000000000000002300000000
#030391:00000000000000000000001300000000
#0303b1:0000000000000000000000000000000000000000000000000053000000000000
#030371:0000000000000023
#030320:000000000000000000000000000000000000000000000000000000000000000000000000000000000000135353535353
#030330:000000000000000000000000000000000000000000000000000000000000000000000000000000000000000000000000000000000000000000000000000000000000000000000000000000000000000000000000005300530053005300530053
#031320:23
#031370:000000000000135300000000000000000000000000000000000000000000000000000000000000000000000000000000
#031360:000000000000000000000000005300005300230000000000000000000000000000000000000000000000000000000000000000000000000000000000000000000000000000000000000000000000000000000000000000000000000000000000
#031350:000000000000000000000000000000530053000000000000000000000000000000000000000000000000000000000000000000000000000000000000000000000000000000000000000000000000000000000000000000000000000000000000
#031370:0000000000000000000000001353000000000000000000000000000000000000
#031380:00000000000000000000000000000000000000000000000000530000530053005300530053005300530000000000000000000000000000000000000000000000
#031390:00000000000000000000000000000000000000000000000000000053005300530053005300000000000053005300530000000000000000000000000000000000
#0313a0:00000000000000000000000000000000000000000000000000000000000000000000000000530053005300530000000023000000000000000000000000000000
#0313b0:00000000000000000000000000000000000000000000000000000000000000000000000000000000000000000053005300000000000000000000000000000000
#031321:0000000000000000000000001353000000000000000000000000000000000000
#031331:00000000000000000000000000000000000000000000000000530000530053005300530053005300530000000000000000000000000000000000000000000000
#031341:00000000000000000000000000000000000000000000000000000053005300530053005300000000000053005300530000000000000000000000000000000000
#031351:00000000000000000000000000000000000000000000000000000000000000000000000000530053005300530000000023000000000000000000000000000000
#031361:00000000000000000000000000000000000000000000000000000000000000000000000000000000000000000053005300000000000000000000000000000000
#032361:000000000000135300000000000000000000000000000000000000000000000000000000000000000000000000000000
#032371:000000000000000000000000005300005300230000000000000000000000000000000000000000000000000000000000000000000000000000000000000000000000000000000000000000000000000000000000000000000000000000000000
#032381:000000000000000000000000000000530053000000000000000000000000000000000000000000000000000000000000000000000000000000000000000000000000000000000000000000000000000000000000000000000000000000000000
#032361:000000000000000000000000000000000000135300000000000000000000000000000000000000000000000000000000
#032331:000000000000000000000000000000000000000000000000000000000000000000000000000000000000000000000000000000000000000000000000000000000000000000000000000053000000000053000000000000530000000053000000000000000000000000000000000000000000000000000000000000000000000000000000000000000000000000000000000000000000000000000000000000000000000000000000000000000000000000000000000000000000000000000000
#032341:000000000000000000000000000000000000000000000000000000000000000000000000000000000000000000000000000000000000000000000000000000000000000000000000000000530000530000005300000000005300000000005300000000000000000000000000000000000000000000000000000000000000000000000000000000000000000000000000000000000000000000000000000000000000000000000000000000000000000000000000000000000000000000000000
#032321:000000000000000000000000000000000000000000000000000000000000000000000000000000000000000000000000000000000000000000000000000000000000000000000000000000000000000000530000000053000000000000530000230000000000000000000000000000000000000000000000000000000000000000000000000000000000000000000000000000000000000000000000000000000000000000000000000000000000000000000000000000000000000000000000
#032351:0000000000000000000000000000535300000000000000000000000000000000
#0323b0:000000000000000000000000000000000000135300000000000000000000000000000000000000000000000000000000
#032380:000000000000000000000000000000000000000000000000000000000000000000000000000000000000000000000000000000000000000000000000000000000000000000000000000053000000000053000000000000530000000053000000000000000000000000000000000000000000000000000000000000000000000000000000000000000000000000000000000000000000000000000000000000000000000000000000000000000000000000000000000000000000000000000000
#032390:000000000000000000000000000000000000000000000000000000000000000000000000000000000000000000000000000000000000000000000000000000000000000000000000000000530000530000005300000000005300000000005300000000000000000000000000000000000000000000000000000000000000000000000000000000000000000000000000000000000000000000000000000000000000000000000000000000000000000000000000000000000000000000000000
#032370:000000000000000000000000000000000000000000000000000000000000000000000000000000000000000000000000000000000000000000000000000000000000000000000000000000000000000000530000000053000000000000530000230000000000000000000000000000000000000000000000000000000000000000000000000000000000000000000000000000000000000000000000000000000000000000000000000000000000000000000000000000000000000000000000
#0323a0:0000000000000000000000000000535300000000000000000000000000000000
#033370:0013000000000000
#0333b0:00230000
#033321:00130000
#033361:0000002300000000
#034321:13000000000000230000000000000000
#034361:0000000000000053000000000000000000000000000000000000000000000000
#0343b0:1300002300000000
#034370:00000053000000000000000000000000
#034361:0000000000130023
#034321:00000053
#0343b0:0000000000130023
#034370:00000053
#037380:1222000000000000
#037360:0000122200000000
#037380:0000000012220000
#037360:0000000000001222
#039340:0000000000000000000000001300535323000000000000000000000000000000
#039371:0000000000000000000000001300535623000000000000000000000000000000
#039331:0000000000130000
#039341:000000000000000000000000000000000000000000000000000000000000000000000000000000000000000000000000000000000000000000000000000000000000000000000000000000000000000000000000000000000000000000000000000000000000000000000000000000000000000000000000000000000000000000000000000000000000000000000000000000000000000000000000000000000000000000000000000000000000000000000000000000000000000000000000000000000000000000000000000000000000000000000000000000000000000000000000000000000000000000000000000000000000000000000000000000000000000000000000000000000000000000000000000000000000000000000000000000000000000000000000000000000000000000000000000000000000000000000000000000000000000000000000000000000000000000000000000000000000000000000000000000000000000000000000000000000000000000000000000000000000000000000000000000000000000000000000000000000000000000000000000000000000000000000000000000000000000000000000000000000000000000000000000000000000000000000000000000000000000000000000000000000000000000000000000000000000000000000000000000000000000000000000000000000000000000000000000000000000000000000000000000000000000000000000000000000000000000000000000000000000000000000000000000000000000000000000000000000000000000000000000000000000000000000000000000000000000000000000000000000000000000000000000000000000000000000000000000000000000000000053540000000000000000000000000000000000000000000000000000000000000000000000000000000000000000000000000000000000000000000000000000000000000000000000000000000000000000000000000000000000000000000000000000000000000000000000000000000000000000000000000000000000000000000000000000000000000000000000000000000000000000000000000000000000000000000000000000000000000000000000000000000000000000000000000000000000000000000000000000000000000000000000000000000000000000000000000000000000000000000000000000000000000000000000000000000000000000000000000000000000000000000000000000000000000000000000000000000000000000000000
#039351:00000023
#0393a0:0000000000130000
#039390:000000000000000000000000000000000000000000000000000000000000000000000000000000000000000000000000000000000000000000000000000000000000000000000000000000000000000000000000000000000000000000000000000000000000000000000000000000000000000000000000000000000000000000000000000000000000000000000000000000000000000000000000000000000000000000000000000000000000000000000000000000000000000000000000000000000000000000000000000000000000000000000000000000000000000000000000000000000000000000000000000000000000000000000000000000000000000000000000000000000000000000000000000000000000000000000000000000000000000000000000000000000000000000000000000000000000000000000000000000000000000000000000000000000000000000000000000000000000000000000000000000000000000000000000000000000000000000000000000000000000000000000000000000000000000000000000000000000000000000000000000000000000000000000000000000000000000000000000000000000000000000000000000000000000000000000000000000000000000000000000000000000000000000000000000000000000000000000000000000000000000000000000000000000000000000000000000000000000000000000000000000000000000000000000000000000000000000000000000000000000000000000000000000000000000000000000000000000000000000000000000000000000000000000000000000000000000000000000000000000000000000000000000000000000000000000000000000000000000000000000000000000000000000000000000000000000000000000000000000000000000000000000000000000000000000000000000000000000000000000000000000000000000000000000000000000000000000000000000000000000000000000000000000000000000000000000000000000000000000000000000000000000000000000000000000000000000000000000000000000000000000000000000000000000000000000000000000000000000000000000000000000000000000000000000000000000000000000000000000000000000000000000000000000000000000000000000000000000000000000000000000000000000000000000000000000000000000000000000000000000000000000000000000000000000000000000000000000000000000000000000000000000000000000000000000000000000000000000000000000000000000000000000000000000000000000000000000000000000000000000000000000000000000000000000000000000000000000000000000000000000000000000000000000000000000000000000000000000000000000000000000000000000000000000000000000000000000000000000000000000000000000000000000000000000000000000000000000000000000000000000000000000000000000000000000000000000000000000000000000000000000000000000000000000000000000000000000000000000000000000000000000000000000000000000000000000000000000000000000000000000000000000000000000000000000000000000000000000000000000000000000000000000000000000000000000000000000000000000000000000000000000000000000000000000000000000000000000000000000000053000000000000000000000000000000000000000000000000000000000000000000000000000000000000000000000000000000000000000000000000000000000000000000000000000000000000000000000000000000000000000000000000000000000000000000000000000000000000000000000000000000000000000000000000000000000000000000000000000000000000000000000000000000000000000000000000000000000000000000000000000000000000000000000000000000000000000000000000000000000000000000000000000000000000000000000000000000000000000000000000000000000000000000000000000000000000000000000000000000000000000000000000000000000000000000000000000000000000000000000000000000000000000000000000000000000000000000000000000000000000000000000000000000000000000000000000000000000000000000000000000000000000000000000000000000000000000000000000000000000000000000000000000000000000000000000000000000000000000000000000000000000000000000000000000000000000000000000000000000000000000000000000000000000000000000000000000000000000000000000000000000000000000000000000000000000000000000000000000000000000000000000000000000000000000000000000000000000000000000000000000000000000000000000000000000000000000000000000000000000000000000000000000000000000000000000000000000000000000000000000
#039380:00000000000000000000005423000000
#039340:0000000000000013
#040340:23
#039391:0000000000000013
#039371:0000000000000000000000000000000000000000000000000000000000005355
#040371:23
#040351:0000000013000053000000000000000000000000000000000000000000000000
#040331:000000000000000000000000000000000000000000000000000000000000000000000000000000000000000000000000000000000000000000000000000000000000000000000000000000000000000000000000000000000000000000000000000000000000000000000000000000000000000000000000000000000000000000000000000000000000000000000000000000000000000000000000000000000000000000000000000000000000000000000000000000000000000000000000000000000000000000000000000000000000000000000000000000000000000000000000000000000000000000000000000000000000000000000000000000000000000000000000000000000000000000000000000000000000000000000000000000000000000000000000000000000000000000000000000000000000000000000000000000000000000000000000000000000000000000000000000000000000000000000000000000000000000000000000000000000000000000000000000000000000000000000000000000000000000000000000000000000000000000000000005500000000000000000000000000000000000000000000000000000000000000000000000000000000000000000000000000000000000000000000250000000000000000000000000000000000000000000000000000000000000000000000000000000000000000000000000000000000000000000000000000000000000000000000000000000000000000000000000000000000000000000000000000000000000000000000000000000000000000000000000000000000000000000000000000000000000000000000000000000000000000000000000000000000000000000000000000000000000000000000000000000000000000000000000000000000000000000000000000000000000000000000000000000000000000000000000000000000000000000000000000000000000000000000000000000000000000000000000000000000000000000000000000000000000000000000000000000000000000000000000000000000000000000000000000000000000000000000000000000000000000000000000000000000000000000000000000000000000000000000000000000000000000000000000000000000000000000000000000000000000000000000000000000000000000000000000000000000000000000000000000000000000000000000000000000000000000000000000000000000000000000000000000000000000000000000000000000000000000000000000000000000000000000000000000000000000000000000000000000000000000000000000000000000000000000000000000000000000000000000000000000000000000000000000000000000000000000000000000000000000000000000000000000000000000000000000000000000000000000000000000000000000000000000000000000000000000000000000000000000000000000000000000000000000000000000000000000000000000000000000000000000000000000000000000000000000000000000000000000000000000000000000000000000000000000000000000000000000000000000000000000000000000000000000000000000000000000000000000000000000000000000000000000000000000000000000000000000000000000000000000000000000000000000000000000000000000000000000000000000000000000000000000000000000000000000000000000000000000000000000000000000000000000000000000000000000000000000000000000000000000000000000000000000000000000000000000000000000000000000000000000000000000000000000000000000000000000000000000000000000000000000000000000000000000000000000000000000000000000000000000000000000000000000000000000000000000000000000000000000000000000000000000000000000000000000000000000000000000000000000000000000000000000000000000000000000000000000000000000000000000000000000000000000000000000000000000000000000000000000000000000000000000000000000000000000000000000000000000000000000000000000000000000000000000000000000000000000000000000000000000000000000000000000000000000000000000000000000000000000000000000000000000000000000000000000000000000000000000000000000000000000000000000000000000000000000000000000000000000000000000000000000000000000000000000000000000000000000000000000000000000000000000000000000000000000000000000000000000000000000000000000000000000000000000000000000000000000000000000000000000000000000000000000000000000000000000000000000000000000000000000000000000000000000000000000000000000000000000000000000000000000000000000000000000000000000000000000000000000000000000000000000000000000000000000000000000000000000000000000
#040380:000000000000000000000000000000000000000000000000000000000000000000000000000000000000000000000000000000000000000000000000000000000000000000000000000000000000000000000000000000000000000000000000000000000000000000000000000000000000000000000000000000000000000000000000000000000000000000000000000000000000000000000000000000000000000000000000000000000000000000000000000000000000000000000000000000000000000000000000000000000000000000000000000000000000000000000000000000000000000000000000130000000000000000000000000000000000000000000000000000000000000000000000000000000000000000000000000000000000000000000000000000000000000000000000000000000000000000000000000000000000000000000000000000000000000000000000000000000000000000000000000000000000000000000000000000000000000000000000000000000000000000000000000000000000000000000000000000000000000000000000535500000000000000000000000000000000000000000000000000000000000000000000000000000000000000000000000000000000000000000000250000000000000000000000000000000000000000000000000000000000000000000000000000000000000000000000000000000000000000000000000000000000000000000000000000000000000000000000000000000000000000000000000000000000000000000000000000000000000000000000000000000000000000000000000000000000000000000000000000000000000000000000000000000000000000000000000000000000000000000000000000000000000000000000000000000000000000000000000000000000000000000000000000000000000000000000000000000000000000000000000000000000000000000000000000000000000000000000000000000000000000000000000000000000000000000000000000000000000000000000000000000000000000000000000000000000000000000000000000000000000000000000000000000000000000000000000000000000000000000000000000000000000000000000000000000000000000000000000000000000000000000000000000000000000000000000000000000000000000000000000000000000000000000000000000000000000000000000000000000000000000000000000000000000000000000000000000000000000000000000000000000000000000000000000000000000000000000000000000000000000000000000000000000000000000000000000000000000000000000000000000000000000000000000000000000000000000000000000000000000000000000000000000000000000000000000000000000000000000000000000000000000000000000000000000000000000000000000000000000000000000000000000000000000000000000000000000000000000000000000000000000000000000000000000000000000000000000000000000000000000000000000000000000000000000000000000000000000000000000000000000000000000000000000000000000000000000000000000000000000000000000000000000000000000000000000000000000000000000000000000000000000000000000000000000000000000000000000000000000000000000000000000000000000000000000000000000000000000000000000000000000000000000000000000000000000000000000000000000000000000000000000000000000000000000000000000000000000000000000000000000000000000000000000000000000000000000000000000000000000000000000000000000000000000000000000000000000000000000000000000000000000000000000000000000000000000000000000000000000000000000000000000000000000000000000000000000000000000000000000000000000000000000000000000000000000000000000000000000000000000000000000000000000000000000000000000000000000000000000000000000000000000000000000000000000000000000000000000000000000000000000000000000000000000000000000000000000000000000000000000000000000000000000000000000000000000000000000000000000000000000000000000000000000000000000000000000000000000000000000000000000000000000000000000000000000000000000000000000000000000000000000000000000000000000000000000000000000000000000000000000000000000000000000000000000000000000000000000000000000000000000000000000000000000000000000000000000000000000000000000000000000000000000000000000000000000000000000000000000000000000000000000000000000000000000000000000000000000000000000000000000000000000000000000000000000000000000000000000000000000000000000000000000000000000000000000000000000000000000000
#040350:000000000000000000000000000000000000000000000000000000000000000000000000000000000000000000000000000000000000000000000000000000000000000000000000130000000000000000000000000000000053000000000000000000000000000000000000000000000000000000000000000000000000000000000000000000000000000000000000000000000000000000000000000000000000000000000000000000000000000000000000000000000000000000000000
#040330:0023
#040381:000000000000000000000000000000000000000000000000000000000000000000000000000000000000000000000000000000000000000000000000000000000000000000000000130000000000000000000000000000000053000000000000000000000000000000000000000000000000000000000000000000000000000000000000000000000000000000000000000000000000000000000000000000000000000000000000000000000000000000000000000000000000000000000000
#0403a1:0023
#040361:0000000000130023
#040341:000000003333
#040321:000000000000000000000000000000000033330000000000
#040331:000000000000000000000000000000000000003300000000
#0403b0:0000000000130023
#040390:000000003333
#040370:000000000000000000000000000000000033330000000000
#040380:000000000000000000000000000000000000003300000000
#0413a0:00001424
#041350:0000000000540000
#041321:00000014
#041371:0000000000000054
#042321:24
#0423a0:14240000
#042350:0054000000000000
#042320:00000000000000000000000000000000000000000000000000000000000000001c0000000000000000000000000000005c5c0000000000000000000000000000
#042330:000000000000000000000000000000000000000000000000000000000000000000000000005a0000000000000000000000000000000000000000000000000000
#042360:000000000000000000000000000000000000000000000000000000005454000000000000000000000000000000000000
#042370:000000000000000000000000000000000000000000000000000000000000000000000000000000000000000000000000000000000000000000000000000000000000000000000000000000000000000000000000000000000000000000000000000000000000000000000000000000000000000000520000000000000000000000000000320000000000000000000052000000000000000000000000000000000000000000000000220000000000000000000000000000000000000000000000
#043370:0013
#043320:0000000000230000
#043370:00000013
#043320:0000000000000023
#044320:0013002300000000
#044360:00530000
#044360:0000000000000013
#0453b0:00230000
#044321:0000000000000013
#045371:00230000
#045361:0013
#0453b1:00000023
#045320:0000000000000000000000000000000000000000000000001252525252525252
#045330:00000000000000000000000000000000000000000000000000000000000000000000000000000000000000000000000000520052005200520052005200520052
#046320:22
#046360:0000000012525252525252522200000000000000000000000000000000000000
#046350:00000000000000000052005200520052005200520052005200000000000000000000000000000000000000000000000000000000000000000000000000000000
#046381:0012000000000000
#0463b1:00000000000000000000000000000000000000000000000032000000000000000052005200520052005200520052005200520052005200520000000000000000
#0463c1:0000000000000000000000000000000032525252525252525252525222000000
#046320:0000000000000000000000000000000012525252525252525252525222000000
#046330:00000000000000000000000000000000000000000000000000000000000000000052005200520052005200520052005200520052005200520000000000000000
#048370:0000000000000000000000000000000013000000000000000053000000000000
#0483a0:00000000000000000033330000000000
#0483b0:0000000000000000000000000000000000000053000000000000000023000000
#048390:00000000000000000000003300000000
#048380:00000000000000000000000033330000
#048341:00000000000000000000001300000000
#048331:00000000000000000000000033330000
#048321:0000000000000000000000000000000000000000000000000053000000000000
#048361:0000000000000023
#050361:0000000000000000000000000000000013000000000000000053000000000000
#050331:00000000000000000033330000000000
#050321:0000000000000000000000000000000000000053000000000000000023000000
#050341:00000000000000000000003300000000
#050351:00000000000000000000000033330000
#050390:00000000000000000000001300000000
#0503a0:00000000000000000000000033330000
#0503b0:0000000000000000000000000000000000000000000000000053000000000000
#050370:0000000000000023
#051360:0013
#0513b0:0000000000230000
#051360:00000013
#0513b0:0000000000000023
#0523b0:0013002300000000
#052370:00520000
#052370:0000000000000013
#053320:00230000
#0523b1:0000000000000013
#053361:00230000
#053371:0013
#053321:00000023
#055321:13000023000000000000000000000000
#0553b1:00130000
#055371:0000002300000000
#055361:0013
#055321:0000000000230000
#0553b1:0000000000001323
#0563b1:13000023000000000000000000000000
#056321:00130000
#056361:0000002300000000
#056371:0013
#0563b1:0000000000230000
#056321:0000000000001323
#057321:13000023000000000000000000000000
#0573b1:00130000
#057371:0000002300000000
#0583c1:125252525252220000000000000000000000000000000000000000000000000000000000000000000000000000000000
#0583b1:005200520052005200520052000000000000000000000000000000000000000000000000000000000000000000000000000000000000000000000000000000000000000000000000000000000000000000000000000000000000000000000000
#058350:000000000000125252525252220000000000000000000000000000000000000000000000000000000000000000000000
#058360:000000000000000000000000005200520052005200520052000000000000000000000000000000000000000000000000000000000000000000000000000000000000000000000000000000000000000000000000000000000000000000000000
#058391:000000000000000000000000125252525252220000000000000000000000000000000000000000000000000000000000
#0583a1:000000000000000000000000000000000000000000000000005200520052005200520052000000000000000000000000000000000000000000000000000000000000000000000000000000000000000000000000000000000000000000000000
#0583b1:00000000000000001300000000003333
#058391:00000000000000000033000000000000
#058371:00000000000000000000333333000000
#058381:00000000000000000000000000330000
#059371:23
#059321:00130000
#059361:0000002300000000
#059371:0013
#0593b1:0000000000230000
#059321:0000000000001323
#0603b1:00130000
#060371:0000002300000000
#060361:0013
#060321:0000000000230000
#0603b1:0000000000001323
#061321:00130000
#061361:0000002300000000
#062321:125252525252220000000000000000000000000000000000000000000000000000000000000000000000000000000000
#062331:005200520052005200520052000000000000000000000000000000000000000000000000000000000000000000000000000000000000000000000000000000000000000000000000000000000000000000000000000000000000000000000000
#062390:000000000000125252525252220000000000000000000000000000000000000000000000000000000000000000000000
#062380:000000000000000000000000005200520052005200520052000000000000000000000000000000000000000000000000000000000000000000000000000000000000000000000000000000000000000000000000000000000000000000000000
#062351:000000000000000000000000125252525252220000000000000000000000000000000000000000000000000000000000
#062341:000000000000000000000000000000000000000000000000005200520052005200520052000000000000000000000000000000000000000000000000000000000000000000000000000000000000000000000000000000000000000000000000
#062321:00000000000000001300000000003333
#062341:00000000000000000033000000000000
#062361:00000000000000000000333333000000
#062351:00000000000000000000000000330000
#063361:23
#066351:0013
#066321:0000000000533300
#066371:000000000000000000000000000000000000000000000000000000000000000000000000000000000000000000000000000000000000000000000000000000000000000000000000000000000000000000000000000000000000000000000000000000000000000000000000000000000000000000000000000000000000000000000000000000000000000000000000000000000000000000000000000000000000000000000000000000000000000000000000000000000000000000000000000000000000000000000000000000000000000000000000000000000000000000000000000000000000000000000000000000000000000000000000000000000000000000000000000000000000000000000000000000000000000000000000000000000000000000000000000000000000000000000000000000000000000000000000000000000000000000000000000000000000000000000000000000000000000000000000000000000000000000000000000000000000000000000000000000000000000000000000000000000000000000000000000000000000000000000000000000000000000000000000000000000000000000000000000000000000000000000000000000000000000000000000000000000000000000000000000000000000000000000000000000000000000000000000000000000000000000000000000000000000000000000000000000000000000000000000000000000000000000000000000000000000000000000000000000000000000000000000000000000000000000000000000000000000000000000000000000000000000000000000000000000000000000000000000000000000000000000000000000000000000000000000000000000000000000000000000000000000000000000000000000000000000000000000000000000000000000000000000000000000000000000000000000000000000000000000000000000000000000000000000000000000000000000000000000000000000000000000000000000000000000000000000000000000000000000000000000000000000000000000000000000000000000000000000000000000000000000000000000000000000000000000000000000000000000000000000000000000000000000000000000000000000000000000000000000000000000000000000000000000000000000000000000000000000000000000000000000000000000000000000000000000000000000000000000000000000000000000000000000000000000000000000000000000000000000000000000000000000000000000000000000000000000000000000000000000000000000000000000000000000000000000000000000000000000000000000000000000000000000000000000000000000000000000000000000000000000000000000000000000000000000000000000000000000000000000000000000000000000000000000000000000000000000000000000000000000000000000000000000000000000000000000000000000000000000000000000000000000000000000000000000000000000000000000000000000000000000000000000000000000000000000000000000000000000000000000000000000000000000000000000000000000000000000000000000000000000000000000000000000000000000000000000000000000000000000000000000000000000000000000000000000000000000000000000000000000000000000000000000000000000000000000000000000000000000000000000000000000000000000000000000000000000000000000000000000000000000000000000000000000000000000000000000000000000000000000000000000000000000000000000000000000000000000000000000000000000000000000000000000000000000000000000000000000000000000000000000000000000000000000000000000000000000000000000000000000000000000000000000000000000000000000000000000000000000000000000000000000000000000000000000000000000000000000000000000000000000000000000000000000000000000000000000000000000000000000000000000000000000000000000000000000000000000000000000000000000000000000000000000000000000000000000000000000000000000000000000000000000000000000000000000000000000000000000000000000000000000000000000000000000000000000000000000000000000000005300000000000000000000000000000000000000000000000000000000000000000000000000000000000000000000000000000000000000000000000000000000000000000000000000000000000000000000000000000000000000000000000000000000000000000000000000000000000000000000000000000000000000000000000000000000000000000000000000000000000000000000000000000000000000000000000000000000000000000000000000000000000000000000000000000000000000000000000000000000000000000000000000000000000000000000000000000000000000000000
#067321:23
#066380:0013
#0663b0:0000000000533300
#066360:0000000000000053
#0673b0:23
