This file was generated by Ched 2.6.2.0.
#TITLE ""
#ARTIST ""
#DESIGNER ""
#DIFFICULTY 0
#PLAYLEVEL
#SONGID ""
#WAVE ""
#WAVEOFFSET 0
#JACKET ""
#REQUEST "ticks_per_beat 480"
#00002: 4
#BPM01: 138
#00008: 01
#TIL00: ""
#HISPEED 00
#MEASUREHS 00
#0011a:1414
#00114:14
#00218:14
#00212:1414
#00319:1414
#00313:00140014
#0051a:1414
#00514:00140014
#00510:41
#00618:1414
#00612:00140014
#0131a:1414
#01314:00140014
#01310:41
#0351a:14
#03514:00140000
#03518:0014
#03512:00000014
#0361a:14140000
#03614:14140000
#03618:00001414
#03612:00001414
#03718:14141414
#03714:0014001400140014
#0391a:0000001400140000
#03914:00001414
#03918:0000000000000014
#03919:25
#03912:25
#0391f:21
#04012:14140000
#04018:0014001400000000
#04010:41
#04314:2400000000140014
#0431a:00001414
#06313:14
#06319:14141414
#06413:14141414
#06419:14
#06513:14
#06519:14141414
#06613:14140014
#06619:14000014
#06618:0014
#06612:0014
#0671a:14
#06714:14
#00818:14
#00912:1414
#00918:00140014
#01014:1414
#0101a:00140014
#01214:14
#01512:1414
#01518:00140014
#0171a:14
#01718:0014
#01714:00140000
#01712:00000014
#01912:14
#01914:0014
#01918:00140000
#0191a:00000014
#0211a:14
#02118:0014
#02114:00140014
#02110:41
#0221a:14340000
#02312:14
#02314:0014
#02318:00140014
#02412:14340000
#0251a:14
#02518:0014
#02512:00140000
#02514:00000014
#02618:14340000
#02712:14
#02714:0014
#0271a:00140000
#02718:00000014
#02812:14
#0281a:14
#02819:00000000000000000034000000000034
#02818:0000000000340034
#02817:00000000000000000000003400340000
#02810:41
#02912:00140000
#02918:0014
#02914:00000014
#0291f:11
#0311a:14
#03114:00140000
#03212:14
#03218:00140000
#0331a:1414
#03314:00140000
#03312:00000014
#0341a:1414
#03414:00140000
#03412:00000014
#0381a:14141400
#03812:0014001400000000
#04112:0000001400140000
#04118:24001414
#04114:0000000000000014
#0421a:14140000
#04214:0014001400000000
#0441a:14
#04418:0000000000140000
#04414:00000014
#04514:0000000014000014
#04518:00000014
#04618:14
#0471a:0000001400000014
#04714:0014
#04718:0000000000140000
#04712:25000014
#04719:25
#04814:14000000000000000000003400000000
#04818:0014000000000000
#04812:00140000
#0481a:0000001400000000
#04912:0000001400000014
#04918:2414
#04914:0000000000140000
#0491a:00000014
#05018:14000000000000000000003400000000
#05014:0014000000000000
#0501a:00140000
#05012:0000001400000000
#05118:0000000000140014
#05112:00001414
#05114:24
#05212:14
#05214:0000000000140000
#05218:00000014
#0541a:0000001400000000
#05414:0014
#05418:0000000000000014
#05615:14
#05512:14
#05510:41
#05814:14
#05714:00140000
#0591a:1414
#05914:00140014
#06018:1414
#06012:00140014
#06218:14
#03959:15
#03952:15
#00858:54
#01254:64
#0225a:54
#02452:64
#02658:54
#04759:15
#04752:15
#04958:14
#05552:54
#05655:24
#05854:64
#06258:54
#04158:14
#04354:14
#05154:14
#004390:14000034000034000000000024000000
#004331:14000034000034000000000024000000
#0073a1:14
#007381:00240000
#007321:0014
#007341:00000024
#008381:14
#0083a1:00003424
#011321:14
#011341:00240000
#0113a1:0014
#011381:00000024
#012341:14
#012321:00003424
#0143a1:14342400
#016321:14342400
#018381:14342400
#020341:14342400
#0223a1:14340000
#022381:0024
#024321:14340000
#024341:0024
#026381:14340000
#0263a1:0024
#0283a1:00143400
#028391:00000000000000000034000000000034
#028381:0000000000340034
#028371:00000000000000000000003434340000
#0293a1:24
#0303a1:14
#030381:00240000
#030321:0014
#030341:00000024
#0313a1:00001424
#032321:00001424
#040321:00000000000000001400003400002400
#0423a1:00000000000000001400003400002400
#044341:0014002400000000
#044381:0000000000000014
#045381:00240000
#046341:0014000000002400
#048341:00000000000000001400003400000000
#048321:0000000000000024
#050381:00000000000000001400003400000000
#0503a1:0000000000000024
#052381:0014002400000000
#052341:0000000000000014
#053341:00240000
#053381:0014
#054381:24
#055321:14
#056351:54
#057321:24
#0573a1:0014
#057381:00000024
#058341:14
#058321:00003424
#0613a1:14
#061381:00240000
#061321:0014
#061341:00000024
#062381:14
#0623a1:00003424
