This file was generated by Ched 2.6.4.0.
#TITLE ""
#ARTIST ""
#DESIGNER ""
#DIFFICULTY 0
#PLAYLEVEL
#SONGID ""
#WAVE ""
#WAVEOFFSET 0
#JACKET ""
#REQUEST "ticks_per_beat 480"
#00002: 4
#BPM01: 116
#00008: 01
#TIL00: ""
#HISPEED 00
#MEASUREHS 00
#00018:14
#00118:14
#00214:14
#00314:14
#02718:2616
#0271f:21
#02710:0041
#02812:1616
#02918:16
#02912:0016
#03112:2616
#03218:1616
#03312:16
#03318:0016
#0041a:14
#00410:41
#0051a:14
#00614:14
#00714:14
#00818:14
#00918:14
#01012:14
#01112:14
#0121a:14
#01210:41
#01314:14
#0141a:14
#01514:14
#01618:14
#01818:14
#01712:14
#01912:14
#03518:16
#03512:0016
#03618:16
#03612:0016
#03718:16
#03712:0016
#02618:14
#02614:0014
#02019:14
#02010:41
#02113:14
#04218:14
#04318:14
#04414:14
#04410:41
#04514:14
#0461a:14
#0471a:14
#04812:14
#04912:14
#0221f:11
#03810:41
#022390:14
#023390:24
#024330:14
#025330:24
#030380:1626
#034320:1626
#038380:16
#039380:26
#040320:16
#041320:26
#050380:160000000000000000000000000000000026000000000000
