This file was generated by Ched 2.6.4.0.
#TITLE ""
#ARTIST ""
#DESIGNER ""
#DIFFICULTY 0
#PLAYLEVEL
#SONGID ""
#WAVE ""
#WAVEOFFSET 0
#JACKET ""
#REQUEST "ticks_per_beat 480"
#00002: 4
#BPM01: 116
#00008: 01
#TIL00: ""
#HISPEED 00
#MEASUREHS 00
#00516:13
#00515:0000130013130013
#00518:000000130000000000000000000013000013000000000013
#0051b:000000000000000000130000130000000000000013000000
#00512:000000130000000000130000000000000013000000000000
#00412:000000000000130000000000000000000013000000000000
#0041b:000000000000000000000000130013000000000000130013
#00416:000000000000131300001300
#00417:000000000000000000000000000000000013000000000000
#00410:41
#00712:130000130000000000000000140000000000000013000000
#00715:000000000000000000000000000000000014000000000013
#00717:130000130000000000000000000014000000000000000000
#00716:0000131300000000
#0071b:0000131300000000
#0071a:000000000000000000000000000000000014000000000000
#00718:0000000000000013
#01315:120012000000120012000000000000000000000000120000
#0131c:0012
#01319:000000120012000000120000000000000000000000000000
#0131b:000000000012
#01318:000000000000000000000000000000000000000000000012
#01312:0012
#02712:00130013
#02716:0013000024000013
#0271b:231300001300000000001300
#02717:000000000013000000000000000000000000000000000013
#0271a:0024
#0271f:21
#02710:0041
#03012:130000130000280000131300
#03015:000000130000000013000000000000000000000000000000
#0301b:000000000013000000000013000000000000000000000000
#03018:000013000000000000130000000000000000000000000000
#03017:0000000000000013
#03016:000000000000000000000000000000000000000000000013
#02918:0000000000000013
#02917:13130000
#02912:00130000
#02914:0000001300000000
#02916:0013
#0291b:000000000000000000000033000000000000130000000013
#02915:000000000013
#02919:000000000000000033330000000000000000000000000000
#0261b:00000013
#02612:000000000013
#02617:0000000000000013
#02616:000000000000000000000000000000000000000000000013
#03716:000000000014000000000000000014000000000000000014
#03718:13001313
#03712:13141313
#03715:0013001300000013
#0371a:0000000000140000
#0371b:0013001300000013
#03812:13000013
#03814:0013
#03817:0000000013000012
#03816:0013000000000000
#0381b:00130000
#03810:41
#03412:000000000014000000000014000000000000130000130000
#0341a:14140000
#03418:000000130000000013000000000000000000000000000000
#03415:000013000000000000130000000000000000000000000000
#0341b:0000000000001313
#03416:0028
#01512:1200000000000013
#01516:00121200
#01514:001200001200000000000000
#01518:0012000000000000
#0151a:000000000012000000000000000000000000000000000000
#0151c:12
#0151b:0000000000000013
#01415:0012
#01419:0000000000120000
#01416:000000000000120000000000000000000012000000000000
#01413:000000000000001200000000
#0141c:00000012
#0141b:0012
#01213:000000000000000000000012000000000000000000000000
#0121b:00120000
#01219:000000000000000012000000000000000000000000120012
#01215:000000000000000000120000000000000000000012000000
#0121c:00000012
#01212:00000012
#01218:12
#01210:41
#04012:13000013
#0401b:1300000000130000
#04018:00130000
#04015:00231300
#0001c:12120000
#00019:0012001200000000
#0001a:00001212
#00017:0000000000120012
#00016:001200001200000000000000
#00014:000000000000001200001200
#0021b:12120000
#00213:12120000
#00216:000012000000000000120000000000000000000000000000
#0021c:0012
#00218:000000120000000012000000000000000000000032000000
#00212:0012
#00214:0000000000120000
#0021a:0000000000120000
#00215:000000000032
#00312:240000000013
#00318:0000000000000013
#00315:000000000000000000000000000000000000000000000013
#0031a:24
#00314:00230000
#00316:0024
#00319:00230000
#02118:0000001300000013
#02112:000000130000000000131300
#02115:000000130000000000000000000000130000000000000013
#0211b:1313
#0231b:0013000000000013
#02316:0023000000130013
#02317:2300001300000000
#02312:2313
#0231a:000000000000003300000000
#02318:000000000000000000000033330000000000000000000000
#02318:000000000000000000000033000000000000000000000000
#02414:0000001300000000
#0241b:1313
#02413:0000000000130000
#02417:000000130000000013000000
#02416:1300000013000013
#02419:0000001300000000
#02515:13
#0251b:1313
#02512:000000000013000000000000000000000000000000000000000000000000000000000000000000000000000000000000
#02518:000000000013000000000000000000000000000000000000
#02513:00000013
#02016:0013000000130000
#02017:0000001300000013
#02012:23
#02010:41
#0281b:00130013
#02817:0013000000000000
#02812:230013000000000013000000240000000000000000000033
#02816:000000000013000000000000240000000000130000000000
#02819:0000000000000013
#02814:000000000000000000000000000000000000000033330000
#0311b:230000130000000000131300
#03117:000000130000000000000000000000000000000000000013
#03112:001300001300000000000000
#03116:000000000013000000140000240000000000000000130000
#0311a:0024
#03315:0000000000000013
#03312:130000000000000000130033000000000000140000000014
#03318:000000000013
#0331b:00131300
#03317:0000001300000000
#03316:00130000
#03314:003300
#03212:23132413
#03216:0013001424000013
#03217:000000000013000000000000000000000000130000000000
#0321b:000013000000000013000000000000000000000000130033
#03219:000000000033
#03616:130000000014
#0361a:0000000000000014
#03614:0013000000130000
#0361b:00130000
#03619:0000001300000000
#03612:0013
#03913:1414141400000000
#03912:0016
#03919:1414141400000000
#03918:0016
#04112:000000000000000000130000000000000000000013000000
#04115:130000000000000000000000000000000000000000000013
#04118:0000130000001313
#0411b:0013
#01715:000000130000130013000000000000000000000000000013
#01718:130013000000000000130000000000000000000000130000
#01712:000000130013
#0171b:000000000013000000000013000000000000000000000000
#01812:000000000000000000000000130000000013000000000000
#01815:000000000000000013000000000000130000000000000000
#01818:000000000000130000130000000013000000000000000000
#0181b:000000000000000000000013000000000000130000000000
#01816:000000000000000000000000000000000000000000000013
#0161b:000000000000000000000013000000000000130000000000
#01618:1300001300000013
#01612:000000000000130000000000000000000000130000000013
#01615:230013000013
#0191b:1300001300001300
#01912:00131300
#01916:000000000000000013000000000000130000000000000000
#01918:000000000000000000000013000000000000000000000000
#01917:0000000000000013
#0061b:000000000000130000000000130013000000000000130000
#00612:000000000000000000000000000000000013000000000000
#00616:000000000000131300000000
#00617:000000000000000000000000000000000013000000000000
#00916:13
#0091b:000000000000130000130000130000000000000013000000
#00915:0000000013130013
#00918:000000130000000000000000000013000013000000000013
#00912:000000000000000000130000000000000013000000000000
#00812:00130000
#0081b:130000000000000000000000130013000000000000130013
#00816:000000130013
#00817:000000000000000000000000000000000013000000000000
#0101b:0000130000000012
#01012:130000000000131300000000
#01016:000000000000000000000000000000000013000000000000
#01017:0013
#01013:0000000000000012
#0431b:000000130000130000001300
#04315:0000000013130013
#04317:0013001300000000
#04318:000000000000000000000000000013000013000000000013
#04312:000000000000000000000000000000000013000000000000
#04215:00130000
#0421b:130000000000000000000000130000000000000000130013
#04216:000000130013
#04212:000000130000000000140000000000000013000000000000
#04217:0013000000000000
#04418:00130000
#04412:1300000013000013
#0441b:000000130000000000000000000000000013000000000000
#04417:0013
#04416:0013000000000000
#0441a:0000001400000000
#04410:41
#0451a:000000000000141400000000
#04517:000000000000000000000000000000000014000000000000
#04516:13
#04512:0000001300000000
#04515:0000000014000013
#0451b:000000000013
#04518:000000000000000000000000000000000000000000000013
#04618:0000131300000000
#04612:130000000000000000130000130000000000000000130013
#04617:000000000013
#0461b:0013000000000000
#04616:0013000000000000
#04718:0000000013130013
#04715:000000000000000000000000000013000013000000000013
#0471b:000000000000000000000000000000000013000000000000
#04712:000000000013
#04815:0000131300000013
#0481b:1300001313000013
#04812:0013000000000000
#04817:0013000000000000
#04917:1314
#0491b:0000001300000000
#04912:000000000000141400000000
#04915:000000000000000000000000000000000014000013000000
#04918:000000000000000000000000000000000000000000130013
#05018:00130000
#05019:0012
#05015:000000000000001200000000
#05017:000000000000000000000000000000000012000000000000
#00112:12120000
#00115:0012001200000000
#00114:00001212
#00117:0000000000120012
#00118:001200001200000000000000
#0011a:000000000000001200001200
#02212:0013000000000000
#02216:0000001300000000
#0221b:2313
#02217:0023000000130000
#0221f:11
#02213:000000000000003300000000
#02215:000000000000000000000033330000000000000000000000
#02215:000000000000000000000033000000000000000000000000
#03517:13
#03519:0013000000130000
#03512:0000130000000013
#03514:0000001300000000
#0351b:0000000013000013
#01119:0000000000000012
#01115:0000001200000000
#00356:0014
#0215b:5353
#02152:00630000
#02456:53
#02457:000053
#02555:53
#02558:000000000053000000000000000000000000000000000000
#0255b:0023
#02552:000000000023000000000000000000000000000000000000000000000000000000000000000000000000000000000000
#02856:00001453
#02957:00630000
#03257:00000063
#0325b:0000000000000023
#03256:0000006400000000
#03252:0014
#03156:0000005400000000
#0315a:0014
#03356:00530000
#03352:0000002300000000
#03852:63
#0385b:00630000
#03856:0023000000000000
#03857:0023
#03952:0016
#03958:0016
#04058:00530000
#0405b:0000000000230000
#04152:0000002300000000
#04155:63
#01658:53
#0165b:000000000000000000000013000000000000000000000000
#01752:0013
#0195b:63000063
#01952:0053
#01956:0000000000230000
#01957:0000000000000023
#0075a:000000000000000000000000000000000014000000000000
#0085b:53
#01052:63
#0425b:53
#04257:0023000000000000
#04252:000000000000000000000000000000000013000000000000
#04452:63
#0445b:000000000000000000000000000000000013000000000000
#04456:0023000000000000
#04652:63
#04656:0023000000000000
#0465b:000000000000000000000000000000000013000000000000
#0485b:53
#04857:0023000000000000
#04852:000000000000000000000000000000000013000000000000
#04552:000000000000000000000000000000000014000000000000
#0495a:000000000000000000000000000000000014000000000000
#05057:000000000000000000000000000000000012000000000000
#0025a:0000000000520000
#00254:0000000000520000
#02252:0053000000330000
#02256:0000002300000000
#0235b:0063000000430000
#02357:0000002300000000
#03052:0018
#03456:0018
#03556:0000000000330000
#03657:0000000000430000
#04352:000000000000000000000000000000000013000000000000
#0475b:000000000000000000000000000000000013000000000000
#02756:0014
#0023a0:0000000000120000
#002380:000000000000000000000000000000000000000032220000
#002341:0000000000120000
#002351:000000000032
#002361:0000000000000022
#0043b1:13230000
#006321:13230000
#0083b1:13
#008371:00230000
#008361:000000000000001300000000
#008321:000000000000000000000000000000000023000000000000
#009321:0013000000000000
#009351:00230000
#010321:13
#010361:00230000
#010371:000000000000001300000000
#0103b1:000000000000000000000000000000000023000000000000
#0113a1:120032320032000000000000000000000000000000000000
#011381:000000000000320032220000000000000000000000000000
#011341:000000000000000000000000120032320032000000000000
#011361:000000000000000000000000000000000000320032220000
#012361:12220000
#014321:1222000000000000
#014380:0012220000000000
#015380:0000001222000000
#016380:13
#0163b0:00230000
#0183b0:13
#018380:0023000000000000
#018351:0013000000000000
#018321:00230000
#0193b1:13
#019371:00230000
#019321:00001323
#019361:0000000000530000
#0193b0:00000013
#019370:0000000000000053
#0203b0:33230000
#020321:00132300
#0203b0:00001323
#020321:00000013
#021321:23
#0213b0:13
#021380:00230000
#021321:00130000
#021351:0023
#0213b0:0013
#021380:00000023
#022320:0013000000230000
#022360:0000005300000000
#022350:000000000000000000000033330000000000000000000000
#022330:000000000000003300000000
#0233b0:0013000000230000
#023370:0000005300000000
#023380:000000000000000000000033330000000000000000000000
#0233a0:000000000000003300000000
#024360:13
#024320:00230000
#024370:000013
#0243b0:0000000000000023
#025350:130000000023000000000000000000000000000000000000
#025320:000000000053000000000000000000000000000000000000000000000000000000000000000000000000000000000000
#025381:000000000013000000000000000000000000230000000000
#0253b1:0053
#026341:120032320032320032320032220000000000000000000000
#0263a0:120032320032320032320032220000000000000000000000
#027360:0000001424000000
#028360:0000001424000000
#028360:00000013
#028340:000000000000000000000000000000000000000033330000
#028320:000000000000000000000000000000000000000000000033
#029320:23
#029370:00130000
#029390:000000000000000033330000000000000000000000000000
#0293b0:000000000000000000000033230000000000000000000000
#031360:0000001400000000
#0313a0:0024
#032360:0000001400000000
#032320:0024
#032370:00000013
#032390:000000000033
#0323b0:000000000000000000000000000000000000000000330033
#033370:23
#033360:00132300
#033340:003300
#033320:000000000000000000330033000000000000000000000000
#035340:1323000000000000
#0353b0:0000132300000000
#035360:0000000013230000
#036390:1323000000000000
#036320:0000132300000000
#036370:0000000013230000
#038320:13230000
#038360:0053000000000000
#0383b1:00130023
#038371:0053
#040381:00130000
#0403b1:0000000000530000
#041381:23
#041350:13000023
#041320:0000005300000000
#0423b0:13230000
#042370:0053000000000000
#0423b0:000000000000001300000000
#042370:000000000000000000000000000000000023000000000000
#043360:13
#043320:0023000000000000
#043360:00130000
#043320:0000002300000000
#044320:13230000
#044360:0053000000000000
#044320:000000000000001300000000
#044360:000000000000000000000000000000000023000000000000
#0453b0:1323000000000000
#045351:0013230000000000
#045380:0000132300000000
#045350:000000000000001400000000
#045320:000000000000000000000000000000000024000000000000
#046320:13230000
#046360:0053000000000000
#046320:000000000000001300000000
#046360:000000000000000000000000000000000023000000000000
#046371:000000000000001300000000
#0463b1:000000000000000000000000000000000023000000000000
#047371:13
#0473b1:0023000000000000
#047360:0013000000000000
#047320:00230000
#047371:00130000
#0473b1:0000002300000000
#047360:0000001300000000
#047320:0023
#0483b0:13230000
#048370:0053000000000000
#0483b0:000000000000001300000000
#048370:000000000000000000000000000000000023000000000000
#048361:000000000000001300000000
#048321:000000000000000000000000000000000023000000000000
#049321:13
#049351:0023000000000000
#049380:0013000000000000
#0493b0:00230000
#049321:00130000
#049351:0000002300000000
#049371:000000000000001400000000
#0493a1:000000000000000000000000000000000024000000000000
#050351:13230000
