This file was generated by Ched 2.6.4.0.
#TITLE ""
#ARTIST ""
#DESIGNER ""
#DIFFICULTY 0
#PLAYLEVEL
#SONGID ""
#WAVE ""
#WAVEOFFSET 0
#JACKET ""
#REQUEST "ticks_per_beat 480"
#00002: 4
#BPM01: 116
#00008: 01
#TIL00: ""
#HISPEED 00
#MEASUREHS 00
#0001a:12120000
#00016:0012001200000000
#00018:00001212
#00014:0000000000120012
#0021a:1212
#00216:00120000
#00218:0012000000000000
#00214:0000001212000000
#0011a:1212
#00116:0012000000120000
#00118:00120012
#00114:0000001200000012
#00515:1300130000130000
#0051b:000000130000000000130000000000000013000000000000
#00518:000000000000001300000000
#00512:0013
#00415:0013
#00418:000000000000001300000000
#00412:000000000000000000000000000000000013000000000000
#0041b:0000000000000013
#00410:41
#0071a:0014
#00718:130000000000000000000000000000000014000000000000
#00712:0013000000000000
#0071b:00130000
#00715:0000001300000000
#00714:000000000000001400000000
#0061b:000000000000000000000000000000000013000000000000
#00612:0000000000000013
#00615:000000000000001300000000
#00618:0013
#01514:12
#01516:00121200
#0151a:0012000000000000
#01518:0000001200000000
#0151b:0000000000000013
#01512:0000000000000013
#0131a:0012000000000012
#01314:0012
#01316:12120000
#01318:0000001200000000
#01416:1200000000120000
#01414:00120000
#0141a:00000012
#01418:0012000012000000
#01214:00000012
#01218:000000000000000000000012000000000000000000120000
#01216:0000001200000000
#01210:41
#01116:0000000000000012
#01118:12
#01113:0012000000000000
#01119:00120000
#0111a:0012
#01115:0000000000120000
#0111b:00000012
#01114:0000001200000000
#01715:00131300
#01712:13
#01718:0013000000000013
#0171b:0000001300000000
#01815:00001313
#0181b:0000001300130000
#01812:13130000
#01818:0013000000000000
#0161b:000000000000000000000013000000000000000000000000
#01615:231300
#01612:00000013
#01618:0000130000000013
#0211b:0000001300000013
#02118:0013000000130000
#02115:00130013
#02112:1313
#02018:0013001300000000
#0201b:0000000000130013
#02012:23130000
#02015:00001313
#02010:41
#02215:0013000000000000
#02218:2300000000130000
#0221f:11
#02212:23
#02318:0013000000000013
#02315:2300000000130000
#0231b:23
#02418:0000000013000013
#02415:1300001300000000
#02515:13
#02513:000000000033000000000000000000000000000000000000
#02712:0013131300000000
#02718:0013001300000013
#02715:00000013
#0271b:2323
#0271f:21
#02710:0041
#02618:00000013
#02615:0000000000000013
#0281b:0013131300001300
#02818:0000000000000013
#02815:0013001300000000
#02812:2323
#03018:1300000026000013
#03012:0013000000000000
#03015:0000001300001300
#0301b:00130000
#02915:1300001300000013
#0291b:13000013
#02918:0013
#02912:00131300
#03118:00130013
#0311b:0013001300000000
#03115:0013001300000013
#03112:2323
#03212:0013001300001400
#03216:0000000000000014
#03215:00130000
#03218:0013001300000000
#0321b:2323
#03415:13
#0341b:0013000000001313
#03418:0000001300000000
#03412:0000130026001313
#03318:0000000000000013
#03312:14001413
#0331a:14141400
#03316:0000001400000000
#03515:1313
#03518:0013001300000000
#03512:0000130000000013
#0351b:0000000000130013
#03618:1313
#03615:0013001300000000
#0361b:0000130000000013
#03612:0000000000130013
#03918:0013001300000000
#03915:13130000
#03912:0016
#03715:0013000013001300
#03712:0000001300000013
#03718:1300130000130000
#0371b:0000001300000013
#03815:00130000
#03818:1300000000000013
#03810:41
#04118:00000013
#04115:0000130000000013
#04112:0013
#0431b:00131300
#04315:000000130000000000000000000013000000000000000000
#04312:000000000000000000130000000000000013000000000000
#04318:1300000000130013
#04218:1313
#04212:0000001300000013
#04215:000000000000000000000000000013000013000000000000
#0421b:000000000000000000000000000000000013000000000000
#04415:1313
#0441b:0000001300000013
#04412:000000000000000000000000000000000013000000000000
#04418:000000000000000000000000000013000013000000000000
#04410:41
#04514:000000000000000000000000140000000014000000000000
#04512:13
#04518:000000130000000000000000000014000000000000130000
#04515:00130000
#0451b:0000001300000000
#04715:0000130000130013
#04712:1313
#0471b:000000130000000000000000000000000013000000000000
#04718:000000000000000000130000000013000000000000000000
#04615:1313
#0461b:0000001300000013
#04618:000000000000000000000000000013000013000000000000
#04612:000000000000000000000000000000000013000000000000
#04818:1313
#04812:0000001300000013
#0481b:000000000000000000000000000000000013000000000000
#04815:000000000000000000000000000013000013000000000000
#04918:1314
#04912:0013000000000000
#0491b:00130000
#04915:0000001300000013
#0491a:000000000000000000000000000000000014000000000000
#04914:000000000000001400000000
#0401b:13
#04012:13
#04018:00230000
#00912:1313
#00915:0000130000130000
#00918:000000130000000000000000000013000000000000000000
#0091b:000000000000000000130000000000000013000000000000
#0081b:0000000000000013
#00812:000000000000000000000000000000000013000000000000
#00818:000000000000001300000000
#00815:0013
#0101b:000000000000000000000000000000000013000000000000
#01015:000000000000001300000000
#01018:0013
#01012:0000000000000012
#01915:0000001300000000
#01912:13
#01918:13
#00312:00240000
#00316:0024
#0031a:24
#00356:0014
#00758:000000000000000000000000000000000014000000000000
#01755:0013
#0165b:000000000000000000000013000000000000000000000000
#02255:0053000000000000
#02258:0000000000130000
#02458:0053
#02455:53
#02555:63
#03058:0016
#03452:0016
#0355b:0000000000130000
#03652:0000000000130000
#03952:0016
#03855:00630000
#04352:000000000000000000000000000000000013000000000000
#04258:53
#04455:63
#04554:000000000000000000000000000000000014000000000000
#0475b:000000000000000000000000000000000013000000000000
#04655:63
#04858:53
#0495a:000000000000000000000000000000000014000000000000
#05055:000000000000000000000000000000000013000000000000
#02358:0063000000000000
#02355:0000000000130000
#02852:0013
#0275b:0013
#03152:0013
#0325b:0013
#04058:00530000
#002340:0000000000123222
#0023a1:0000000000123222
#0043b1:13230000
#006321:13230000
#0083b1:13
#008381:00230000
#010321:13
#010351:00230000
#0123c1:12220000
#019381:0013
#0193b1:00000023
#022351:0013000000000000
#022321:0023
#023381:0013000000000000
#0233b1:0023
#024351:13
#024321:00230000
#024381:0013
#0243b1:00000023
#025351:13
#025331:000000000033000000000000000000000000000000000000
#025321:00000023
#026361:140034340034340034340034240000000000000000000000
#038351:00130000
#038321:00000023
#040381:00130000
#0413b1:23
#042381:13
#0423b1:00230000
#044351:13
#044321:00230000
#046351:13
#046321:00230000
#048381:13
#0483b1:00230000
#050381:13230000
#050351:000000000000000000000000130033000023000000000000
