This file was generated by Ched 2.6.4.0.
#TITLE ""
#ARTIST ""
#DESIGNER ""
#DIFFICULTY 0
#PLAYLEVEL
#SONGID ""
#WAVE ""
#WAVEOFFSET 0
#JACKET ""
#REQUEST "ticks_per_beat 480"
#00002: 4
#BPM01: 116
#00008: 01
#TIL00: ""
#HISPEED 00
#MEASUREHS 00
#0051b:130000130013
#00515:000000000000130000000000000016160000000000000000
#00516:0000000013000013
#00518:0013000000000000
#00517:000000000000000000000000000000000013000000000013
#00512:000000130000000000130000000000000013000000000000
#00416:00130000
#00412:000000130000000000000000000013000013000016000000
#00418:0000000000000013
#00417:000000000000000000130000000000000013000000000000
#00410:41
#01317:0012121200000000
#01314:121200001200000000000000
#0131a:000000000012000000000000000000000000000000000000
#01315:0000000000000012
#01318:000000000012
#01319:000000000000000000000000000000000000000000000012
#03812:13001313
#03816:0013000013000000
#0381b:0013130000000000
#03819:0000000000000012
#03814:0000001300130000
#03815:000000000000000000000000000000000000000012000019
#03810:41
#01515:12
#01517:000012000012000012000000000000000000000000000000
#0151b:0012000000000000
#01514:0000000000000013
#01519:0000000000000013
#01513:0000001200000000
#01516:0012
#01518:0012
#01416:00121200
#01419:0000000000120000
#01412:000000000000000000120000000012000000000000120000
#0141c:00001212
#01415:000000000000000000000000000000000012000000000000
#01418:0000001200000012
#04012:1300000000130000
#0401b:1300000000130000
#04018:00230000
#04015:00230000
#0001c:12
#00016:120000120000000000000000000000000000000012000000
#0001a:000012000000120000000000000000000000120000120000
#00014:000000000000120000120000000012000000120000000000
#00018:000000000000000012000000120000120000000000000000
#00012:0012
#00212:1200120012120000
#00219:0012000000000000
#00215:000000000000000000120000000000000000000032000000
#00217:001200001200000000000000
#0021c:1200120012120000
#00218:000000000032
#00312:230000000013
#00317:0000000000000013
#00316:000000000000000000000000240000000000000000000013
#00314:00230000
#00319:00230000
#0031b:23
#00716:000000000000000000000000000014000014000000000000
#0071a:000000000000000000000000140000000014000000000000
#00717:0000000000000013
#00718:13
#0071b:0000001300000000
#0121b:00120000
#0121c:12000012
#0121a:000000000012
#01217:000000000000000000000000000000000000000000120012
#01212:12120012
#01210:41
#02115:000000000000000000000000000000000000000016000016
#0211b:000000000000000013000000000000130000000000130000
#02117:0013000000001300
#02112:001300000000001300130000
#02116:0000001300000000
#02215:000000000000000000000000160000160000000016000016
#0221b:000000230000000000000013000000000000000000000000
#02212:230000000000001300000000000013000000000000130000
#02216:0013000000000000
#0221f:11
#02317:0013000000000013
#02312:000000230000000000000013000000000000000000130000
#02315:0000000016160000
#0231b:230000000000001300000000000013000000000000000000
#02412:0013000000130013
#02417:000013
#0241b:130000000000000000000000130000000000000000000000000000000000000000000000001300000000000000000000
#02416:1313000000000000
#02415:00000013
#02519:130000000013000000130000130000130000130000000000
#02516:00000000001300000013000000130000
#02514:130000000013000000130000130000130000130000000000
#02512:00000000000000130000001300000000
#0251b:00000000001300000013000000130000
#02517:00000000000000130000001300000000
#02617:000000000013
#02612:000000000000000000000000000000000000130000000013
#0281b:000000000013000000000000000000000000130000000000
#02816:000000001300000000000000000000001300000000140000000000000000140000000000130000000000000000001300
#02812:2300001424000000
#02817:0000000000000013
#0281a:0024
#03112:000000130000241400130000
#03117:0013000000001313
#03116:0000001424140000
#0311a:00000000000000140000000000000000
#0311b:23
#03016:0000000000001313
#0301b:001300000000000000130000
#03015:190000160000000016160000000000000000000000000000
#03012:0000000000161600000000002c0000000000000000000000
#03018:000000000000000000000016000000000000000000000000
#01917:1300000000000013
#01912:00131300
#0191b:0013001300001300
#01916:000000000000000013000000000000130000000000000000
#01918:000000000000000000000013000000000000000000000000
#01914:0000000000000013
#01919:0000000000130000
#01814:000000000000000000000000000000000000000000000013
#01818:000000000000000000000013130000000000000000000000
#01815:000000000000000000000000000013130000000000000000
#01817:00130000
#0181a:000000000000000000000000000000000013130000000000
#01813:000000000000000013130000000000000000000000000000
#0061b:000000130000000000000000000013000013000000130000
#00615:0000000000000013
#00617:00130000
#00616:000000000000000000130000000000000013000000000000
#00812:00131300
#0081b:1300001300000000
#00816:000000000000000000130000000000000013000000000000
#00814:0013000000000000
#00818:000000000016
#00815:0000000000000013
#00916:0000130013000013
#0091b:0013000013000000
#00915:000000000000000000000000000016160000000000000000
#00917:000000000000000000000000000000000013000000000000
#00912:000000000000000000130000000000000013000000000000
#0101b:0000130013000012
#01012:1300001300000000
#01017:000000000000000000130000000000000013000000000000
#01013:0000000000000012
#01019:0013000000000000
#0421b:130000000000130000000000130000000013000000000000
#04212:000000130000000000130000000013000000000013000000
#04217:000000000000000000130000000013000000000000130000
#04216:000000000000000000000000000000000000000000000000130000000000001300000000000000000000000000001300
#04312:000000000000000000000000000000130000000000000000130000000000000000001300000000000000000000000000
#04315:000000000000000000000000000000000016000000000000
#04317:00130000001300001300130000000000
#0431b:130000130000000000001300
#04316:000000130000130000000000000000000000000000140014
#04112:000000000000130000000013000000000000000013000000
#04116:000013000000000000000000000000000000000000140014
#04119:0013000000000000
#04114:0000001300000000
#04117:001300
#04113:0013000000000000
#0411a:0000001300000000
#0411b:000000000000130000000013000000000000000000000000
#0451b:000000000000000000000000000000130000000000000000130000000000000000000000000000001300000000000000
#04517:000000130000130000000000000013000000000000000000
#04516:00130000001300001300000000000000
#04512:130000130000001300000000
#04515:000000000000000000000000000000000000000000160016
#04414:0000000000000013
#04412:130000000000130000000000130000000013000000000000
#04416:000000000000000000130000000013000000000000000000
#04417:000000000000000000000000000000000000000000000000130000000000001300000000000000000000000000000000
#0441b:000000130000000000130000000013000000000000000000
#04419:0000000000000013
#04410:41
#04915:000000000000000000000000000000000000000016160000
#04912:00000013000000000000000013000000000000000000001c
#04916:000000000000000000130000000000000000130000000000000000001300000000000000000000000000000000000000
#04917:00130000001300001300000000000000
#0491b:130000130000001300000000
#0501b:0012
#05015:000000000000001200000000
#05014:000000000000000000000000000000000012000000000000
#05012:1c
#05013:0012
#05019:000000000000001200000000
#0501a:000000000000000000000000000000000012000000000000
#01718:131300131300000000000000
#01712:0013
#0171b:000000130013000000000000000000000000000000000000
#01715:000000000000000000130013000000000000000000000000
#01719:0000000000000013
#01716:000000000013
#01714:000000000000000000000000000000000000000000000013
#0161b:230000000000130000000013000000000000130000000000
#01612:000000000000130000000013000000000000000013000000
#01615:000000000000000013000000000000000000130000130013
#01618:0013001300000000
#0201b:000000130000000000000000000000000000000013000000
#02015:000013000000000000000000000000000000000000130000
#02012:230000000000000000130000000013000000000000000000
#02018:000000000000000013000000000000130000000000000000
#02010:41
#02716:000000000000000000000000000000000000000000140000000000000000140000000000000000001300000000000000
#0271b:230000000000000000000000000000000000130000000013
#02717:001300001300000000000000
#02712:000000000013000000000000240000000000000000000000
#0271a:0000001424000000
#0271f:21
#02710:0041
#02916:0013001300130000
#0291b:0013000000130000
#02912:000000000000130000000000000000000000000000160013
#02918:000000000000000000161300
#02917:000000000000130000000013000000000000000000000000
#03216:0013001424141300
#0321b:00130013
#0321a:000000000000241400000000
#03212:23000000000000140000000000000000
#0331b:130000000000000000000000000000000000000000000013
#03318:0013000000000016
#03315:001300000000000000001300
#03312:0000130013131600
#03317:0000130013130000
#03316:13
#0471b:000000130000000000000000130000000013000000000000
#04715:000000000000000000000000000000000016000000160016
#04716:00130000001300001300130000000000
#04712:130000130000000000001300
#04717:00000013000013000000000000000000
#0461b:000000130000000000130000000013000000000013000000
#04616:0000000000000013
#04612:130000000000130000000000000000000013000000000000
#04617:000000000000000000000000000000000000000000000000130000000000001300000000000000000000000000000000
#04812:000000130000000000130000000013000000000013000000
#04817:0000000000000013
#0481b:130000000000130000000000000000000013000000000000
#04816:000000000000000000000000000000000000000000000000130000000000001300000000000000000000000000000000
#0011c:12
#00115:000000120000000000000000000012000000000000000000
#0011a:00120012
#00113:0000001200000000
#00117:000012000012
#00116:12
#00119:000012000000000000000000000000120000000000000000
#00114:00120012
#00112:0012
#0011b:0000000000000012
#00118:0012
#03412:1900130000000000000000162c0000000000130000000000
#03413:0000000000000013
#0341b:00000013
#0341a:0000000000000013
#03415:000000160000000016160000000000000000000000000000
#03418:000000000016160000000000000000000000000000000000
#03515:000000000000000000000000000000001300000000000000000000130000000000000000000000000000000000000000
#03517:001300000000000000000000
#03518:000000000000000000130000000013000000000000000000
#0351b:130000000000000000000013000000000000000000000000
#03512:0013130013000000
#0351a:0000000000000013
#03513:0000000000000013
#03618:000000000000000000000000000000001300000000000000000000130000000000000000000000000000000000000000
#03616:000013000000000000000000000000000000000000000018
#03615:000000000000000000130000000013000000000000000000
#0361b:0013130013000000
#03612:130000000000000000000013000000000000000000180000
#03617:000000000013
#03918:0000001300000000
#0391b:0013000000000000
#03915:000000000019130000000000000000000000000000000000
#03912:13001900000000001900001c1c0000000000000000000000
#03712:000013180000000000000000000018000000000018130000
#0371b:000000000000130000000000000000000013000000000000
#03716:130000000018000000000013180000000000180000000000
#03717:000000000000000000000000000000130000000000000013
#03713:0000001400000000
#03719:0000001400000000
#00356:0014
#02255:0000000000160000
#02256:0053000000000000
#02252:000000000000002300000000000000000000000000000000
#02456:53
#02457:000053
#02452:0023000000000000
#0245b:000000000000000000000000000000000000000000000000000000000000000000000000002300000000000000000000
#02554:000000000053000000530000530000530000530000000000
#02556:00000000002300000023000000230000
#02552:00000000000000230000002300000000
#0255b:00000000002300000023000000230000
#02559:000000000053000000530000530000530000530000000000
#02557:00000000000000230000002300000000
#03156:0000005434000000
#0315a:00000000000000240000000000000000
#03152:0034
#03852:63
#0385b:00630000
#03856:0023000023000000
#0405b:0000000000230000
#04058:00630000
#04052:0000000000230000
#04055:00530000
#01957:6300000000000023
#01952:0053
#01956:0000000000230000
#0195b:0023000000006300
#0075a:000000000000000000000000000000000014000000000000
#0085b:53
#00856:000000000000000000000000000000000013000000000000
#01052:63
#01057:000000000000000000000000000000000013000000000000
#0425b:530000000000000000000000000000000043000000000000
#04252:000000530000000000000000000063000000000000000000
#04256:000000000000000000000000000000000000000000000000000000000000002300000000000000000000000000000000
#05054:000000000000000000000000000000000012000000000000
#05052:5c
#0505a:000000000000000000000000000000000012000000000000
#01556:0052
#01558:0052
#01752:0013
#01857:00130000
#0185a:00000013
#02856:00000000000000240000000053000000
#02852:0000005434000000
#02857:0000000000000063
#0325b:00000063
#03256:0000006444000000
#03252:00000000000000240000000000000000
#0325a:0044
#0335b:43
#03352:00533300
#00452:000000000000000000000000000000000013000000000000
#00557:000000000000000000000000000000000013000000000000
#00952:000000000000000000000000000000000013000000000000
#0435b:5300534300000000
#04357:00230000002300000000000000000000
#04355:000000000000000000000000000000000016000000000000
#04356:0033530000000000
#04352:00000000002300000000000000000000
#04452:630000000000000000000000000000000033000000000000
#0445b:000000630000000000000000000053000000000000000000
#04457:000000000000000000000000000000000000000000000000000000000000002300000000000000000000000000000000
#0455b:000000000000000000000000000000230000000000000000530000000000000000004300000000000000000000000000
#04552:630000000000630000330000000023000000000000000000
#04557:000000430000630000000000000023000000000000000000
#04556:000000230000000000000000000000230000000000000000000000000000000000004300000000000000000000000000
#04755:000000000000000000000000000000000016000000000000
#04752:6333633300000000
#04756:00230000002300000000000000000000
#0475b:4353430000000000
#04757:00000023000000000000000000000000
#04652:630000000000630000000000000000000033000000000000
#0465b:000000630000000000000000000053000000000000000000
#04657:000000000000000000000000000000000000000000000000000000000000002300000000000000000000000000000000
#04952:330000630000330000000000630000000033000000000000
#04956:000000000000000000230000000000000000000000000000000000002300000000000000000000000000000000000000
#0495b:530000430000530000430000000023000000000000000000
#04957:000000230000000000000000000000230000000000000000000000000000000000003300000000000000000000000000
#0485b:530000000000530000000000000000000043000000000000
#04852:000000530000000000000000000063000000000000000000
#04856:000000000000000000000000000000000000000000000000000000000000002300000000000000000000000000000000
#0205b:0013000000000000
#02052:0000001300000000
#02058:0000000000130000
#02055:0000000000000013
#02157:0013000000000000
#02156:0000001300000000
#0215b:0000000000130000
#0165b:00000013
#01652:000000000000000000000013000000000000000000000000
#00252:0000000000520000
#0025c:0000000000520000
#02355:0000000000160000
#02357:0063000000000000
#0235b:000000000000002300000000000000000000000000000000
#03052:001c
#03952:001c
#0295b:13
#02957:00630000
#02956:0000005300000000
#02952:0013
#02756:00000000000000240000000000000000
#0275a:0000006444000000
#0265b:0042
#02653:0032
#0065b:000000000000000000000000000000000013000000000000
#0125c:52
#01252:52
#01354:005200
#01357:0000005200000000
#03555:00000000000000000023000000000000
#03552:0000000063330000
#03658:00000000000000000023000000000000
#0365b:0000000053430000
#03452:001c
#0023c0:0000000000120000
#002380:000000000000000000000000000000000000000032220000
#002321:0000000000120000
#002351:000000000032
#002361:0000000000000022
#003321:1323000000000000
#0033b0:1323000000000000
#003340:0000132300000000
#003391:0000132300000000
#0043b1:13230000
#004361:0053000000000000
#004321:0000001300000000
#004361:0023
#0043b0:000000000000132300000000
#004350:000000000000000000000000000000000000000000000016
#005350:26
#005380:00130000
#0053b0:0000002300000000
#006320:13230000
#006370:0053000000000000
#0063b0:0000001300000000
#006370:0023
#006321:000000000000132300000000
#007321:1323000000000000
#007380:0013230000000000
#007351:0000132300000000
#007361:0014
#007321:000000000000002400000000
#007321:000000000000000000000000000000000000000013230000
#007361:000000000000000000000000000000000000000000000013
#008361:23
#0083b0:13
#008360:00230000
#008370:0013
#0083b0:000000000000002300000000
#008371:000000000000001300000000
#008321:000000000000000000000000000000000023000000000000
#008351:000000000000000000000000000000000000000000000016
#009351:26
#009320:13
#009370:0023000000000000
#0093b0:00130000
#009360:0000002300000000
#0093b0:000000000000000000000000000000000000000013230000
#009370:000000000000000000000000000000000000000000000013
#010370:23
#010321:13
#010371:00230000
#010361:0013
#010321:000000000000002300000000
#010360:000000000000001300000000
#0103b0:000000000000000000000000000000000023000000000000
#010350:000000000000000000000000000000000000000000000012
#011320:323200323200000000000000
#011350:000000320032000000320032320032320032320032220000
#010391:000000000000000000000000000000000000000000000012
#011391:320032320032320032000000320032000000320032000000
#0113c1:000000000000000000320032000000320032000000220000
#0123c1:12
#012381:0022000000000000
#012320:12
#012360:0022000000000000
#012390:000000000000000012000022000000000000000000000000
#012351:000000000000000000120022000000000000000000000000
#013341:001200
#013321:0022
#013370:0000001200000000
#0133a0:0022
#014360:12
#014320:0022000000000000
#014381:0012000000000000
#0143c1:00220000
#0153a1:122200000000000000000000
#015341:000000122200000000000000
#015381:0012
#0153c1:00000022
#015360:0012
#015320:00000022
#016320:13
#016350:0023000000000000
#018370:13
#0183b0:0023000000000000
#018361:0013000000000000
#018321:00230000
#019371:13230000
#0193b1:0053000000000000
#019321:00001323
#019361:0000000000530000
#0193b0:00000013
#019370:0000000000000053
#0203b0:332300000000000000000000
#020320:000000132300000000000000
#020380:000000000000132300000000
#020350:000000000000000000132300
#0213b0:13
#021370:002300000000000000000000
#021320:00130000
#021360:002300
#021370:0013
#0213b0:000000000000002300000000
#022360:000000130000000000000023000000000000000000000000
#022320:000000000000005300000000000000000000000000000000
#022381:000000000000000013230000000000000000000000000000
#023370:000000130000000000000023000000000000000000000000
#0233b0:000000000000005300000000000000000000000000000000
#023351:000000000000000013230000000000000000000000000000
#024360:13230000
#024320:0053000000000000
#024360:0000001300000000
#024320:0023
#0243b1:0000001300000000
#024371:0023
#024371:000000000000000000000000000000001300000000230000
#0243b1:000000000000000000000000000000000000000000000000000000000000000000000000005300000000000000000000
#025341:000000000013000000530000530000530000530000230000
#025361:00000000005300000053000000530000
#025321:00000000000000530000005300000000
#025390:000000000013000000530000530000530000530000230000
#0253b0:00000000005300000053000000530000
#025370:00000000000000530000005300000000
#026330:123200323200220000000000
#026350:000000320032000000320032000000000000000000000000
#0263b1:123200323200220000000000
#026391:000000320032000000320032000000000000000000000000
#0263b1:000000000000000000132300
#026371:000000000000000000000000000000000000000000130023
#0273b1:132300000000000000000000
#027371:000000130023000000000000000000000000000000000000
#0273b1:000000132300000000000000
#0273a1:0000001424000000
#027361:00000000000000540000000000000000
#027321:000000000000000000132300
#027361:000000000000000000000000000000000000000000130023
#028321:132300000000000000000000
#028361:000000130023000000000000000000000000000000000000
#028321:000000132300000000000000
#028321:0000001424000000
#028361:00000000000000540000000000000000
#028361:00000013
#028321:0000000000000023
#028370:0000000000000013
#0293b0:23
#029370:00130000
#0293b0:0000002300000000
#029361:0000001300000000
#029321:0023
#030321:000000000000000000000000000000000000000013230000
#030361:000000000000000000000000000000000000000000000013
#031361:23
#0313b1:000013230000000000000000000000000000000000000000
#031371:000000000013230000000000000000000000000000000000
#031321:000000000000000013230000000000000000000000000000
#031360:0000001424000000
#0313a0:00000000000000540000000000000000
#0313b0:000000000000000000000000000000000000000013230000
#031370:000000000000000000000000000000000000000000000013
#032370:23
#032320:000013230000000000000000000000000000000000000000
#032360:000000000013230000000000000000000000000000000000
#0323b0:000000000000000013230000000000000000000000000000
#032361:0000001424000000
#032321:00000000000000540000000000000000
#0323b1:00000013
#032371:0000000000000023
#032320:0000000000000013
#032360:000000000000000000000000000000000000000000000023
#033320:00130000
#033360:0000002300000000
#0333b1:0000001300000000
#033371:000000000000000000000023000000000000000000000000
#035351:13
#035321:002300000000000000000000
#0353b1:00130000
#035381:002300
#035321:0000000013230000
#035351:00000000000000000053000000000000
#036381:13
#0363b1:002300000000000000000000
#036321:00130000
#036351:002300
#0363b1:0000000013230000
#036381:00000000000000000053000000000000
#038321:13230000
#038361:0053000000000000
#0383b0:00130023
#038360:0053
#040380:00130000
#0403b0:0000000000530000
#041380:23
#040351:00130000
#040321:0000000000530000
#041351:23
#041331:0000000000000000000000000000000000000000135353532300000000000000
#041341:00000000000000000000000000000000000000000000000000000000000000000000000000000000005300530053005300000000000000000000000000000000
#0413a0:0000000000000000000000000000000000000000135353532300000000000000
#041390:00000000000000000000000000000000000000000000000000000000000000000000000000000000005300530053005300000000000000000000000000000000
#0423b0:13
#042360:0023000000000000
#042321:0013000000000000
#042371:00230000
#042321:000000000000000000000000000013000023000000000000
#042361:000000000000000000000000000000000000000000000000000000000000005300000000000000000000000000000000
#0433b1:1323000000000000
#043371:00530000000000000000000000000000
#0433b1:0000132300000000
#043371:00000000005300000000000000000000
#043360:0000132300000000
#043320:00000000005300000000000000000000
#0433b0:000000000000000000000000000013230000000000000000
#044320:13
#044370:0023000000000000
#0443b1:0013000000000000
#044361:00230000
#0443b1:000000000000000000000000000013000023000000000000
#044371:000000000000000000000000000000000000000000000000000000000000005300000000000000000000000000000000
#045321:1323000000000000
#045361:00530000000000000000000000000000
#045321:0000132300000000
#045361:00000000005300000000000000000000
#045370:0000132300000000
#0453b0:00000000005300000000000000000000
#0453b0:000000000000000000000000130000000023000000000000
#045370:000000000000005300000000
#045321:000000000000001300000000
#045361:000000000000000000000000000000000023000000000000
#046321:13
#046371:0023000000000000
#0463b0:0013000000000000
#046360:00230000
#046321:00130000
#046371:0000002300000000
#046321:0013
#046361:000000000000002300000000
#0463b0:000000000000000000000000000013000023000000000000
#046370:000000000000000000000000000000000000000000000000000000000000005300000000000000000000000000000000
#0463b0:000000000000000000000000000000000000000000000013
#0473b0:23
#047321:1323000000000000
#047361:00530000000000000000000000000000
#0473b0:0013230000000000
#047370:00000053000000000000000000000000
#047321:0000132300000000
#047361:00000000005300000000000000000000
#047321:000000000000000000000000000013230000000000000000
#0483b1:13
#048361:0023000000000000
#048320:0013000000000000
#048370:00230000
#0483b1:00130000
#048361:0000002300000000
#0483b1:0013
#048371:000000000000002300000000
#048320:000000000000000000000000000013000023000000000000
#048360:000000000000000000000000000000000000000000000000000000000000005300000000000000000000000000000000
#048320:000000000000000000000000000000000000000000000013
#049320:23
#0493b1:1323000000000000
#049371:00530000000000000000000000000000
#049320:0013230000000000
#049360:00000053000000000000000000000000
#0493b1:0000132300000000
#049371:00000000005300000000000000000000
#049321:000000000000000000000000130000000023000000000000
#049361:000000000000005300000000
#0493b0:000000000000001300000000
#049370:000000000000000000000000000000000023000000000000
#050320:1c
#050370:00220000
