This file was generated by Ched 2.6.4.0.
#TITLE ""
#ARTIST ""
#DESIGNER ""
#DIFFICULTY 0
#PLAYLEVEL
#SONGID ""
#WAVE ""
#WAVEOFFSET 0
#JACKET ""
#REQUEST "ticks_per_beat 480"
#00002: 4
#BPM01: 116
#00008: 01
#TIL00: ""
#HISPEED 00
#MEASUREHS 00
#0001a:13131313
#00113:13131313
#00218:1313
#00215:00130013
#00514:1414
#00518:00140000
#00418:1414
#00414:00140000
#00410:41
#0061a:1414
#00614:00140000
#00712:1414
#00718:00140000
#00818:14
#00814:00140000
#0081a:0014
#00914:14
#00918:00140000
#00912:0014
#01018:1414
#01014:00140000
#01115:1313
#01118:00130000
#01315:00130000
#0131a:1313
#02618:1313
#02615:00130000
#02612:00000016
#02714:00141400
#02718:2600001400001600
#0271f:21
#02710:0041
#02812:16
#02818:00141400
#02814:0000001400000000
#02914:00000014
#0291a:0000000000000014
#03014:14141400
#0301a:0014001400000000
#03018:00000016
#0161a:1414
#01614:00140014
#01718:1414
#01712:00140000
#01812:1414
#01818:00140014
#01914:1414
#0191a:00140000
#02112:00140014
#02118:1414
#02014:00140014
#0201a:1414
#02010:41
#0241a:14
#02418:00140000
#02512:14
#02514:00140000
#03118:00141400
#03114:0000001400000000
#03112:26000016
#03218:1600001400000000
#03214:00141400
#03318:00000014
#03312:0000000000000014
#03418:14141400
#03412:0014001400000000
#03414:00000014
#03518:0014
#03514:0000000000140000
#03512:00140000
#0351a:14
#03612:14
#0361a:00140000
#03614:0014
#03618:0000000000140000
#03712:14140000
#03714:00001414
#03718:0014001400000000
#0371a:0000000000140014
#03814:14
#03810:41
#04213:14
#0421a:00140000
#04214:0014
#04218:00000014
#04219:14
#04312:14
#04318:00140000
#04314:0014
#0431a:00000014
#04419:14
#04413:14
#04412:00140000
#04418:0014
#04414:00000014
#04410:41
#0461a:14
#04614:00140000
#04712:14
#04718:00140000
#04818:14
#04814:00140000
#04914:14
#04918:00140000
#01513:1313
#01518:00130000
#01418:0013
#01415:13
#01215:0013
#01218:13
#01210:41
#0221a:14
#0221f:11
#02312:14
#04112:00000014
#04116:0014
#0411a:00140000
#0391a:14140000
#03918:00001414
#03914:0014001400000000
#03912:0000000000140014
#04018:14
#0451a:14
#04514:00140000
#04518:0014
#04512:00000014
#00318:24
#00314:00240000
#0031a:0024
#00312:0024
#02458:00240000
#0245a:64
#02552:54
#02554:00240000
#00352:0014
#0035a:0014
#0225a:64
#02352:54
#03054:0014
#03458:0014
#0223a0:14
#022380:0024
#023320:14
#023340:0024
#0243a0:1424
#024380:00540000
#025320:1424
#025340:00540000
#028340:00000014
#029340:24
#0283a1:00000014
#0293a1:24
#029381:00142400
#029320:00142400
#032380:00000014
#033380:24
#032321:00000014
#033321:24
#033341:00142400
#0333a0:00142400
#038380:00140000
#0383a0:00000024
#040340:00140000
#041320:24
#046380:00001424
#047340:00001424
#0483a0:00001424
#049320:00001424
#050350:160000000000360000000000360036000026000000000000
