This file was generated by Ched 2.6.2.0.
#TITLE ""
#ARTIST ""
#DESIGNER ""
#DIFFICULTY 0
#PLAYLEVEL
#SONGID ""
#WAVE ""
#WAVEOFFSET 0
#JACKET ""
#REQUEST "ticks_per_beat 480"
#00002: 4
#BPM01: 115
#00008: 01
#TIL00: ""
#HISPEED 00
#MEASUREHS 00
#00119:14
#00213:14
#00319:14
#00413:14
#00519:14
#00510:41
#00619:14
#01414:14
#01518:14
#01510:41
#01612:14
#02119:1414
#0211f:11
#02219:14
#02313:1414
#02413:14
#02813:14
#0291a:0014
#02919:24
#02913:24
#0291f:21
#03012:14
#0301a:0014
#03010:41
#03112:0014
#03113:24
#03119:24
#0321a:14
#03212:0014
#0331a:0014
#03313:24
#03319:24
#03412:14
#0341a:0014
#03514:14
#03518:0014
#03614:14
#03618:0014
#03712:14
#0371a:0014
#03814:14
#03818:0014
#03810:41
#00913:14
#00910:41
#01013:14
#0131a:14
#01919:14
#01910:41
#02013:14
#02519:14
#02613:14
#02719:14
#0411a:14
#04212:14
#04216:0000000000000014
#007390:14
#008390:0024
#011330:14
#012330:0024
#017390:1424
#018330:1424
#039330:1424
#040390:1424
