This file was generated by Ched 2.6.2.0.
#TITLE ""
#ARTIST ""
#DESIGNER ""
#DIFFICULTY 0
#PLAYLEVEL
#SONGID ""
#WAVE ""
#WAVEOFFSET 0
#JACKET ""
#REQUEST "ticks_per_beat 480"
#00002: 4
#BPM01: 115
#00008: 01
#TIL00: ""
#HISPEED 00
#MEASUREHS 00
#00117:00130000000000000000000000000000
#00112:13000013000000000000000013000000
#00115:00000000001313000000000000000000
#00116:0000000000130000
#0011b:00000000000000000013000000001300
#00418:00000000001313000000000000000000
#0041a:000000000000001414140000
#00412:000000000000000000000000000000130000130000000000000000001400000014000000140000000000000000000000
#00816:000000140000000000000000000000000000000000000000140000001400000014000000140000000000000000000000
#0081b:13000013000013000000000000000000
#00916:1313000013000000
#0091b:00130000000000001300000000000000
#00912:00000000130013000000001300001300
#00917:00000000001300000000000000000000
#00910:41
#01019:13
#0101b:00001300000013000000001300000000
#01012:0000130000130000
#01015:00000000000000001300000000130000
#01018:00000000000000000013000000000013
#01218:0013
#01215:00000000000000000013000000000000
#01216:000000000000000000000000000000001400001400000000
#0121b:130000000000000000000000000000000000001300000000
#01212:130000000000000000000000000000000000000000000000000000000000000013000000000000000000000000130000
#01312:00001300130000000000001300130000
#0131b:00000000001300130000000000000013
#01316:0000141414141400
#01416:0000141414140000
#0141b:00001300000013000000001300000000
#01412:00000000001300000013001300000000
#0151b:13130000
#01512:00130000130013000000000000000000
#01518:00001300000013001300001300000000
#01515:00000013000000001300000000001300
#01510:41
#01612:13130013
#01618:00130000130000130000001300130000
#01615:0013001313000000
#0161b:00000013000013000000000000000000
#01716:1414141400000000
#0171b:00130000000000001300001300000000
#01712:00000000001300000000000000001300
#01816:000000000000140000140000140000140000000014000000
#0181b:000000000000000000000000000000000000000000130000000000000000000000000000000000001300000000000000
#01812:00001300000000000000001300000000
#01912:13
#01913:0013000000000000
#01914:00130000
#01915:0000001300000013
#01916:0013
#01917:00000000000000000000001300000000
#01918:0000000000000013
#0191b:0013
#01910:41
#0201b:1300000013130000
#02018:00130013
#02015:0013130000000013
#02016:0000000000130000
#02117:13
#0211b:0013
#02112:13
#02116:0013
#0211f:11
#02212:130013001300130000000000000000130000130000000000
#02214:0000001300000000
#02216:0013
#02219:0000001300000000
#0221b:0013
#02217:00000013
#0231b:1300001300001300
#02318:0013000000130013
#02315:0000130013000013
#02312:0000001300001300
#02418:0013000000000000
#0241b:0000131300001300
#02417:0013
#02412:1313
#02416:0000131300001300
#02518:00120000001200120000000000000000
#02515:00001200000000000000120000120012
#0251a:00000012000000000000000000000000
#02512:00121200
#0251b:00000000000000000000001200000000
#02519:0000000000000012
#02513:12
#0261c:00120000000000000000000000000000
#02616:0012000000000000
#02619:000000000000000000120000000000000000000000000000000000000000120000000000000000000000000013000000
#02613:00120000
#0261b:00000000001200000000000000000000
#02615:00000000000012000000001200000000
#02618:00000000000000120000000000000000
#02612:0012
#02714:131400
#02717:001300000000000000000000
#0271a:00140000
#02718:000000000014000000000000
#02712:001300140000
#0271b:0000000000000013
#02716:0000000000000013
#0281b:13130000000000001300000013000000
#02818:0000000000130013
#02815:00000013
#02816:13130000000000000000000000000000
#02812:0013
#0291b:13001300000000000000001300130000
#02916:2424242400141414
#02912:0000131300000013
#0291f:21
#03015:0013130000000000
#03018:1300001300000000
#0301b:0013000013130013
#03012:1300001300001300
#03016:0000000000141414
#03010:41
#03112:1313000000001313
#0311b:0000131300000000
#03117:00000013
#03116:2424242400000000
#03218:1313130000000000
#03215:0000131300000000
#03212:0000000000131300
#0321b:0000000000000013
#03216:00000000000000000000001400001400
#03312:00000000240024000000001300130000
#03316:1313000000141414
#03317:0000131300000000
#0331b:0000000000000013
#0331a:2424000000000000
#03412:13000000000000131300000000001300
#03416:14131413
#0341b:00130000
#03414:0000000000130000
#0341a:0000000000001414
#03418:0000000000140000
#03518:0000131300000000
#03515:0000001300001313
#0351b:0000000000000013
#0351a:14
#03618:0000001313000000
#03615:00000000000000130000000000000000
#03612:0000000000131300
#03617:00000013
#0361b:0000000000130013
#03616:0000000000000013
#0371b:1300130000130000
#03712:1300001300001300
#03718:00000000000000130000000000000000
#03715:0013
#03716:0000130000130000
#03717:00000013
#03818:0000130000001313
#03815:00000013000000000000000000130000
#03812:1300001300000013
#0381b:0013000013000000
#03816:0013
#03817:1300001300000000
#03810:41
#03915:0000000000001313
#03918:00000000000000000000000000130000
#0391b:0000000000000013
#04016:0000000000121200
#04018:00000000000000000000001200120000
#0111b:00000000000000000000001300000013
#01116:0000001414000000
#01112:00000000000000130013000000000000
#00515:13130000
#00512:0013000000000013
#00518:00000013000013000000000000000000
#0051b:0013
#00516:0013
#00517:00000000000000000000001300001300
#00510:41
#00616:0013000000000000
#00618:00000000130000000013000000130000
#00615:00000000000013000000130000000013
#00612:0013
#0061b:00000000000000000000001300000013
#00716:0000001414000000
#00712:00000000000000000000001300000013
#0071b:00000000000000130013000000000000
#00216:00130000000000000000000000000000
#0021b:00130013000000000000000013000000
#00218:00000000001313000000000000000000
#00217:0000000000130000
#00212:00000000000000000013000000001300
#00317:00130000000000000000000000000000
#00312:00130013000000000000000013000000
#00315:00000000001313000000000000000000
#00316:0000000000130000
#0031b:00000000000000000013000000001300
#04118:00130000000013000000000000001300
#04112:00130013000000000000000013000000
#04115:00000000001300000000130000000000
#0411b:00000000000000000013000000000000
#04215:00130000000013000000000000001300
#0421b:00130013000000000000000013000000
#04218:00000000001300000000000000000000
#04217:0000000000130000
#04212:00000000000000000013000000000000
#00015:0000000000130013
#00018:00000000000000000000001300130000
#0125b:23
#01252:23
#01258:00000033000000000000000000000000
#01255:00000043000000000000000000000000
#0095b:0053
#00952:0000000000000053
#00957:00000000000000000000001300000000
#01555:0053
#01552:00000000000000000000001300000000
#01658:00000000000000000000000000530000
#02055:00530000
#0205b:23
#01958:0000000000000053
#01956:0053
#02252:00000053
#02355:0000000000000053
#02452:23
#02457:0063
#0245b:00000063
#0285b:00630000000000000000000000000000
#02856:00630000000000000000000000000000
#02956:1414141400000000
#03058:63
#03055:00630000
#0305b:0023000000000000
#03052:0000002300000000
#03156:1414141400000000
#03152:0000000000000053
#03258:00530000
#0335a:1414000000000000
#03352:0000141400000000
#0345b:00530000
#03452:0000000000000053
#03558:0000005300000000
#0355b:0000000000000053
#03555:0000000000000053
#0355a:14
#03955:0000000000000053
#03858:0000000000000053
#0385b:0063
#03856:0063
#0175b:00000000000000000000001300000000
#01852:0013000000000000
#03752:13000053
#03757:00000053
#0375b:13
#01356:0014000000000000
#01456:0014000000000000
#00556:0053
#00557:0000000000000053
#00552:00000000000000000000001300000000
#00655:00000000000000000000000000000053
#00752:0013000000000000
#0115b:0013000000000000
#01058:00000000000000000000000000000053
#00157:00630000000000000000000000000000
#00152:00000053
#00256:00530000000000000000000000000000
#0025b:00000063
#00357:00630000000000000000000000000000
#00352:00000053
#00452:00000014
#0045a:00000014
#04158:00630000000000000000000000000000
#04152:00000053
#04255:00530000000000000000000000000000
#0425b:00000063
#001370:00130000000000000000000000000000
#0013b0:00000023000000000000000000000000
#001320:00000013
#001360:0000000000000023
#002360:00130000000000000000000000000000
#002320:00000023000000000000000000000000
#0023b0:00000013
#002370:0000000000000023
#003370:00130000000000000000000000000000
#0033b0:00000023000000000000000000000000
#003320:00000013
#003360:0000000000000023
#004320:00130000000000000000000000000000
#004350:00000023000000000000000000000000
#004381:00130000000000000000000000000000
#0043b1:00000023000000000000000000000000
#005381:1323000000000000
#005361:0013
#005321:00000000000000000000002300000000
#005371:0000000000000013
#0063b1:0023000000000000
#006351:00000000000000000000000000000013
#007321:0023000000000000
#007361:00000000000000000000001400002400
#008361:00000014000024000000000000000000
#008321:000000000000133333230000
#0093b1:0013
#009371:00000000000000000000002300000000
#009321:0000000000000013
#010361:0023000000000000
#010381:00000000000000000000000000000013
#0113b1:0023000000000000
#011361:00000000000000000000001400002400
#0123b1:13
#012381:00000023000000000000000000000000
#012320:13
#012350:00000023000000000000000000000000
#012360:00000000000000000000000000000014
#013360:0024000000000000
#013360:00000000000000000000000000000014
#014360:0024000000000000
#015350:0013
#015320:00000000000000000000002300000000
#016380:00000000000000000000000000130000
#0173b0:23
#017360:00000000000000001400002400000000
#017360:0000000000000014
#018360:0024000000000000
#019380:13
#0193b0:0000002300000000
#019360:0013
#019320:00000000000000000000002300000000
#019380:0000000000000013
#0203b0:53
#020380:0023000000000000
#020350:00130000
#020320:0023
#022370:133333230000000000000000
#022320:00000013
#023360:23
#023350:0000000000000013
#024320:53
#024350:0023000000000000
#024370:0013
#0243b0:00000033
#025370:23
#0283b0:00130000000000000000000000000000
#028370:00230000
#028361:00130000000000000000000000000000
#028321:00230000
#030381:13230000
#0303b1:0053000000000000
#030350:00132300
#030320:0000005300000000
#031320:0000000000000013
#032350:0023000000000000
#032380:00130000
#0323b0:0023
#0343b0:00130000
#034370:00000000000000230000000000000000
#034320:0000000000000013
#035350:00230000
#035380:0000001300000000
#0353b0:0000000000003333
#036380:0023000000000000
#035351:0000000000000013
#036321:0023000000000000
#037321:00000013
#037361:0000000000000023
#037370:00000013
#0373b0:0000000000000023
#0383b0:0013
#038370:0000000000230000
#038361:0013
#038321:0000000000230000
#038381:0000000000000013
#0393b1:0033003300230000
#039371:00333300
#039360:0013003300230000
#039320:00333300
#039350:0000000000000013
#040320:0033003300000000
#040360:00332300
#040371:0013003300000000
#0403b1:00332300
#041381:00130000000000000000000000000000
#0413b1:00000023000000000000000000000000
#041321:00000013
#041351:0000000000000023
#042351:00130000000000000000000000000000
#042321:00000023000000000000000000000000
#0423b1:00000013
#042381:0000000000000023
