This file was generated by Ched 2.6.2.0.
#TITLE ""
#ARTIST ""
#DESIGNER ""
#DIFFICULTY 0
#PLAYLEVEL
#SONGID ""
#WAVE ""
#WAVEOFFSET 0
#JACKET ""
#REQUEST "ticks_per_beat 480"
#00002: 4
#BPM01: 115
#00008: 01
#TIL00: ""
#HISPEED 00
#MEASUREHS 00
#00412:0000001300000000
#00419:000000000000001400140000
#0041b:00000000001300000000000000000000
#00413:000014
#00415:00130013000000000000000000000000
#00418:0013000000000000
#00518:1300001300000013
#0051b:00131300
#00512:1300001300000013
#00515:00131300
#00510:41
#00615:0000001300000000
#00612:00000000000000000000130000130000
#00618:00000000130000001300001300000013
#00712:00000000000013001300001300000000
#00718:00000000000000130013000000000013
#00815:130000000000133333000000
#0081b:00000013000000000000000000000000
#00818:00130000000000000000000000000000
#00912:1300000000000013
#00915:0013000013000000
#00918:0000130000000013
#0091b:0000001313000000
#00910:41
#01018:00131300
#01015:00000000000013000000130000130000
#0101b:00000000000000000000001300000013
#01115:00000000000013000013000000000000
#01118:00000000000000001300000000000013
#01119:00000000000000000000001400000000
#01113:00000000000000000000001400000000
#01218:000000131300
#01215:000000000000000000000000000000000000000000000000000000130000000000000000000013000000000000000000
#01315:00131300
#01318:00000000000013000000130000130000
#01312:00000000000000000000001300000000
#01415:0000001300130000
#01418:00000000130000001300001300000000
#0151b:1313130000000000
#01515:00130013000000000000000000000000
#01512:0000001300000000
#01518:0000000013000013
#01510:41
#01612:1313130000000000
#01618:00130013000000000000001300000000
#0161b:0000001300000000
#01615:00000000000000001300000000130000
#01718:0013000000000000
#0171b:0000001300000000
#01715:00130000
#01812:000000130000000000001300
#01818:00000000000013001300001300000000
#01815:00000000000000130000130000000000
#0181b:000000000013
#01912:13
#01915:0013000000000013
#01918:00130000
#0191b:0000001313000000
#01910:41
#0201b:0000000000130000
#02018:00130013
#02015:0000000000000013
#02012:00130000
#02118:13
#0211b:0013
#02112:13
#02115:0013
#0211f:11
#02214:141400000000
#02218:000014000000140000130000000000000000000000000000
#02212:0000001300130000
#02215:0013
#0221b:00001313
#02315:0013000000130000
#0231b:00130013
#02312:0000001300000013
#02318:0013
#02418:00131300
#02415:0000001300001300
#02412:0013
#0241b:00000013
#02518:00130013001300000000001300001300
#02512:1313130000000000
#02515:00000000000000130000130000130013
#0251b:0013
#0261b:00130013000000000000130000000000
#02615:00001300130000000000001300000000
#02618:000000000000000000000000000000130000000000130000000000000000000000000000000000000000000013000000
#02612:0000001313000000
#02712:1300000000000013
#0271b:001300000000000000000000
#02718:000000140014000000000000
#02714:000014140000
#02715:001300000000
#02815:00130000000000000000000013000000
#0281b:0000000013000013
#02818:1300000000130000
#02812:0000000013000013
#0301b:0000130000130000
#03015:00130013
#03018:1300000013000013
#03012:1313
#03010:41
#03112:0000000000001313
#03118:0024002400001300
#03114:24240000
#03218:00130013
#03212:0000000000130000
#03215:0000000000000013
#03318:24000013
#03315:0000000000000013
#0331b:0000000000130000
#03312:0024000000000000
#0331a:00240000
#03314:0000002400000000
#03412:1300000000000013
#03415:00130013
#03418:1300000000130000
#0341b:00130000
#03618:0000001313001300
#03615:00000000000000130000000000001300
#03612:0000000000130000
#0371b:1300000000130000
#03715:0000001313000000
#03718:00000000000000130000000000000000
#03712:13000013
#03812:0013130000000000
#03818:0013130000001414
#03815:0000001313000000
#03814:00000000000000000000000000140000
#0381b:0000001313000000
#03810:41
#0291b:0000000000130000
#02918:2400240000000013
#02915:00000013
#02914:0024002400000000
#0291f:21
#0351b:0000131300000000
#03515:0000131300000000
#03512:0000000000001313
#03518:0000000000001313
#03914:0000000000001414
#03918:00000000000000000000000000140000
#04018:0000000000130000
#04015:00000013
#00115:13000000001300000013000000000000
#00118:0000001300130000
#00218:00000000001300000013000000000000
#00215:0000001300130000
#00315:00000000001300000013000000000000
#00318:0000001300130000
#04115:13000000001300000013000000000000
#04118:0000001300130000
#04218:00000000001300000013000000000000
#04215:0000001300130000
#00555:0063
#00552:0000000000000053
#0055b:0063
#00558:0000000000000053
#0075b:0013000000000000
#00752:00000000000000000000005300000000
#0085b:00000053000000000000000000000000
#00855:0053
#00955:0053
#00958:0000000000000053
#0095b:0053
#00952:0000000000000053
#0105b:00000000000000000000000000000053
#01158:0013000000000000
#01159:00000000000000000000001400000000
#01153:00000000000000000000001400000000
#01558:0063
#0155b:00000000000000000000001300000000
#01655:00000000000000000000000000630000
#01955:0000000000000063
#0195b:0053
#02855:00630000000000000000000000000000
#02954:0014001400000000
#02958:14140000
#03152:0000000000000053
#03158:0014001400000000
#03154:14140000
#03258:00530000
#03352:0014000000000000
#03354:0000001400000000
#03358:14
#0335a:00140000
#00658:00000000000000000000000000000063
#03455:00530000
#03452:0000000000000053
#0345b:00530000
#03858:0000000000000054
#01255:00000013000000000000000000000000
#01755:00000000000000000000001300000000
#01858:0013000000000000
#02052:00630000
#02058:00630000
#0225b:00000063
#02352:0000000000000063
#0355b:0000006300000000
#03555:0000006300000000
#03552:0000000000000053
#03558:0000000000000053
#03954:0000000000000064
#00459:00000014
#0375b:13
#03752:13
#001380:00130023000000000000000000000000
#001350:00000013
#001320:0000000000000023
#002350:00130023000000000000000000000000
#002380:00000013
#0023b0:0000000000000023
#003380:00130023000000000000000000000000
#003350:00000013
#003320:0000000000000023
#005350:0013
#005320:00000000000000000000002300000000
#0053b1:0013
#005381:00000000000000000000002300000000
#005321:0000000000000013
#006351:0023000000000000
#005380:0000000000000013
#0063b0:0023000000000000
#006380:00000000000000000000000000000013
#0073b0:0023000000000000
#007320:00000000000000000000001300000000
#007350:0000000000000023
#0083b0:00000013000000000000000000000000
#008380:0000002300000000
#008350:000000000000133333000000
#008320:00000023
#009350:0013
#009320:00000000000000000000002300000000
#0093b1:0013
#009381:00000000000000000000002300000000
#009381:0000000000000013
#0103b1:0023000000000000
#009320:0000000000000013
#010350:0023000000000000
#0103b0:00000000000000000000000000000013
#011380:0023000000000000
#012350:13000023000000000000000000000000
#0123b0:00000000000000000000000000000013
#013380:0023000000000000
#013320:00000000000000000000000000000013
#014350:0023000000000000
#015380:0013
#0153b0:00000000000000000000002300000000
#016350:00000000000000000000000000130000
#017320:23
#017350:00000000000000001300002300000000
#017380:0000000000000013
#018380:0023000000000000
#0193b0:0013
#019380:00000000000000000000002300000000
#019350:0000000000000013
#020320:0033330000000000
#020350:0023
#020381:0013330000000000
#0203b1:0023
#0223b1:00000013
#023381:23
#023321:0000000000000013
#024351:0023000000000000
#028351:00130000000000000000000000000000
#028321:00230000
#031321:0000000000000013
#032351:0023000000000000
#032381:00130000
#0323b1:0023
#034351:00130000
#034321:0023
#0343b0:00130000
#034380:0023
#034320:0000000000000013
#035350:0023000000000000
#0353b0:0000001300000000
#035380:0000000000230000
#035351:0000001300000000
#035321:0000000000230000
#035321:0000000000000013
#036351:0023000000000000
#035380:0000000000000013
#0363b0:0023000000000000
#038380:0000000000000014
#0393a0:0034003400240000
#039380:00343400
#039340:0000000000000014
#040320:0034003400000000
#040340:00342400
#041380:00130023000000000000000000000000
#041350:00000013
#041320:0000000000000023
#042350:00130023000000000000000000000000
#042380:00000013
#0423b0:0000000000000023
