This file was generated by Ched 2.6.2.0.
#TITLE ""
#ARTIST ""
#DESIGNER ""
#DIFFICULTY 0
#PLAYLEVEL
#SONGID ""
#WAVE ""
#WAVEOFFSET 0
#JACKET ""
#REQUEST "ticks_per_beat 480"
#00002: 4
#BPM01: 115
#00008: 01
#TIL00: ""
#HISPEED 00
#MEASUREHS 00
#00418:00130000000000000000000000000000
#00416:00000000001414000000000000000000
#0041b:0000001300000000
#00419:000000000000001200000000
#0041a:000000000000000012140000
#00412:00130000001300000000000014000000
#00415:000000000000001200000000
#00414:000012
#00512:1300130013000013
#00516:0013001313000013
#00519:00000013000000000000000000000000
#0051b:0000001300000000
#00517:00000000130000000000001300000000
#00510:41
#0061a:00130013
#0061b:13000000000013000000000000130013
#00617:00000000000013131300000000000013
#00616:13000013130000000000131313000000
#00613:0013
#00612:0013000000130000
#0071b:00000000000013000000001300000000
#00716:00001300000014141414000000001414
#00712:00000000000000000013000000000000
#00717:00000000000000000000001300000000
#0081b:00130000000000000000000000000000
#00816:14140013000014001300000000000000
#00818:000000000000001300000000
#00815:000013
#00817:00000013
#00812:00000013000000000000000000000000
#01118:00000000000013000013000000000000
#01115:00000000000000161600000000000013
#0111b:00000000000000000000001300000013
#01116:00000000000000000000001300000000
#01112:00000000000013000013000000000000
#01117:0013000000000000
#01212:00000000130000000000000000130013
#01217:00000000000013001300000000000013
#01215:160000160000130000000000000000000000000000000000000000001300000000000000000000000000000000000000
#0121b:0013000000000000
#01218:000013
#01216:00000013
#01312:00000000130013000000131800130000
#01317:00000000000000001300000000130000
#01316:0013000000000000000000000000000000000000180000000000000000001300
#0131b:0013000000000000000000000000000000000000000000000000000000001300
#01518:00130000160000000000000000001300
#01515:00001613000013000000000000000000
#0151b:0000001313000000
#01517:0013
#01512:1600000000000013
#01510:41
#01712:1400001300000013
#01716:00141400001414000000000000000000
#0171a:00140000
#0171b:0013000013130000
#01717:00000000000000000000001300000000
#01812:0000131300000000
#0181b:0000000013000013
#01817:00000000000000000000001600000000
#01813:0000000000160000
#01816:00000014140000141400000000001300
#01917:13
#01918:00001300130000130000000000000000
#01915:00000013000013000000000000001300
#0191b:00000000000000001300001300001300
#01912:13131300
#01910:41
#02016:00000000000000000000141414000000
#02017:0000000000000013
#02012:0000000000000013
#0201b:0013
#0211a:1400001200000000
#02118:00000000000000131400000012000000
#02114:1400000000000012
#02112:0012000013000000
#02116:00120000
#0211c:0000000000120000
#02115:0000000000000000000000000013001300000000000000000000000000000000
#0211f:11
#02316:1300130000000013
#0231b:0013000000000000
#02312:0000000013001313
#02317:0000000000130000
#02419:00130000
#02417:0000001313000000
#02415:00130000
#02413:0000001300000000
#0241b:0013
#0251b:12120000
#02515:00120012000012000000000000120000
#02512:12000000120000001200001200000000
#02518:00001200001200121200000000000000
#02517:0000000000000012
#02513:00000000000000000000000000000012
#02619:000000120000000000120000000000000000120000000000000000000000000000000000000000000000000012000000
#0261c:00000000120000001200001200000000
#02616:00001200001200121200000000000000
#02613:00120000
#02715:121300
#0271b:000012000000000013000000130000000000000000130000
#02712:000000000000130000001300000000000000000000130000
#02718:000000000013000000000000
#02717:00130000
#02716:0013
#02713:001200000000
#0281b:00130000000000001300000000000000
#02819:0000000000130000
#02812:00130000000000000000000013000000
#02814:0000000000000013
#02816:0013
#02817:00000013
#02815:16
#0291b:0000000000130000
#02912:24002400002400000000000000000000
#0291a:00240000240024000000000000000000
#02916:24240000
#0291f:21
#03014:00001300000000130000130000000000
#03016:00130013
#03019:0000001300000013
#03017:1313
#0301b:00130000130000000000000013000000
#03012:00000000001300001300000000000000
#03018:00000013000000000000000000000000
#03010:41
#03115:00000013
#03112:00240000240024000000000000001300
#0311b:00000013
#03118:0000000000000013
#0311a:24002400002400000000000000000000
#03116:24240000
#03218:0013000000001600
#03212:0000000000160013
#03217:13000000000000000000001200000000
#0321b:0000130000000013
#03215:00131300
#03216:0000001300000000
#03312:24002400242400000000130000000000
#03314:00000013
#03316:00240000002400000000000000001300
#03317:0000000000130000
#0331b:0000000000000013
#03319:00000013
#0331a:24240000240024000000000000000000
#0351b:1300130000130013
#03516:0000001300000000
#03512:0000001300001300
#03517:0000130000000013
#03515:0013000000130000
#03612:0013001300130000
#03618:00001300000000130000000000000000
#03615:0013
#03616:00000014
#0361b:0000130013000013
#03712:0000001300000000
#03717:00000000000000131300000000000000
#03716:14130000
#0371b:00131300
#0401a:0000000000120000
#04016:00000012
#04018:00000000000000000000001200000000
#04014:00000000000000000000000000120000
#04015:1316161616000000
#04012:00000013000000130000000000000000
#0401b:0013
#02212:000013000000000000130000000000130000000000000000
#0221b:130000001300000000130000000000000000130000000000
#02216:0000000000130000
#02217:121212120000000000130000
#03818:00000013
#03813:00000000000000000000000000130000
#0381b:0013000000000013
#03816:00000013130000000000000000001300
#03817:13
#03812:13130000
#03810:41
#03915:0016161616001300
#0391b:00000013000000130000000000000000
#03918:13
#0391a:00000000000000000000000000130000
#03912:0000000013000013
#03917:0000000000000013
#03417:13000013000000000013000000000000
#0341b:00130000000000001300000000000000
#03418:00000000000000000000001300000000
#03414:0013001300130000
#03415:00000000000000000000000000130000
#03419:0013001300001300
#03416:00000000130000130000000000000013
#03412:13000000001300000000000000001300
#0011b:13130000000000000000130000130000
#00117:00000013000013000000130013000000
#00118:00000000000000000013000000000000
#00112:0000001300001300
#00116:13130000001300000000000000130000
#00114:00000000000000000013000000000000
#00212:00130000000000000000130000130000
#00216:00000013000013000000130013000000
#00215:00000000000000000013000000000000
#0021b:0000001300001300
#00217:00130000001300000000000000130000
#00219:00000000000000000013000000000000
#0031b:00130000000000000000130000130000
#00317:00000013000013000000130013000000
#00318:00000000000000000013000000000000
#00312:0000001300001300
#00316:00130000001300000000000000130000
#00314:00000000000000000013000000000000
#01013:00130013
#01012:13000000000013000000000000130013
#01016:00000000000013131300000000000013
#01017:13000013130000000000131313000000
#0101a:0013
#0101b:0013000000130000
#01417:0013000000000000000000000000000000000000000000000000000000000000
#01412:0013000000000000000000000000000000000000180000000000000000000000
#0141b:0000131300130000
#01416:00000000000000001300001800000000
#01618:160000000000000000130000000000000000130000000000000000001300000000000000000000001600000000000000
#01615:000000130000160000000000000000000000000000130000000000000000000016000000000000000000000013000000
#01612:00161613
#0161b:00000013
#0091b:1300130013000013
#00917:0013001313000013
#00914:00000013000000000000000000000000
#00912:0000001300000000
#00916:00000000130000000000001300000000
#00910:41
#0001b:00000000000000000000001300000000
#00016:00000000000000000000131300000000
#00017:00000000000000000000000000131300
#00012:0000000000000013
#0411c:12120000000000000000120000120000
#04118:00000012000000000000000012000000
#04119:00000000000012000012000000000000
#04116:12120000000000000000120000120000
#04112:0000001200001200
#04115:00000000001200000000000000000000
#04113:00000000000000000012000000000000
#04212:00120000000000000000120000120000
#04216:00000012000000000000000012000000
#04215:00000000000012000012000000000000
#04218:00120000001200000000120000120000
#0421b:00000000000012000012000000000000
#0421c:00000012
#00757:00000000000000000000005300000000
#00756:0013000000000000
#00856:00000053000000000000000000000000
#00858:000000000000001300000000
#00855:000013
#00857:00000013
#01557:0053
#01552:00000000000000000000001300000000
#0155b:0053
#01556:00000000000000000000001300000000
#0195b:0000000000000063
#01952:0063
#02352:0000000000000053
#02356:0000000000000053
#03057:63
#03056:00630000
#0305b:00230000130000000000000000000000
#03052:13000000002300001300000000000000
#03152:0000343400000053
#0315a:4444000000000000
#03156:0044003400000000
#03556:0000005300000000
#03557:0000000000000053
#0355b:1300000000230013
#03552:0000001300000000
#0115b:00000000000000000000004300000000
#01156:00000000000000000000003300000000
#01157:0013000000000000
#02557:0000000000320000
#0255c:00000000000000000000003200000000
#02552:00000000000000005200003200000000
#02558:0052
#0265c:00000000000000006200004200000000
#02656:0062
#02657:0000000000420000
#02652:00000000000000000000004200000000
#02252:0000006300330000
#0225b:0000006300004300
#02256:0000000000430000
#02257:00000033
#02852:00330000000000000000000000000000
#0285b:00430000000000000000000000000000
#02952:3434000000000000
#02956:0034004400000000
#0295a:0000444400000000
#03257:23
#0325b:00630000
#03256:0000002300000000
#0335a:4400004400000000
#03352:0034340000000000
#03356:0034004400000000
#03955:00363600
#03952:0000000000000013
#03957:0000000000000053
#03856:0000000043000063
#03852:0043
#0385b:0000000000000013
#03757:00000033
#0375b:00000033
#03756:14
#03752:13
#03652:0023000000000000
#03457:63000023000000000023000000000000
#0345b:00230000000000005300000000000000
#03458:00000000000000000000002300000000
#03454:0000005300630000
#03455:00000000000000000000000000230000
#03459:0063000000005300
#03456:00000000530000230000000000000023
#03452:00000000002300000000000000006300
#00156:00630000000000000000000000230000
#00157:00000063000000000000000063000000
#00152:00000063
#0015b:00000000000000000000000000230000
#00256:00000053000000000000000053004300
#00257:00530000000000000000000000230000
#0025b:0000000000005343
#00252:00000000000000000000000000230000
#00357:00000063000000000000000063000000
#00356:00630000000000000000000000230000
#00352:00000063
#0035b:00000000000000000000000000230000
#00452:00000014
#0045a:00000014
#00556:0000000063000063
#00557:00000000000000000000001300000000
#00657:00000000000000000000000000000053
#0065b:23
#01257:00000000000043000000000000000053
#01252:00000000330000000000000000000053
#01255:000000000000001300000000
#01258:000013
#01256:00000013
#01356:0023000000000000000000000000000000000000380000000000000000006300
#0135b:0023000000000000000000000000000000000000000000000000000000006300
#01352:00000000000000000000003800000000
#01457:0023000000000000000000000000000000000000000000000000000000000000
#01452:0023000000000000000000000000000000000000480000000000000000000000
#01456:00000000000000000000004800000000
#01652:00001613
#01658:000000000000001300001600
#01655:000000000000000016000013
#0165b:00000013
#0175b:0013000000000000
#01752:0000001300000000
#01852:00130000
#0185b:0013
#01853:0000000000360000
#01857:00000000000000000000004600000000
#02752:00130000
#0275b:0013
#02755:001300
#02758:000000000013000000000000
#00956:00000000000000000000001300000000
#00957:0000000053000053
#01052:23
#01056:00000000000000000000000000000063
#0245b:0063
#02457:0063
#04055:00464600
#04158:00000062000000000000000062000000
#04156:00620000000000000000000000220000
#04152:00000062
#0415c:00000000000000000000000000220000
#04256:00000052000000000000000052000000
#04258:00520000000000000000000000220000
#0425c:00000052
#04252:00000000000000000000000000220000
#001360:00130000000000000000000000000000
#001320:00000023000000000000000000000000
#001371:00000013000000000000000000000000
#0013b1:00000000002300000000000000000000
#001321:0000000000001323
#001361:00000000000000000000000000530000
#001370:0000000000001323
#0013b0:00000000000000000000000000530000
#002370:00130000000000000000000000000000
#0023b0:00000023000000000000000000000000
#002361:00000013000000000000000000000000
#002321:00000000002300000000000000000000
#0023b1:0000000000001323
#002371:00000000000000000000000000530000
#002360:0000000000001323
#002320:00000000000000000000000000530000
#003360:00130000000000000000000000000000
#003320:00000023000000000000000000000000
#003371:00000013000000000000000000000000
#0033b1:00000000002300000000000000000000
#003321:0000000000001323
#003361:00000000000000000000000000530000
#003370:0000000000001323
#0033b0:00000000000000000000000000530000
#004350:0013000000000000
#004320:00000023000000000000000000000000
#0043b1:0013000000000000
#004381:00000023000000000000000000000000
#005371:13
#0053b1:0023000000000000
#005361:0013
#0053b1:00000000000000000053002300000000
#005361:0000000000000013
#0063b1:53
#006361:0023000000000000
#006371:00000000000000000000000000000013
#007321:5323000000000000
#007371:00000000000000000000001300000000
#007321:00000000000000000000000000532300
#008361:00000013000000000000000000000000
#0083b1:00000000005323000000000000000000
#008321:000000000000132300000000
#0083b1:000000000000000013230000
#009361:13
#009321:0023000000000000
#009371:0013
#009321:00000000000000000053002300000000
#009371:0000000000000013
#010321:53
#010371:0023000000000000
#010361:00000000000000000000000000000013
#0113b1:5323000000000000
#0123b1:000000000000132300000000
#012321:000000000000000013230000
#012321:00000000000000000000000000000013
#013361:0053000000000000000000000000000000000000000000000000000000000000
#013321:0023000000000000
#012370:00000000000000000000000000000013
#0133b0:0053000000000000000000000000000000000000000000000000000000000000
#013370:0023000000000000
#0133b0:000000130053230000000000
#013360:000000000000005300330000000000000000000000000000
#0133b0:00000000000000000000000000000013
#014370:0053000000000000000000000000000000000000000000000000000000000000
#0143b0:0023000000000000
#013361:00000000000000000000000000000013
#014321:0053000000000000000000000000000000000000000000000000000000000000
#014361:0023000000000000
#014321:000000130053230000000000
#014371:000000000000005300330000000000000000000000000000
#015371:0013
#015321:00000000000000000000532300000000
#0153b0:0013
#015360:00000000000000000000532300000000
#017370:0013
#017320:00000000000000000053002300000000
#017370:0000000000000013
#0173b0:00000000000000000000000000000053
#0183b0:0023000000000000
#019320:0013
#019370:00000000000000000000002300000000
#0193b0:0000000000000013
#020360:0023000000000000
#020321:0013230000000000
#020380:0000132300000000
#020351:0000001323000000
#022321:0000135300000000
#022351:0023
#0223b0:0000001300000000
#022380:0023
#023320:13330000
#023370:0033002300000000
#0233b1:0000001300330000
#023361:00003323
#023321:0000000000000013
#024371:0023000000000000
#023360:0000000000000013
#0243b0:0023000000000000
#0243b0:0013
#024360:00000023
#024371:0013
#024321:00000023
#025321:0012
#025371:0000000000220000
#025380:0012
#0253c0:00000000000000000000322200000000
#0263c0:0012
#026370:0000000000220000
#026361:0012
#026321:00000000000000000000322200000000
#0293a1:00140000000000000000000000000000
#029361:0024000000000000
#029321:00000000001400000000000000000000
#029361:0000002400000000
#029371:0000000000130000
#029321:00000023
#029360:00000013
#0293b0:0000000000000023
#029371:0000000000000013
#030321:23
#030370:1323000000000000
#0303b0:00530000000000000000000000000000
#030360:0000132300000000
#030320:00000000005300000000000000000000
#031320:00140000000000000000000000000000
#031360:0024000000000000
#0313a0:00000000001400000000000000000000
#031360:0000002400000000
#031320:0000000000000013
#032370:53
#032320:0023000000000000
#0323b0:00132300
#032360:0000005300000000
#0333a0:00140000000000000000000000000000
#033360:0024000000000000
#033320:00000000001400000000000000000000
#033360:0000002400000000
#034370:13000053000000000000000000000000
#0343b0:00530000230000000000000000000000
#034390:0033000000000000
#034361:00000000130000530000000000000000
#034321:00000000005300002300000000000000
#034341:0000003300000000
#0343b0:0000000013230000
#034370:00000000000000000053000000000000
#034341:0000000000132300
#034381:00000000000000000000005300000000
#034390:0000000000001323
#034350:00000000000000000000000000530000
#034321:0000000000000013
#034361:00000000000000000000000000000053
#035321:23
#035361:0000001300002300
#0353b1:0000000000530000
#035371:0000000000000013
#036321:0053000000000000
#036371:00230000
#036371:0000000000130000
#0363b1:00000000000000000000005323000000
#036361:0000000000000013
#036321:00000000000000000000000000000053
#037321:23
#037321:0000000000130000
#037371:00000000000000000000005323000000
#037360:0000000000130000
#0373b0:00000000000000000000005323000000
#0383b0:0000001300000000
#038360:00000000000000532300000000000000
#038371:0000001300000000
#038321:00000000000000532300000000000000
#038361:0000000000000013
#039321:5323000000000000
#039371:0000000000000013
#0403b1:5323000000000000
#041361:00120000000000000000000000000000
#041321:00000022000000000000000000000000
#041380:00000012000000000000000000000000
#0413c0:00000000002200000000000000000000
#041320:0000000000001222
#041360:00000000000000000000000000520000
#041381:0000000000001222
#0413c1:00000000000000000000000000520000
#042381:00120000000000000000000000000000
#0423c1:00000022000000000000000000000000
#042360:00000012000000000000000000000000
#042320:00000000002200000000000000000000
#0423c0:0000000000001222
#042380:00000000000000000000000000520000
#042361:0000000000001222
#042321:00000000000000000000000000520000
