This file was generated by Ched 2.6.2.0.
#TITLE ""
#ARTIST ""
#DESIGNER ""
#DIFFICULTY 0
#PLAYLEVEL
#SONGID ""
#WAVE ""
#WAVEOFFSET 0
#JACKET ""
#REQUEST "ticks_per_beat 480"
#00002: 4
#BPM01: 115
#00008: 01
#TIL00: ""
#HISPEED 00
#MEASUREHS 00
#0011a:14
#00114:0014
#0021a:14
#00214:0014
#00318:14
#00312:0014
#00418:14
#00413:0014
#00419:0014
#0051a:14141414
#00510:41
#00614:14141414
#0131a:14140000
#01314:00001414
#01418:14140000
#01412:00001414
#0151a:1414
#01514:00140000
#01510:41
#01612:1414
#01618:00140000
#0211a:14
#02114:14
#02118:0014
#02112:0014
#0211f:11
#02312:14
#02318:14
#02314:0014
#0231a:0014
#02813:14
#02819:14
#0281a:0014
#02812:0000000000140000
#02818:00000014
#02814:0000000000000014
#02912:0014
#0291a:00000014
#02918:24
#02914:0024000000000000
#0291f:21
#03012:1414
#0301a:0000140000140000
#03014:00000014
#03018:0000000000000014
#03010:41
#0331a:00001414
#03318:24
#03314:0024000000000000
#03412:00141400
#03418:14
#03414:00000014
#0371a:1414
#03714:00140014
#03818:1414
#03812:00140014
#03810:41
#00912:14141414
#00910:41
#01018:14141414
#01718:14
#0171a:0000001400000000
#01814:14
#01812:0000001400000000
#01918:14
#0191a:0000001400000000
#01910:41
#02014:14
#02012:0000001400000000
#0251a:14141400
#02514:0014001400000000
#02513:00000014
#02519:00000014
#02612:14141400
#02618:0014001400000000
#02619:00000014
#02613:00000014
#0271a:1414
#02714:0014000000000000
#02718:00140000
#02712:0000001400000000
#02713:0000000000000014
#02719:0000000000000014
#0311a:0014
#03112:00000014
#03114:24
#03118:0024000000000000
#0321a:1414
#03212:0000140000140000
#03218:00000014
#03214:0000000000000014
#04018:0000000000150000
#04013:00000015
#0411a:14
#04114:0014
#04218:1400000000000014
#04212:0014
#01758:54
#0175a:0000002400000000
#01854:54
#01852:0000002400000000
#01958:54
#0195a:0000002400000000
#02054:54
#02052:0000002400000000
#0155a:0014
#01652:0014
#007390:1535
#007380:00350025
#008320:1535
#008330:00350025
#011320:1535
#011330:00350025
#012390:1535
#012380:00350025
#017380:14000024
#0173a0:0000005400000000
#018340:14000024
#018320:0000005400000000
#019380:14000024
#0193a0:0000005400000000
#020340:14000024
#020320:0000005400000000
#022340:140034003400340000340000240000000000000000000000
#0223a1:140034003400340000340000240000000000000000000000
#024321:1424
#024380:1424
#0353a0:14
#035380:0024
#036320:14
#036340:0024
#039380:15352500
#039390:0035003500000000
#039330:00000015
#040330:35352500
#040320:0035003500000000
