This file was generated by Ched 2.6.4.0.
#TITLE ""
#ARTIST ""
#DESIGNER ""
#DIFFICULTY 0
#PLAYLEVEL
#SONGID ""
#WAVE ""
#WAVEOFFSET 0
#JACKET ""
#REQUEST "ticks_per_beat 480"
#00002: 4
#BPM01: 140
#00008: 01
#TIL00: ""
#HISPEED 00
#MEASUREHS 00
#00019:14
#00213:14
#00313:14
#00119:14
#0041a:14
#00410:41
#00514:14
#0061a:14
#00714:14
#00818:14
#00912:14
#01018:14
#01112:14
#0121a:14
#01210:41
#0131a:14
#01414:14
#01514:14
#01618:14
#01718:14
#01812:14
#01912:14
#03718:2616
#0371f:21
#03812:1616
#03810:41
#03918:16
#03912:0016
#04018:16
#04012:0016
#04512:2616
#04618:1616
#04712:16
#04718:0016
#04812:16
#04818:0016
#0501a:14
#05012:14
#05118:14
#05110:41
#05214:14
#05318:14
#05414:14
#0551a:14
#05614:14
#05718:14
#05812:14
#03618:14
#03614:0014
#02018:14
#02010:41
#02112:14
#0221a:14
#02314:14
#02418:14
#02512:14
#0261a:14
#02714:14
#02710:41
#0281f:11
#028380:14
#029380:24
#030340:14
#031340:24
#0323a0:14
#0333a0:24
#034320:14
#035320:24
#041380:1626
#042320:1626
#043380:16
#044380:26
#049320:1626
#0593a0:1424
#060320:1424
#061380:1424
#062340:1434
#063340:24
