This file was generated by Ched 2.6.4.0.
#TITLE ""
#ARTIST ""
#DESIGNER ""
#DIFFICULTY 0
#PLAYLEVEL
#SONGID ""
#WAVE ""
#WAVEOFFSET 0
#JACKET ""
#REQUEST "ticks_per_beat 480"
#00002: 4
#BPM01: 140
#00008: 01
#TIL00: ""
#HISPEED 00
#MEASUREHS 00
#00018:00000013000000000000000000000000
#0001b:00000000000000000000001300000000
#01217:00130000
#01219:0013
#0121b:00000013
#01212:0000000000130000
#01210:41
#01314:00130000
#01313:0013
#01312:00000013
#01319:0000001300000000
#0131b:0000000000130000
#01918:0012000000000000
#0191a:00120000
#0191c:0000001200000000
#01916:0000000000120000
#01914:00000012
#01912:0000000000000012
#0281a:0014000000000000
#02816:00000014000000000000000000001600
#02814:00000000000000001600001400000000
#02818:0000001600140000
#02812:14
#0281f:11
#02912:16000014000018000000000000000000
#02916:0014000000000000
#02918:0016
#0391a:0014000000000000
#03916:00000014000000000000001400000000
#03918:00000000001400002600000000001400
#03914:00000000000014000000000000140000
#03912:2600000000140000
#05918:00000013000000000000000000000000
#05916:00000000000000000000001300000000
#00112:00000013000000000000000000000000
#00116:0000001400000000
#0011b:00000000000000000000001300000000
#00312:0013
#0031b:00000013000000001300000000000000
#00316:0000001400000000
#00314:00000022
#0031a:00000022
#00415:00000013000000000000130000000000
#00412:00000000001300000000000000000000
#0041a:00000000000014000000001300000000
#00416:0013
#0041b:00000000000000000013000000000000
#00414:00000013
#00419:00000000000000000000000000130000
#00413:0000000000000013
#00410:41
#00718:00000013000000001300130000000000
#00715:00000000000000000013001300000000
#00712:00000000000013000000000000240000
#0071b:0000001300000000
#0071a:0000000000002424
#01115:00001300001300000000000000000000
#01118:00000013000013000000000000000000
#01112:13000000000000130000000000000000
#0111b:1313
#01114:00000022
#0111a:00000022
#01415:0000000000130000
#01412:0000001300001300
#0141b:00130000
#0141a:0000000000000013
#01515:0013000000130000
#01518:0000001300000013
#01818:0000130000000013
#01812:1300000000130000
#0181b:1300001300000000
#02312:0000000022120000
#02314:00000000001200000000000000120000
#02318:00000000000000000012000000000000
#0231a:0000121200001212
#02316:2212000000000000
#0231c:00120000000000000000000000000000
#02215:00131300
#02218:0013000000130013
#0221a:14
#02212:0000001300001300
#0221b:00131313
#02112:14000000001300000000000013000000
#02117:0000131300001300
#0211b:0013000013130000
#02116:00000000000000000013000000000000
#02719:1400242400000000
#02713:0014000000000000
#02710:41
#03012:16
#03015:0016
#03014:00001200001200000000000000000000
#03018:00000012000012000000000000000000
#0301a:00000000000000000000120000120000
#03016:00000000000000000000001200001200
#03114:00000013000000000000000000000000
#03112:0000001313000000
#03119:00000000000000000000001300000000
#0311b:1300000000000013
#03212:1814001600000000
#03216:00000014000000001600000000000000
#03214:0000000000140016
#03218:00000000000000000000001400000000
#03615:13
#03618:00001300000014000015001500160016
#03614:00140000
#03613:0000000015150000
#03612:0000000000001616
#0371a:0014000000000000
#03714:00000014000000000000000000000000
#03718:00000000001400001300000000000000
#03712:2600001400130000
#03717:00000000000000000000001300000000
#03716:00000000000000000000000000130000
#0371b:0000000000000013
#0371f:21
#0411a:0000000000140000
#0411b:13
#04112:0000001400000000
#04115:0014
#04116:0000000000000024
#04314:0012000000000000
#04316:00121414
#04312:1200001400000014
#0431a:0000000000140000
#04912:0000001300000000
#0491b:13
#04914:00000024
#04918:0000000000240024
#0511a:00000000000000000014000000000000
#05114:0000000000140000
#05119:00000000000000000000001400000000
#05113:00000014
#05118:00000000000014000000000000140000
#05112:1400000000000014
#05115:0014
#05110:41
#05212:1300000000000013
#0521b:00000000000000000013000000000000
#05214:0000000000130000
#0521a:00000000000000000000001300000000
#05213:00000013
#05219:00000000000000000000000000130000
#05215:0013
#05218:0000001300000000
#05418:00130000000000000000000000260000
#05414:0012000023000000
#0541a:00000012000000000013000000000000
#05419:00000000001300000000000000000000
#05415:0000001200000000
#0541b:00000000000000120000000000000000
#0541c:00000000000000000000001200000000
#05416:0000000000120000
#05412:2300000000002626
#05413:00230000
#05815:00130000000000000000000000000000
#0581a:0012230000000000
#05814:00000012001300000000000000000000
#05819:0000001223000000
#05813:00000000000000120013000000000000
#05812:0000000000000000000000122c000000
#05818:0000000000120000
#0581b:23
#06017:00000013000000000000000000000000
#06019:0000001300000000
#06012:00000000000000000000001300000000
#00215:00000013000000000000000000000000
#00212:00000000000000000000001300000000
#00512:00000000000014000013000000000000
#00517:0013
#00518:00000013000000000000130000000000
#00513:00000000000000000000001300000000
#00519:00000013
#00514:00000000000000000000000000130000
#0051a:0000000000000013
#0051b:00000000001300000000000000000000
#0061a:00000000000014000000001300000000
#00616:0013
#0061b:00000000000000000013000000000000
#00615:00000013000000000000130000000000
#00614:00000013
#00619:00000000000000000000000000130000
#00613:0000000000000013
#00612:00000000001300000000000000000000
#0081b:00000013000000000000000000000000
#0081a:00000000000014000000000000130000
#00812:00000000001300001300000000000000
#00818:00000000000000000013000000000000
#00813:0000000000130000
#00819:00000000000000000000001300000000
#00814:00000013
#00815:0000000000000013
#00912:00000013000014000000000000000000
#0091b:00000000001300001300000000000000
#00915:00000000000000000013000000000000
#0091a:0000000000130000
#00914:00000000000000000000001300000000
#00919:00000013
#00913:00000000000000000000000000130000
#00918:0000000000000013
#0101b:00000013000000000000000000000000
#0101a:00000000000014000000000000130000
#01012:00000000001300001300000000000000
#01018:00000000000000000013000000000000
#01013:0000000000130000
#01019:00000000000000000000001300000000
#01014:00000013
#01015:0000000000000013
#01614:0000001300130000
#01618:00131300
#0161b:1300001300130000
#01612:13230023
#01615:0023
#01719:0000001300130000
#01715:00131300
#01712:1300001300130000
#0171b:13230023
#01718:0023
#03318:16
#03316:0014001800000000
#0331a:00000014000000000000000000000000
#03312:0016
#03418:16000000000000000000001200001200
#03415:0016
#0341a:00001200001200000000000000000000
#03416:00000012000012000000000000000000
#03414:00000000000000000000120000120000
#04212:1300000000140000
#0421a:0000001400000000
#04217:0014
#04216:0000000000000024
#05312:12
#0531b:00000000000000000012000000000000
#05315:0000000000120000
#0531a:00000000000000000000001200000000
#05314:00000012
#05319:00000000000000000000000000120000
#05313:0000000000000012
#05316:0012
#05318:0000001200000000
#06115:00000013000000000000000000000000
#06117:00000000000000000000001300000000
#06216:00000013000000000000000000000000
#06214:0000001300000000
#0621b:00000000000000000000002300000000
#04416:00000013
#04412:1300000000000013
#0201b:0000131300001300
#02016:00000000001300000000000013000000
#02017:0000000013130000
#02012:24000000000000000013000000000000
#02019:0013000000000000
#02010:41
#0251a:14
#02516:0000131300001300
#0251b:00000000001300000000000013000000
#02512:0013000013130000
#02517:00000000000000000013000000000000
#02412:0000131300001300
#02417:00000000001300000000000013000000
#02416:1300000013130000
#0241b:00000000000000000013000000000000
#02414:0013000000000000
#0241a:24
#02618:00131300
#02615:0013000000130013
#02612:14131313
#0261b:0000001300001300
#03812:0014000000000013
#03818:26000014000000000000000000000000
#03814:00000000001400000000000000000000
#0381a:0000001400000000
#03815:0013
#0381b:0000000000130000
#03816:00000000000000000000001300000000
#03817:00000000000000000000000000130000
#03810:41
#04018:0000001313000000
#04015:00000000000000130000000000000000
#04012:1300000000000013
#04017:0000000000000013
#04712:0014000026000000
#04716:00000014000000000000001400000000
#04714:00000000001400000000000000001400
#04718:26000000000014000000000000140000
#0471a:0000000000140000
#04515:0013
#04516:00000000000000000000001300000000
#04512:0000000000000013
#0451a:0000001400000000
#04518:26000014000000000000000000000000
#04815:0000001313000000
#04818:00000000000000130000000000000000
#0481b:1300000000000013
#04816:0000000000000013
#04618:0013
#04617:00000000000000000000001300000000
#0461b:0000000000000013
#04612:2600001400000000
#04614:00000014000000000000000000000000
#05512:00000000000000000014000000000000
#05518:0000000000140000
#05513:00000000000000000000001400000000
#05519:00000014
#05514:00000000000014000000000000140000
#0551a:1400000000000014
#05517:0014
#0561b:1300000000000013
#05612:00000000000000000013000000000000
#05619:0000000000130000
#05613:00000000000000000000001300000000
#0561a:00000013
#05614:00000000000000000000000000130000
#05618:0013
#05615:0000001300000000
#0571c:12
#05713:00000000000000000012000000000000
#05719:0000000000120000
#05714:00000000000000000000001200000000
#0571a:00000012
#05715:00000000000000000000000000120000
#0571b:0000000000000012
#05718:0012
#05716:0000001200000000
#05014:28
#03512:23
#03513:00230000
#03514:0023
#0351b:00000023
#03518:23
#03519:00230000
#0351a:0023
#03515:00000023
#03956:00000034000000000000004400000000
#03954:0000003400000000
#03958:0000000000000044
#04954:00000034
#04958:0000000000440044
#0045a:0000001400000000
#0415a:0000000000440000
#04152:0000005400340000
#04155:0024
#04352:0000003400000000
#0435a:0000000000440000
#00552:0000001400000000
#0065a:0000001400000000
#0085a:0000001400000000
#00952:0000001400000000
#0105a:0000001400000000
#01658:00636300
#0165b:0000002300230000
#01755:00535300
#01752:0000002300230000
#0315b:5300000000000013
#03152:0000001353000000
#04252:0000000000340000
#0425a:0000006400440000
#04257:0024
#05054:18
#05452:0000000000000016
#0075a:0000000000000014
#04452:1313
#0445b:00130013
#0205b:00000053
#02152:00000053
#02452:00000063
#0255b:00000063
#04052:53
#04058:0053
#04756:00000044000000000000003400000000
#04758:0000004400000000
#04754:0000000000000034
#04855:0063
#0485b:63
#05158:0000001400000000
#05258:0000001300000000
#05358:0000001200000000
#05554:0000001400000000
#05655:0000001300000000
#05756:0000001200000000
#000320:13
#000340:00000023000000000000000000000000
#000340:0013
#000360:00000000000000000000002300000000
#0013b0:13
#001380:00000023000000000000000000000000
#001320:0013
#001350:00000000000000000000002300000000
#0023b0:13
#002390:00000023000000000000000000000000
#002390:0013
#002370:00000000000000000000002300000000
#003320:13
#003350:00000023000000000000000000000000
#0043b0:13
#004380:00000023000000000000000000000000
#005320:13
#005350:00000023000000000000000000000000
#0063b0:13
#006380:00000023000000000000000000000000
#007320:13
#007350:00000023000000000000000000000000
#008320:13
#008350:00000023000000000000000000000000
#0093b0:13
#009380:00000023000000000000000000000000
#010320:13
#010350:00000023000000000000000000000000
#012320:13
#012350:0023
#0133b0:13
#013380:00230000
#014320:13
#014350:00230000
#0143b0:0013
#014380:00000023
#0153b0:13
#0153a0:00330000000000000000000000000000
#015390:0023000000000000
#015340:00130000
#015330:00000000003300000000000000000000
#015320:0000002300000000
#015390:0013
#0153a0:00000000000000000033000000000000
#0153b0:0000000000230000
#015320:00000013
#015330:00000000000000000000000000330000
#015340:0000000000000023
#016380:00133323
#0163b0:0000003300330000
#017350:00133323
#017320:0000003300330000
#018320:00130000
#018350:0023
#018381:0013
#0183b1:00000023
#018350:00000013
#018320:0000000000000023
#019320:13
#019350:0023
#0193b1:0013
#020371:23
#0203b1:00000013
#021371:23
#021321:00000013
#022361:23
#024321:00000013
#025361:23
#0253b1:00000013
#026371:23
#027321:0000000014342400
#027341:00000000000000000034003400000000
#0273a0:0000000000001434
#027380:00000000000000000000000000340034
#0283a0:24
#029320:0013
#029330:0000000000230000
#029381:0000000000130000
#029391:00000023
#029340:00000013
#029350:0000000000000023
#0293a1:0000000000000013
#0303b1:23
#0313b1:13
#031371:0000002300000000
#031321:0013
#031361:0000000000000023
#0333b1:0013
#0333a1:0000000000230000
#033350:0000000000130000
#033340:00000023
#033391:00000013
#033381:0000000000000023
#033330:0000000000000013
#034320:23
#040320:13
#040350:0000002300000000
#040380:0013
#0403b0:00000023
#041360:13
#041320:00000023000000000000000000000000
#041371:00000013000000000000000000000000
#0413b1:0000002300000000
#041320:0000001400240000
#041350:0054
#042370:13
#0423b0:00000023000000000000000000000000
#042361:00000013000000000000000000000000
#042321:0000002300000000
#0423a0:0000001400240000
#042370:0054
#043370:13
#0433b0:00230000
#044370:13
#0443b0:00230000
#044361:00130000
#044321:0023
#044370:0013
#0443b0:00000023
#045320:00001424000000000000000000000000
#045340:00000000001424000000000000000000
#0453b0:00000000000000000000132300000000
#045370:00000000000000000000000000132300
#0463a0:00001424000000000000000000000000
#046380:00000000001424000000000000000000
#046320:00000000000000000000132300000000
#046360:00000000000000000000000000132300
#0483b0:13
#048380:0000002300000000
#048350:0013
#048320:00000023
#049320:13
#049360:00000023000000000000000000000000
#0493b1:00000013000000000000000000000000
#049371:0000002300000000
#051381:14
#0513a1:00000024000000000000000000000000
#051340:00000014000000000000000000000000
#051320:0000002400000000
#052380:13
#0523a0:00000023000000000000000000000000
#052351:00000013000000000000000000000000
#052331:0000002300000000
#053381:12
#0533b1:00000022000000000000000000000000
#053360:00000012000000000000000000000000
#053330:0000002200000000
#055340:14
#055320:00000024000000000000000000000000
#055381:00000014000000000000000000000000
#0553a1:0000002400000000
#056351:13
#056331:00000023000000000000000000000000
#056380:00000013000000000000000000000000
#0563a0:0000002300000000
#057360:12
#057330:00000022000000000000000000000000
#057381:00000012000000000000000000000000
#0573b1:0000002200000000
#059321:13
#059351:00000023000000000000000000000000
#059381:0013
#0593b1:00000000000000000000002300000000
#060321:13
#060331:00000033000000000000000000000000
#060341:0000002300000000
#0603b1:0013
#060391:00000000000000000000002300000000
#0613b1:13
#061381:00000023000000000000000000000000
#061351:0013
#061321:00000000000000000000002300000000
#0623b1:13
#0623a1:00000033000000000000000000000000
#062391:0000002300000000
#062321:0013
#062341:00000000000000000000002300000000
