This file was generated by Ched 2.6.4.0.
#TITLE ""
#ARTIST ""
#DESIGNER ""
#DIFFICULTY 0
#PLAYLEVEL
#SONGID ""
#WAVE ""
#WAVEOFFSET 0
#JACKET ""
#REQUEST "ticks_per_beat 480"
#00002: 4
#BPM01: 140
#00008: 01
#TIL00: ""
#HISPEED 00
#MEASUREHS 00
#0041b:13000013000013000000000000000000
#0041b:0000001300000000
#00415:0000000013130000
#00418:00000000000000000013001300000000
#00410:41
#0121b:00131300
#01215:0000001300130000
#01210:41
#01312:00131300
#01318:0000001300130000
#01615:0000001300000000
#01613:0000000000130000
#0161b:00230000
#01619:0023
#01718:0000001300000000
#0171a:0000000000130000
#01712:00230000
#01714:0023
#01819:00000013
#0181b:00130000
#01813:0000000000000013
#01815:0000001300000000
#0181a:0013
#01814:0000000000130000
#01912:0013000000000000
#01913:0000001300000000
#01918:13130000
#01919:0013
#01914:0000000000130000
#0191a:00000013
#01915:0000000000000013
#02415:0000001300000000
#02412:0000000000130000
#0241b:00230013
#02418:0023
#02618:00130013
#02612:0000001300000013
#0261b:0013
#02615:0000000000130000
#02715:0013001300000000
#0271b:13
#02718:00130000
#02710:41
#0281a:14000014000014000000000000000000
#02814:00000000000000001400001400001400
#0281f:11
#02912:0013
#02918:14000014000014000000130000000000
#02915:00000013
#0291b:0000000000000013
#03012:14000014000014000000000000000000
#0301a:00000000000000001400001400001400
#03212:14000014000014000000000000000000
#03218:00000000000000001400001400001400
#0331b:0013
#03315:0000000000130000
#03318:00000013
#03312:0000000000000013
#03314:14000014000014000000000000000000
#0341a:14000014000014000000000000000000
#03412:00000000000000001400001400001400
#03612:13
#03618:0013000000000000
#03615:00000000130000000000003400000000
#0361b:0000001300000000
#0361a:0000000000000014
#03614:0000000000340000
#03613:00000000000000000034000000000000
#0371a:00000014000000000000000000000000
#03712:00000000000014000000001400000000
#03718:0000000013000014
#03715:23
#0371f:21
#04015:13000000000000130000000000000000
#04018:0000001313000013
#0431a:1400140000000014
#04312:0014001400000000
#04316:0000000000140000
#04412:1300000000000014
#04415:00130000
#04418:0013
#0441b:00000013
#04812:0000000000000014
#04818:13000000000000130000000000000000
#04815:0000001313000000
#0481a:0000000000000014
#0491a:14
#04916:00000014000000000000000000000000
#04912:0000001400002600
#04918:0000000000260026
#0141a:00000013
#01418:00130000
#01412:0000000000000013
#01413:0000001300000000
#01419:0013
#01414:0000000000130000
#01513:0013000000000000
#01514:0000001300000000
#01518:13
#01519:00130000
#0151a:0013
#01515:0000000000130000
#0201b:00130013
#02018:0013
#02015:0000001300130000
#02010:41
#02112:00130013
#02115:0013
#02118:0000001300130000
#02213:00000013
#02215:00130000
#0221b:0000000000000013
#0221a:0000001300000000
#02214:0013
#02219:0000000000130000
#0231a:0013000000000000
#02319:0000001300000000
#02315:13
#02314:00130000
#02313:0013
#02318:0000000000130000
#02312:00000013
#02518:0000001300000000
#0251b:0000000000130000
#02512:00230013
#02515:0023
#03818:00000014000000001300000000000000
#03814:00000000000014000000001400000000
#0381a:0000000000000014
#03815:23
#03810:41
#0391a:00000014000000000000000000001400
#03912:23000000000014000000001400000000
#0391b:0023
#04514:00000014000000000000000000000000
#0451a:0000001400000000
#04515:0013
#04518:23000000000000000000001400000000
#04512:0000000000000014
#04614:00000014000000000000000000001400
#0461a:0000001400000000
#04612:0013
#04618:00000000000000000000001400000000
#0461b:23
#04712:00000014000000000000000000000000
#04718:2300001400000000
#0471a:00000000000000000000001400000000
#04714:0000000000000014
#04715:0023
#04218:13
#04212:0000000000000024
#0421a:0000003300000000
#04219:00000033000000000000000000000000
#04115:1300000000000023
#04113:0000003300000000
#04114:00000033000000000000000000000000
#00312:0013
#0031b:13000013000000001300000000000000
#00319:00000023
#00314:00000023
#00018:13000013000000000000000000000000
#00015:00000000000000001300001300000000
#0011b:13000013000000000000000000000000
#00112:00000000000000001300001300000000
#00218:13000013000000000000000000000000
#00215:00000000000000001300001300000000
#00512:13000013000013000000000000000000
#00518:0000000013130000
#00515:00000000000000000013001300000000
#00618:13000013000013000000000000000000
#00615:0000000013130000
#0061b:00000000000000000013001300000000
#00715:13000013000013000000000000000000
#00718:0000000013130000
#00712:00000000000000000013001300000000
#01118:0000000000130000
#01115:13000000000013000013000000000000
#01112:00000000000000000000001300000000
#0111b:00000013000000001300000023000000
#01015:0000000000130000
#01018:13000000000013000013000000000000
#0101b:00000000000000000000001300000000
#01012:00000013000000001300000000000000
#05118:13000013000013000000130000000000
#05112:13000013000013000013000000000000
#05115:00000000000000000000001300000000
#0511b:0013
#05110:41
#05215:13000013000013000000130000000000
#0521b:13000013000013000013000000000000
#05218:00000000000000000000001300000000
#05212:0013
#0531b:13000013000013000000130000000000
#05312:13000013000013000000001300000000
#05315:00000000000000000013000000000000
#05318:0013
#05412:13000013000013000000130000000000
#0541b:13000013000013000000001300000000
#05418:00000000000000000013000000000000
#05415:0013
#05718:0000000000130000
#05715:00000000000000000013000000000000
#05712:13000000000000000000001300000000
#0571b:0000001313000000
#05714:00000013000000000000000000000000
#05717:13
#05719:00000013000000000000000000000000
#05716:0000001300000000
#05615:00000013000000001300000000000000
#05612:1300001300130000
#05618:13000000000013000000001300000000
#0561b:00000013000000000013000000000000
#05518:00000013000000001300000000000000
#0551b:1300001300130000
#05515:13000000000013000000001300000000
#05512:00000013000000000013000000000000
#05918:13
#0591b:00000013000000000000000000000000
#05915:0013
#05912:00000000000000000000001300000000
#0601b:13
#06018:00000013000000000000000000000000
#06015:00000000000000000000001300000000
#06012:0013
#0611b:13000013000000000000000000000000
#06115:13000013000000000000000000000000
#06112:00000000000000001300001300000000
#06118:00000000000000001300001300000000
#00818:1300001300000000
#00815:00000013000000000000000000000000
#00812:0000000013130000
#0081b:00000000000000000013001300000000
#00915:1300001300000000
#00918:00000013000000000000000000000000
#0091b:0000000013130000
#00912:00000000000000000013001300000000
#05815:0000000000130000
#05818:00000000000000000013000000000000
#0581b:13000000000000000000001300000000
#05812:0000001313002300
#05819:00000013000000000000000000000000
#05816:13
#05814:00000013000000000000000000000000
#05817:0000001300000000
#0621b:13
#06215:13
#06212:00000000000000000000002300000000
#06218:00000000000000000000002300000000
#0621a:0000003300000000
#06214:0000003300000000
#03518:24
#03512:00240000
#0351a:0024
#03514:00000024
#05012:26
#03119:00000000000000000000003400000000
#03113:00000034000000000000000000000000
#04352:0000001400000000
#04356:0000000000140000
#0435a:0000000000000014
#05052:16
#04155:63
#04258:53
#04858:53
#04055:63
#0205b:00000063
#02152:00000053
#02352:00000053
#0245b:00000063
#02552:00000053
#02755:0000006300000000
#0123b0:00000013
#013380:23
#013320:00000013
#014350:23
#0153b0:00000013
#016380:23
#016370:00000013
#0173a0:23
#017360:00000013
#018330:23
#0203b0:00000013
#021380:23
#021320:00000013
#022350:23
#023320:00000013
#024350:23
#0243b0:00000013
#025380:23
#025320:00000013
#026350:23
#027350:0000001300000000
#027320:00000023
#031340:14
#031330:00000034000000000000000000000000
#031320:0000002400000000
#031380:0014
#031390:00000000000000000000003400000000
#0313a0:0000000000000024
#036320:0014
#036330:00000000000000000034000000000000
#036340:0000000000340000
#036350:00000000000000000000003400000000
#036360:00000024
#040350:13
#040320:00230000
#041350:13
#041340:00000033000000000000000000000000
#041330:0000003300000000
#041320:0000000000230000
#042380:13
#042390:00000033000000000000000000000000
#0423a0:0000003300000000
#0423b0:0000000000230000
#048380:13
#0483b0:00230000
#062380:00000013000000000000000000000000
#0623a0:0000003300000000
#0623b0:0023
#062321:00000013000000000000000000000000
#062341:0000003300000000
#062351:0023
