This file was generated by Ched 2.6.4.0.
#TITLE ""
#ARTIST ""
#DESIGNER ""
#DIFFICULTY 0
#PLAYLEVEL
#SONGID ""
#WAVE ""
#WAVEOFFSET 0
#JACKET ""
#REQUEST "ticks_per_beat 480"
#00002: 4
#BPM01: 140
#00008: 01
#TIL00: ""
#HISPEED 00
#MEASUREHS 00
#00012:13000000001300000000001300000000
#0001b:00000013000000001300000000130000
#00018:0013000000000000
#00015:0000000000130000
#00017:0000001300000000
#00016:0000000000000013
#00112:13000000000000000000001300000000
#0011b:00000013000000001300000000000000
#00118:0013001300000000
#00115:00000000001300000000130000000000
#00312:1300001313000000
#0031b:00000013000000001300000000000000
#00317:13
#00315:00000026
#00415:0013001300000000
#00412:13000000130000000012000000000000
#0041a:12000012000000121200000012000000
#0041c:00001200001200000000000000001200
#00418:0000000000120000
#00414:00000000000000000000001200000000
#00416:00000000000000000000000000120000
#00410:41
#00615:0013001300000000
#00612:13000000130000000012000000000000
#00618:12000012000000121200120000000000
#0061a:00001200001200000000000012000000
#00614:00000000000000000000001200000000
#00616:00000000000000000000000000120000
#0061c:0000000000000012
#00715:0013001300000000
#00712:13130000
#0071c:12000000000000120000000000000000
#0071a:00001200001200001200000000002400
#00718:00000012000000000000120024000000
#00716:00000000000000000012000000000000
#00714:00000000000000000000001200000000
#00713:00000000000000000000000000240000
#0121b:00130013
#01217:0013
#01214:0000000000130000
#01212:13
#01216:00130000
#01210:41
#01312:00130013
#01314:0000001300000000
#01316:00000000000000000013000000000000
#0131b:0013000000130000
#01317:13000000001300000000000000000000
#01319:0013
#01318:0000000000000014
#01412:1300000000000012
#01416:00000000130000000012000000000000
#0141a:0000120000120000
#0141b:0000001200000000
#0141c:0012
#01414:00000012
#01418:00000000000000000000000000120000
#01517:00130000
#0151b:13
#01514:0012001200000000
#01512:00121214
#01518:00000000000000000012000000000000
#01516:0000000000120014
#0151c:00000000000000000000001200000000
#0161a:1400001400140000
#01614:0000000000000014
#01616:0000141414140000
#01612:14241400
#0191c:0012000000000000
#0191a:0000121200000000
#01912:0000000000120000
#01914:0000001200000000
#01916:0012
#01919:0000000000000013
#02012:0012
#02016:00000000000000000014000000001400
#02014:0018000000141200
#0201a:00000000000000000000001200000000
#02018:00000000000000000000000000140000
#0201c:00000000000000000000000000000012
#0201b:23
#02010:41
#0211c:0012
#02116:00000000000000000014000000001400
#02118:0000000000140000
#02114:00001800000000000000001200140000
#0211a:00000012
#02112:12000000000000000000000000000012
#0221c:12
#02214:00001800000000000000000014140000
#02212:00000000000000001414000000000000
#02218:00000000000000000000141400000000
#0221a:00000000000000000000000000001414
#0241a:00001414
#02416:22000000000000000014140000141400
#02412:00000000000000000000001400000014
#02512:00001414
#02516:00000000000000000014140000141400
#0251a:00000000000000000000001400000014
#02518:12
#0261b:00000000000000001313000000000000
#02612:00000000000000000000131300000000
#02618:00000000000000000000000013130000
#02615:00000000000000000000000000001313
#02818:16
#02819:00001500000000000000000000150000
#02817:00000013000000000000000000001300
#02812:00000000001500000000150000000000
#02816:00000000000013000000001300000000
#02814:0018
#0281f:11
#02912:18000013000000000000000000000000
#02915:0015000000000000
#02916:00000000001500001800000000000000
#0291b:0000001300000000
#03012:1816000000160000
#03018:00000013000000001600001300000000
#03015:00000000001600000000000000160000
#0301b:0000001300000013
#03112:14000000000000000000120000120000
#03116:00140014
#0311a:14000022000022001400000000000000
#0311c:00001200001200000000000000000000
#03114:00000000000000000000002200002200
#03617:1212000000000000
#03616:0000141400000000
#03615:00000000000000001616161600000000
#03614:00000000000000000000000018181818
#03718:00001400001400000000000000000000
#03714:00000014000014000000001200000012
#0371c:00001212
#03716:00000000000000000012000000120000
#0371a:0000000000120012
#03712:2c
#0371f:21
#0381a:0014000012001200
#03816:00000014001400000000000000000000
#03812:2c000000000014000000001200000012
#03814:00000000000000000012000000120000
#03818:0000000000120012
#03810:41
#0391a:0014000000140000
#03916:00000014000014000000001400140000
#03912:2c000000001400002c00000000001400
#0401a:0014000000000000
#04012:0000001400000000
#0401b:0000000013131313
#04016:00000000000000000015001500150000
#04014:00340000000000000000000000000000
#04018:00000000003400000000000000000000
#04112:1300001300000000
#04116:00000013000013000000000000000000
#0411b:00000013000000000000000000000000
#04117:00000000000000000000000000000013
#04118:13
#04113:0000000000000023
#04315:1600001613001600
#04318:00001300000000000013000000000000
#0431b:00000000130000000000000000130000
#04312:00130000000000000000130000001300
#04412:12
#04414:00120000000000000000000000000000
#04416:00000012000000001200000000000000
#04415:00000000001300000000000000001300
#04418:12000000000013000000001200130000
#0441c:0012
#0441a:00000000000000000012000000000000
#04918:0000000000001424
#04914:0000000000002414
#0491b:1300001300000000
#04917:00000013000013000000000000000000
#04912:00000013000000000000000000000000
#04915:13
#05114:00001400000000140000001400140000
#05112:00000014001400000000000000000014
#05116:00000000000000000014000000001400
#05118:0000000000141400
#0511a:0014
#05110:41
#05416:24140014000014000000140000000000
#05412:0000000024140014000000002c2c2c00
#0541a:00000000000000002414001400000000
#05916:00001400001400000000140000140000
#05918:14
#05914:0014
#0591a:00000014000000000000000000001400
#05912:00000000000014000000001400000000
#0601a:14
#06016:00001414001414000000141400141400
#06012:0014
#06117:1300000000000013
#0611b:00001300000000000000000000130000
#06112:00000000001300000000130000000000
#06116:0000001313000000
#06118:00000013000000000000000000000000
#06115:00000000000000000000001300000000
#0621b:0013000013000000
#06218:13
#06216:00000013000000000000000000000000
#06217:00000000001300000000002200000000
#06212:0000001300000000
#02318:00130000000013000014000000000000
#02315:00001300001300000000000000000000
#02312:1414
#02314:0000000000140000
#0231a:00000000140000000000001400000000
#02316:00000014
#04514:00001400001400000000120000001200
#04518:00000014000014000012000000120000
#04512:2c001212
#0451a:00000000000000000000001200000012
#04612:2c14000000000000
#04616:00000014001400000000120000001200
#0461a:00000000000014000012000000120000
#04614:00001212
#0461c:00000000000000000000001200000012
#05215:00001300000000130000000000130000
#05212:00000013001300000000000000000013
#05216:00000000000000000013000000000000
#05218:0000000000130000
#05213:00000000000000000000001300000000
#05217:0000000000000013
#0521b:0013
#0521a:00000013
#05316:00001200000000000012000000000000
#05314:00000012000000120000000000000000
#05319:0000000000120000
#05313:00000000000000000000001200000000
#05315:00000000000000000000000000120000
#05318:0000000000000012
#05312:00000000001200000000000000000012
#0531c:0012
#0531b:00000012
#01812:14
#01816:00140000
#0181a:14
#00515:0013001300000000
#00512:13000000130000000012000000000000
#0051a:12000012000000121200000012000000
#0051c:00001200001200000000000000001200
#00518:0000000000120000
#00514:00000000000000000000001200000000
#00516:00000000000000000000000000120000
#0021b:13000000001300000000001300000000
#00212:00000013000000001300000000130000
#00215:0013000000000000
#00218:0000000000130000
#00216:0000001300000000
#00217:0000000000000013
#00818:00001300000013000000000000120000
#0081b:13130000
#00814:12000012000000121200000012000000
#00812:00001200001200000000000000001200
#00816:0000000000120000
#0081a:00000000000000000000001200000000
#0081c:00000000000000000012000000000000
#01018:00001300000013000000000000120000
#0101b:13130000
#01016:12000012000000121200120000000000
#01014:00001200001200000000000012000000
#0101a:00000000000000000000001200000000
#01012:0000000000000012
#0101c:00000000000000000012000000000000
#01118:00001300000013000012000000000000
#0111b:13130000
#01112:12000000000000120000000000000000
#01114:00001200001200001200000000000000
#01116:00000012000000000000120000000000
#0111a:00000000000000000000001200000000
#01115:00000026
#00918:00001300000013000000000000120000
#0091b:13130000
#00914:12000012000000121200000012000000
#00912:00001200001200000000000000001200
#00916:0000000000120000
#0091a:00000000000000000000001200000000
#0091c:00000000000000000012000000000000
#01716:1400141414140000
#01718:0014000000000000
#0171a:00241400
#01712:0000001400140000
#03212:16001500000000000000000000150000
#03216:00000013000000000000000000001300
#03219:00000000001500000000150000000000
#03217:00000000000013000000001300000000
#03214:0018
#03316:1815000000000000
#0331b:00000013000000000000000000000000
#03315:00000000001500000000000000000000
#03312:0000001318000000
#03416:18
#03418:0016000000160000
#03415:00000013001600000000001300160000
#03412:0000001316000013
#0421b:1300001300000023
#04217:00000013000013000000000000000000
#04212:00000013000000000000000000000000
#04712:2c1400002c140000
#04716:00000014000014000000001400140000
#0471a:00000000001400000000000000001400
#04812:0014000013131313
#0481a:0000001400000000
#04815:00000000000000000015001500150000
#04818:00340000000000000000000000000000
#04814:00000000003400000000000000000000
#05518:00001400000000140000001400140000
#0551a:00000014001400000000000000000014
#05516:00000000000000000014000000001400
#05514:0000000000141400
#05512:0014
#05618:00001300000000130000000000130000
#0561b:00000013001300000000000000000013
#05617:00000000000000000013000000000000
#05615:0000000000130000
#0561a:00000000000000000000001300000000
#05616:0000000000000013
#05612:0013
#05613:00000013
#05718:00001200000000000012000000000000
#0571a:00000012000000120000000000000000
#05715:0000000000120000
#0571b:00000000000000000000001200000000
#05719:00000000000000000000000000120000
#05716:0000000000000012
#0571c:00000000001200000000000000000012
#05712:0012
#05713:00000012
#05816:24140014000014000000140000000000
#0581a:00000000241400140000000000000000
#05812:0000000000000000241400142c000000
#0271a:00240000
#02716:0000002400000000
#02710:41
#03512:24
#03517:24
#03513:00240000
#03518:00240000
#03514:0024
#03519:0024
#03515:00000024
#0351a:00000024
#05014:28
#00052:63
#0005b:0053
#00152:63
#0015b:0053
#00352:23
#0035b:00000023000000000000000000000000
#00355:00000016
#00452:63630000
#00455:0023002300000000
#00655:0023002300000000
#00652:63630000
#00755:0023002300000000
#00752:63630000
#00758:00000044
#0075a:0000000000000044
#00753:00000000000000000000000000340000
#01452:63
#01456:00230000
#0155b:53
#01557:00230000
#01552:00000014
#0275a:00140000
#02756:0000001400000000
#02859:00001500000000000000000000150000
#02852:00000000001500000000150000000000
#03058:00000043000000000000004300000000
#0305b:0000004300000043
#03152:64
#03156:00240024
#0315a:0054
#03758:0044000000000000
#03754:0000003400000000
#03752:1c
#03852:1c00003400000000
#0385a:0044000000000000
#03956:00000034000044000000003400000000
#03952:1c0000001c000034
#04156:00000023000023000000000000000000
#0415b:00000023000000000000000000000000
#04152:2300002300000000
#04954:00000034
#04958:0000000000000044
#0495b:2300002300000000
#04957:00000023000023000000000000000000
#04952:00000023000000000000000000000000
#05452:0000000000000000000000001c1c1c00
#02352:3414
#02356:00000014
#0235a:00440000
#04554:0034000000000000
#04558:0000004400000000
#04552:1c
#04652:1c34000000000000
#0465a:0000004400000000
#01252:23
#01256:00530000
#00555:0023002300000000
#00552:63630000
#0025b:53
#00252:0063
#00858:0023002300000000
#0085b:53530000
#01058:0023002300000000
#0105b:53530000
#01158:0023002300000000
#0115b:53530000
#01155:00000016
#00958:0023002300000000
#0095b:53530000
#02955:0015000000000000
#02956:00000000001500000000000000000000
#03252:00001500000000000000000000150000
#03259:00000000001500000000150000000000
#03356:0015000000000000
#03355:00000000001500000000000000000000
#03557:14
#03553:00140000
#03559:0014
#03555:00000014
#0425b:2300002300000000
#04257:00000023000023000000000000000000
#04252:00000023000000000000000000000000
#04458:52
#04456:0052
#04756:00000044000034000000004400000000
#0475a:0000000000000044
#04752:1c1c
#05054:18
#05852:0000001c
#01656:0000642464240000
#01652:00546400
#0165a:0000002400240000
#03455:00000033000000000000003300000000
#03452:0000003300000033
#01756:0000542454240000
#0175a:00645400
#01752:0000002400240000
#000320:13
#000350:0023000000000000
#0003b0:0013
#000380:0000000000230000
#001320:13
#001350:0023000000000000
#0013b0:0013
#001380:0000000000230000
#001390:000000000000000000000000000000000000000000000000000000000000000000000000000000000000000000000000000000000000000000000000000000000000000000000000125200525200525200525200220000000000000000000000
#001380:000000000000000000000000000000000000000000000000000000000000000000000000000000000000000000000000000000000000000000000000000000000000000000000000000054000054000054000054000000000000000000000000
#001351:000000000000000000000000000000000000000000000000000000000000000000000000000000000000000000000000000000000000000000000000000000000000000000000000000000000000000000000000125200525200525200525200
#001341:000000000000000000000000000000000000000000000000000000000000000000000000000000000000000000000000000000000000000000000000000000000000000000000000000000000000000000000000000054000054000054000054
#002351:22
#0023b0:13
#002380:0023000000000000
#002320:0013
#002350:0000000000230000
#003320:13
#003360:00000023000000000000000000000000
#0033b1:00000013000000000000000000000000
#003371:0000002300000000
#004321:13532300
#004351:0053005300000000
#005321:13532300
#005351:0053005300000000
#006321:13532300
#006351:0053005300000000
#007321:13532300
#007351:0053005300000000
#0083b1:13532300
#008381:0053005300000000
#0093b1:13532300
#009381:0053005300000000
#0103b1:13532300
#010381:0053005300000000
#0113b1:13532300
#011381:0053005300000000
#012321:1323
#012361:00330000
#012361:00000013
#013321:23
#014321:1323
#014361:00530000
#0153b1:1323
#015371:00530000
#016321:00143424
#016361:0000003400340000
#016360:00143424
#0163a0:0000003400340000
#0173a0:00143424
#017360:0000003400340000
#017361:00143424
#017321:0000003400340000
#018321:00140000
#018331:00000000003400000000000000000000
#018341:0000002400000000
#018380:0000001400000000
#018390:00000000000000340000000000000000
#0183a0:0024
#018341:0014
#018351:00000000000000000034000000000000
#018361:0000000000240000
#0183a0:0000000000140000
#018390:00000000000000000000003400000000
#018380:00000024
#018341:00000014
#018331:00000000000000000000000000340000
#018321:0000000000000024
#018380:0000000000000014
#018370:00000000000000000000000000000034
#019360:24
#019321:13
#019361:00230000
#0193b1:0013
#019371:00000023
#019340:00000012
#019320:0000000000000032
#020340:22
#020320:00120000
#020360:0000002200000000
#020381:0000001200000000
#0203c1:0022
#0213c1:00120000
#021381:0000002200000000
#021360:0000001200000000
#021320:0022
#022320:00120000
#022360:0000002200000000
#022381:0000001200000000
#0223c1:0022
#0243c1:12
#0243a1:0022000000000000
#024360:0012000000000000
#024340:00220000
#0243a1:00120000
#024381:0000002200000000
#024340:0000001200000000
#024320:0022
#025320:12
#025340:0022000000000000
#025381:0012000000000000
#0253a1:00220000
#025340:00120000
#025360:0000002200000000
#0253a1:0000001200000000
#0253c1:0022
#0263c1:12
#026381:0022000000000000
#026360:0012000000000000
#026320:00220000
#026381:00120000
#0263c1:0000002200000000
#026320:0000001200000000
#026360:0022
#0273c0:12
#027380:0022000000000000
#027361:0012000000000000
#027321:00220000
#027381:00000000000000001434343424000000
#0273a1:0000000000000000000000000000000000540054005400540000000000000000
#027340:00000000000000000000000014343434
#027320:0000000000000000000000000000000000000000000000000054005400540054
#028340:24
#029320:0013
#029330:00000000000000000033000000000000
#029340:0000000000230000
#029371:0000000000130000
#029381:00000000000000000000003300000000
#029391:00000023
#029340:00000013
#029350:00000000000000000000000000330000
#029360:0000000000000023
#029391:0000000000000013
#0293a1:00000000000000000000000000000033
#0303b1:23
#031321:1424
#031361:00540000
#0313a0:0014
#031360:00000054
#0323a0:24
#0333b0:0013
#0333a0:00000000000000000033000000000000
#033390:0000000000230000
#033361:0000000000130000
#033351:00000000000000000000003300000000
#033341:00000023
#033390:00000013
#033380:00000000000000000000000000330000
#033370:0000000000000023
#033341:0000000000000013
#033331:00000000000000000000000000000033
#034321:23
#040321:14
#040341:00340000000000000000000000000000
#040361:0024000000000000
#0403a1:00140000
#040381:00000000003400000000000000000000
#040361:0000002400000000
#041321:1300003300000000
#041361:00000053000000000000220000000000
#0413b0:00000013000000000000000000000000
#041360:0000003300000000
#041380:0000000000220000
#0423b0:1300003300000000
#042370:00000053000000000000000000000000
#042380:0000000000220000
#042321:00000013000000000000000000000000
#042371:0000003300000000
#042361:0000000000220000
#044381:12
#0443c1:00000022000000000000000000000000
#044361:0012
#044321:00000000000000000000002200000000
#0483a1:14
#048381:00340000000000000000000000000000
#048361:0024000000000000
#048321:00140000
#048341:00000000003400000000000000000000
#048361:0000002400000000
#0493b1:1300003300000000
#049371:00000053000000000000000000000000
#049381:0000000000220000
#049320:00000013000000000000000000000000
#049370:0000003300000000
#049360:0000000000220000
#0513a0:14
#051380:0024000000000000
#051380:00140000
#0513a0:0000002400000000
#0523b0:13
#052380:0023000000000000
#052380:00130000
#0523b0:0000002300000000
#0533c0:12
#053380:0022000000000000
#053380:00120000
#0533c0:0000002200000000
#055320:14
#055340:0024000000000000
#055340:00140000
#055320:0000002400000000
#056320:13
#056350:0023000000000000
#056350:00130000
#056320:0000002300000000
#057320:12
#057360:0022000000000000
#057360:00120000
#057320:0000002200000000
#059340:14
#059320:0024000000000000
#059380:0014
#0593a0:0000000000240000
#060360:14
#060320:0024000000000000
#060360:0014
#0603a0:0000000000240000
#061320:13
#061350:0023000000000000
#0613b0:0013
#061380:0000000000230000
#062320:13
#062350:0023000000000000
